找回密码
 立即注册

QQ登录

只需一步,快速开始

查看: 148|回复: 0

[其他] 新蝙蝠侠 The.Batman.2022.2160p.WEBRip.DDP5.1.x264-NOGRP 15.32GB

[复制链接]

0

精华

0

好友

2

听众

新手上路

Rank: 2

蓝光币
5
发表于 2022-4-19 07:50:51 | 显示全部楼层 |阅读模式


◎译  名 新蝙蝠侠 / 蝙蝠侠(港 / 台) / 重启版蝙蝠侠
◎片  名 The Batman
◎年  代 2022
◎产  地 美国
◎类  别 剧情 / 动作 / 悬疑 / 犯罪
◎语  言 英语
◎上映日期 2022-03-18(中国大陆) / 2022-03-01(韩国) / 2022-03-04(美国) / 2022-04-19(美国网络)
◎IMDb链接 https://www.imdb.com/title/tt1877830/
◎豆瓣评分 7.6/10 (151658人评价)
◎豆瓣链接 https://movie.douban.com/subject/6424756/
◎片  长 175分钟
◎导  演 马特·里夫斯 Matt Reeves (id:1045032)
◎编  剧 马特·里夫斯 Matt Reeves (id:1045032)
       彼得·克莱格 Peter Craig (id:1041402)
       比尔·芬格 Bill Finger (id:1006536)
       鲍勃·凯恩 Bob Kane (id:1041392)
       马特森·汤姆林 Mattson Tomlin (id:1261166)
◎演  员 罗伯特·帕丁森 Robert Pattinson (id:1035656)
       佐伊·克罗维兹 Zo? Kravitz (id:1229502)
       保罗·达诺 Paul Dano (id:1027774)
       科林·法瑞尔 Colin Farrell (id:1084255)
       杰弗里·怀特 Jeffrey Wright (id:1036484)
       安迪·瑟金斯 Andy Serkis (id:1002708)
       约翰·特托罗 John Turturro (id:1031851)
       彼得·萨斯加德 Peter Sarsgaard (id:1031800)
       巴里·基奥恩 Barry Keoghan (id:1360874)
       杰米·劳森 Jayme Lawson (id:1426399)
       吉尔·佩雷斯-亚伯拉罕 Gil Perez-Abraham (id:1417825)
       彼得·麦克唐纳德 Peter McDonald (id:1005405)
       康·奥尼尔 Con O'Neill (id:1320053)
       亚历克斯·费恩斯 Alex Ferns (id:1028439)
       鲁伯特·彭利-琼斯 Rupert Penry-Jones (id:1136688)
       科莎·恩格勒 Kosha Engler (id:1189258)
       杰宁·哈瑞妮 Janine Harouni (id:1392803)
       卢克·罗伯茨 Luke Roberts (id:1347621)
       斯特拉·斯托克尔 Stella Stocker (id:1347692)
       桑德拉·迪金森 Sandra Dickinson (id:1090104)
       杰克·班尼特 Jack Bennett (id:1018997)
       约瑟夫·巴德拉玛 Joseph Balderrama (id:1400929)
       詹姆斯·伊莱斯 James Eeles (id:1376659)
       小利莫尔·马雷特 Leemore Marrett Jr. (id:1463867)
       斯图尔特·亚历山大 Stewart Alexander (id:1458669)
       马库斯·奥尼卢德 Marcus Onilude (id:1466041)
       埃琳娜·沙雷 Elena Saurel (id:1414357)
       托德·博伊斯 Todd Boyce (id:1350567)
       道格拉斯·罗素 Douglas Russell (id:1354930)
       查尔斯·卡维尔 Charles Carver (id:1315305)
       马克斯·卡维尔 Max Carver (id:1271263)
       马克·基林 Mark Killeen (id:1354933)
       洛娜·布朗 Lorna Brown (id:1279442)
       埃利奥特·沃伦 Elliot Warren (id:1433606)
       小田部阿基 Akie Kotabe (id:1231929)
       布隆森·韦伯 Bronson Webb (id:1032080)
       阿瑟·李 Arthur Lee (id:1411947)
       派瑞 格拉斯普 Parry Glasspool (id:1350561)
       娜塔丽·阿明 Nathalie Armin (id:1397366)
       何塞?帕尔马 Jose Palma (id:1418875)
       玛吉·巴基尔 Maggie Bakir (id:1454332)
       露丝·霍洛克斯 Ruth Horrocks (id:1397361)
       贝恩·科拉科 Bern Colla?o (id:1394212)
       丹尼尔·厄根 Daniel Eghan (id:1367202)
       雷切尔·汉德肖 Rachel Handshaw (id:1433060)
       爵克·哈迪 Juke Hardy (id:1381994)
       吉米·斯达 Jimmy Star (id:1273873)
       马特·里夫斯 Matt Reeves (id:1045032)
       迪伦·克拉克 Dylan Clark (id:1419902)
       马切尔·E·尤斯兰 Michael E. Uslan (id:1413601)
       迈克·吉亚奇诺 Michael Giacchino (id:1027937)
       格雷格·弗莱瑟 Greig Fraser (id:1028361)
       泰勒·纳尔逊 Tyler Nelson (id:1431508)
       辛迪·托兰 Cindy Tolan (id:1303459)
       詹姆斯·钦伦德 James Chinlund (id:1418711)
       大卫·克罗斯曼 David Crossman (id:1006793)
       杰奎琳·杜兰 Jacqueline Durran (id:1282857)
       格林·狄龙 Glyn Dillon (id:1424821)
       丹·赖蒙 Dan Lemmon (id:1289780)
◎简  介

  布鲁斯·韦恩(罗伯特·帕丁森 饰)化身蝙蝠侠于哥谭市行侠仗义两年后,罪犯皆闻风丧胆,他也因此深入接触到哥谭市的阴暗面。他潜行于哥谭市腐败的政要名流关系网中,身边仅有的几个值得信赖的盟友——管家阿尔弗雷德·潘尼沃斯(安迪·瑟金斯 饰)与詹姆斯·戈登警长(杰弗里·怀特 饰)。这位独行的“义警侠探”在哥谭市民心中已成为“复仇”二字最当仁不让的代名词。
  1. Video
  2. ID                                       : 1
  3. Format                                   : AVC
  4. Format/Info                              : Advanced Video Codec
  5. Format profile                           : [email protected]
  6. Format settings                          : CABAC / 4 Ref Frames
  7. Format settings, CABAC                   : Yes
  8. Format settings, Reference frames        : 4 frames
  9. Codec ID                                 : V_MPEG4/ISO/AVC
  10. Duration                                 : 2 h 56 min
  11. Bit rate                                 : 12.0 Mb/s
  12. Width                                    : 3 840 pixels
  13. Height                                   : 2 160 pixels
  14. Display aspect ratio                     : 16:9
  15. Frame rate mode                          : Constant
  16. Frame rate                               : 23.976 (24000/1001/189150) FPS
  17. Color space                              : YUV
  18. Chroma subsampling                       : 4:2:0
  19. Bit depth                                : 8 bits
  20. Scan type                                : Progressive
  21. Bits/(Pixel*Frame)                       : 0.060
  22. Stream size                              : 14.8 GiB (96%)
  23. Writing library                          : x264 core 161 r3048 b86ae3c
  24. Encoding settings                        : cabac=1 / ref=2 / deblock=1:-1:-1 / analyse=0x1:0x111 / me=esa / subme=9 / psy=1 / psy_rd=1.00:0.15 / mixed_ref=1 / me_range=16 / chroma_me=1 / trellis=1 / 8x8dct=0 / cqm=0 / deadzone=21,11 / fast_pskip=1 / chroma_qp_offset=-3 / threads=18 / lookahead_threads=1 / sliced_threads=0 / nr=0 / decimate=1 / interlaced=0 / bluray_compat=0 / constrained_intra=0 / bframes=4 / b_pyramid=2 / b_adapt=1 / b_bias=0 / direct=1 / weightb=1 / open_gop=0 / weightp=2 / keyint=120 / keyint_min=61 / scenecut=0 / intra_refresh=0 / rc_lookahead=40 / rc=2pass / mbtree=1 / bitrate=12000 / ratetol=1.0 / qcomp=0.60 / qpmin=0 / qpmax=69 / qpstep=4 / cplxblur=20.0 / qblur=0.5 / ip_ratio=1.40 / aq=1:1.00
  25. Default                                  : Yes
  26. Forced                                   : No
  27. Color range                              : Limited
  28. Color primaries                          : BT.709
  29. Transfer characteristics                 : BT.709
  30. Matrix coefficients                      : BT.709

  31. Audio
  32. ID                                       : 2
  33. Format                                   : E-AC-3
  34. Format/Info                              : Enhanced AC-3
  35. Commercial name                          : Dolby Digital Plus
  36. Codec ID                                 : A_EAC3
  37. Duration                                 : 2 h 56 min
  38. Bit rate mode                            : Constant
  39. Bit rate                                 : 448 kb/s
  40. Channel(s)                               : 6 channels
  41. Channel layout                           : L R C LFE Ls Rs
  42. Sampling rate                            : 48.0 kHz
  43. Frame rate                               : 31.250 FPS (1536 SPF)
  44. Compression mode                         : Lossy
  45. Stream size                              : 565 MiB (4%)
  46. Language                                 : English
  47. Service kind                             : Complete Main
  48. Default                                  : Yes
  49. Forced                                   : No

  50. Text #1
  51. ID                                       : 3
  52. Format                                   : UTF-8
  53. Codec ID                                 : S_TEXT/UTF8
  54. Codec ID/Info                            : UTF-8 Plain Text
  55. Duration                                 : 2 h 43 min
  56. Bit rate                                 : 45 b/s
  57. Count of elements                        : 2041
  58. Stream size                              : 54.7 KiB (0%)
  59. Language                                 : English
  60. Default                                  : Yes
  61. Forced                                   : No

  62. Text #2
  63. ID                                       : 4
  64. Format                                   : UTF-8
  65. Codec ID                                 : S_TEXT/UTF8
  66. Codec ID/Info                            : UTF-8 Plain Text
  67. Duration                                 : 2 h 55 min
  68. Bit rate                                 : 53 b/s
  69. Count of elements                        : 2573
  70. Stream size                              : 69.4 KiB (0%)
  71. Title                                    : SDH
  72. Language                                 : English
  73. Default                                  : No
  74. Forced                                   : No
复制代码







                                       
                                       

                                       
                                       
                                       




The.Batman.2022.2160p.WEBRip.DDP5.1.x264-NOGRP.torrent (19.77 KB, 下载次数: 18)
回复

使用道具 举报

您需要登录后才可以回帖 登录 | 立即注册

本版积分规则

QQ|Archiver|手机版|小黑屋|蓝光电影网

GMT+8, 2022-5-19 22:39 , Processed in 0.052798 second(s), 28 queries .

Powered by Discuz! X3.4

Copyright © 2001-2020, Tencent Cloud.

快速回复 返回顶部 返回列表