找回密码
 立即注册

QQ登录

只需一步,快速开始

查看: 20|回复: 0

[其他] 鳄鱼莱莱 Lyle.Lyle.Crocodile.2022.2160p.WEB-DL.DDP5.1.Atmos.DV.MP4.x265-DVSUX 11.38GB

[复制链接]

0

精华

0

好友

2

听众

新手上路

Rank: 2

蓝光币
5
发表于 7 天前 | 显示全部楼层 |阅读模式
[img][/img]

◎标  题 鳄鱼莱莱
◎译  名 纽约爱音鳄(港) / 鳄鱼歌王(台) / 鳄鱼莱尔
◎片  名 Lyle, Lyle, Crocodile
◎年  代 2022
◎产  地 美国
◎类  别 喜剧 / 动画 / 歌舞 / 家庭 / 奇幻 / 冒险
◎语  言 英语
◎上映日期 2022-10-07(美国)
◎IMDb评分 6.5/10 (1159人评价)
◎IMDb链接 https://www.imdb.com/title/tt14668630/
◎豆瓣评分 7.0/10 (188人评价)
◎豆瓣链接 https://movie.douban.com/subject/35606498/
◎片  长 106分钟
◎导  演 乔什·戈登 Josh Gordon
       威尔·斯佩克 Will Speck
◎编  剧 威廉姆·戴维斯 William Davies
       伯纳德·韦伯 Bernard Waber
◎演  员 肖恩·蒙德兹 Shawn Mendes
       哈维尔·巴登 Javier Bardem
       吴恬敏 Constance Wu
       斯科特·麦克纳里 Scoot McNairy
       温斯洛·费格雷 Winslow Fegley
       布伦特·吉尔曼 Brett Gelman
       萨尔·维斯库索 Sal Viscuso
       多恩·迪皮塔 Don DiPetta
       尤西·丘辟特 Yussie Jupiter
       科拉·林德尔 Cora Maple Lindell
       马克·威尔斯 Mac Wells
       林赛·莫泽 Lindsey Moser
       丹尼·所罗门 Danny Salomon
       本吉·帕塞克 Benj Pasek
       贾斯汀·保罗 Justin Paul
◎简  介

  影片改编自风靡全球的同名绘本系列,肖恩·蒙德兹献声演唱鳄鱼莱莱。                                    
                                故事讲述了小男孩乔什·普利姆跟随父母举家搬进大城市的新居,和一只住在阁楼上、能舞会唱的鳄鱼成为好朋友的奇遇故事。自带欢乐属性的鳄鱼莱莱治愈了难以适应新环境的乔什,乔什也努力消除父母对莱莱的偏见。两小只开启前所未有的都市历险,历经重重欢乐闹剧,莱莱与普利姆一家最终成为了彼此的家人与伙伴。
  1. Video
  2. ID                                       : 1
  3. Format                                   : HEVC
  4. Format/Info                              : High Efficiency Video Coding
  5. Format profile                           : Main [email protected]@High
  6. HDR format                               : Dolby Vision, Version 1.0, dvhe.05.06, BL+RPU
  7. Codec ID                                 : dvhe
  8. Codec ID/Info                            : High Efficiency Video Coding with Dolby Vision
  9. Duration                                 : 1 h 46 min
  10. Bit rate                                 : 14.5 Mb/s
  11. Width                                    : 3 840 pixels
  12. Height                                   : 1 608 pixels
  13. Original height                          : 1 606 pixels
  14. Display aspect ratio                     : 2.40:1
  15. Original display aspect ratio            : 2.40:1
  16. Frame rate mode                          : Constant
  17. Frame rate                               : 23.976 (24000/1001/189150) FPS
  18. Color space                              : YUV
  19. Chroma subsampling                       : 4:2:0
  20. Bit depth                                : 10 bits
  21. Bits/(Pixel*Frame)                       : 0.098
  22. Stream size                              : 10.8 GiB (95%)
  23. Default                                  : Yes
  24. Alternate group                          : 1
  25. Encoded date                             : UTC 2022-11-22 06:56:25
  26. Tagged date                              : UTC 2022-11-22 06:58:36
  27. Codec configuration box                  : hvcC+dvcC
  28. Audio
  29. ID                                       : 2
  30. Format                                   : E-AC-3 JOC
  31. Format/Info                              : Enhanced AC-3 with Joint Object Coding
  32. Commercial name                          : Dolby Digital Plus with Dolby Atmos
  33. Codec ID                                 : ec-3
  34. Duration                                 : 1 h 46 min
  35. Bit rate mode                            : Constant
  36. Bit rate                                 : 768 kb/s
  37. Maximum bit rate                         : 811 kb/s
  38. Channel(s)                               : 6 channels
  39. Channel layout                           : L R C LFE Ls Rs
  40. Sampling rate                            : 48.0 kHz
  41. Frame rate                               : 31.250 FPS (1536 SPF)
  42. Compression mode                         : Lossy
  43. Stream size                              : 586 MiB (5%)
  44. Title                                    : English
  45. Language                                 : English
  46. Service kind                             : Complete Main
  47. Default                                  : Yes
  48. Alternate group                          : 1
  49. Tagged date                              : UTC 2022-11-22 06:58:36
  50. Complexity index                         : Not present / 16
  51. Number of dynamic objects                : 15
  52. Bed channel count                        : 1 channel
  53. Bed channel configuration                : LFE
  54. Text #1
  55. ID                                       : 3
  56. Format                                   : Timed Text
  57. Codec ID                                 : tx3g
  58. Duration                                 : 1 h 44 min
  59. Bit rate mode                            : Variable
  60. Bit rate                                 : 73 b/s
  61. Frame rate                               : 0.352 FPS
  62. Stream size                              : 55.7 KiB (0%)
  63. Title                                    : English
  64. Language                                 : English
  65. Forced                                   : No
  66. Encoded date                             : UTC 2022-11-22 06:58:34
  67. Tagged date                              : UTC 2022-11-22 06:58:36
  68. Text #2
  69. ID                                       : 4
  70. Format                                   : Timed Text
  71. Codec ID                                 : tx3g
  72. Duration                                 : 1 h 40 min
  73. Bit rate mode                            : Variable
  74. Bit rate                                 : 64 b/s
  75. Frame rate                               : 0.416 FPS
  76. Stream size                              : 47.1 KiB (0%)
  77. Title                                    : English
  78. Language                                 : English
  79. Forced                                   : No
  80. Encoded date                             : UTC 2022-11-22 06:58:35
  81. Tagged date                              : UTC 2022-11-22 06:58:36
  82. Text #3
  83. ID                                       : 5
  84. Format                                   : Timed Text
  85. Codec ID                                 : tx3g
  86. Duration                                 : 1 h 40 min
  87. Bit rate mode                            : Variable
  88. Bit rate                                 : 64 b/s
  89. Frame rate                               : 0.416 FPS
  90. Stream size                              : 47.1 KiB (0%)
  91. Title                                    : English
  92. Language                                 : English
  93. Forced                                   : No
  94. Encoded date                             : UTC 2022-11-22 06:58:35
  95. Tagged date                              : UTC 2022-11-22 06:58:36
  96. Text #4
  97. ID                                       : 6
  98. Format                                   : Timed Text
  99. Codec ID                                 : tx3g
  100. Duration                                 : 1 h 46 min
  101. Bit rate mode                            : Variable
  102. Bit rate                                 : 54 b/s
  103. Frame rate                               : 0.383 FPS
  104. Stream size                              : 42.0 KiB (0%)
  105. Title                                    : Chinese-Cantonese
  106. Language                                 : Chinese
  107. Forced                                   : No
  108. Encoded date                             : UTC 2022-11-22 06:58:35
  109. Tagged date                              : UTC 2022-11-22 06:58:36
  110. Text #5
  111. ID                                       : 7
  112. Format                                   : Timed Text
  113. Codec ID                                 : tx3g
  114. Duration                                 : 1 h 46 min
  115. Bit rate mode                            : Variable
  116. Bit rate                                 : 55 b/s
  117. Frame rate                               : 0.381 FPS
  118. Stream size                              : 42.9 KiB (0%)
  119. Title                                    : Indonesian
  120. Language                                 : Indonesian
  121. Forced                                   : No
  122. Encoded date                             : UTC 2022-11-22 06:58:35
  123. Tagged date                              : UTC 2022-11-22 06:58:36
  124. Text #6
  125. ID                                       : 8
  126. Format                                   : Timed Text
  127. Codec ID                                 : tx3g
  128. Duration                                 : 1 h 46 min
  129. Bit rate mode                            : Variable
  130. Bit rate                                 : 74 b/s
  131. Frame rate                               : 0.384 FPS
  132. Stream size                              : 58.1 KiB (0%)
  133. Title                                    : Vietnamese
  134. Language                                 : Vietnamese
  135. Forced                                   : No
  136. Encoded date                             : UTC 2022-11-22 06:58:36
  137. Tagged date                              : UTC 2022-11-22 06:58:36
复制代码




                                       
                                       

                                       
                                       
                                       




Lyle.Lyle.Crocodile.2022.2160p.WEB-DL.DDP5.1.Atmos.DV.MP4.x265-DVSUX.torrent (14.89 KB, 下载次数: 0)
回复

使用道具 举报

您需要登录后才可以回帖 登录 | 立即注册

本版积分规则

QQ|Archiver|手机版|小黑屋|蓝光电影网

GMT+8, 2022-11-30 09:23 , Processed in 0.064339 second(s), 28 queries .

Powered by Discuz! X3.4

Copyright © 2001-2020, Tencent Cloud.

快速回复 返回顶部 返回列表