找回密码
 立即注册

QQ登录

只需一步,快速开始

查看: 74|回复: 0

[其他] 禁入家园 Domestic.Disturbance.2001.1080p.BluRay.REMUX.AVC.DTS-HD.MA.5.1-FGT 16.93GB

[复制链接]

0

精华

0

好友

2

听众

新手上路

Rank: 2

蓝光币
5
发表于 2022-10-7 07:32:39 | 显示全部楼层 |阅读模式
[img][/img]

◎译  名 禁入家园 / 家有凶徒 / 亲密杀机 / 家庭骚乱
◎片  名 Domestic Disturbance
◎年  代 2001
◎产  地 美国
◎类  别 悬疑 / 惊悚 / 犯罪
◎语  言 英语
◎上映日期 2001-10-30
◎IMDb链接 https://www.imdb.com/title/tt0249478/
◎豆瓣评分 6.2/10 (447人评价)
◎豆瓣链接 https://movie.douban.com/subject/1305670/
◎片  长 89 分钟
◎导  演 哈罗德·贝克尔 Harold Becker (id:1027587)
◎编  剧 刘易斯·科利克 Lewis Colick (id:1281034)
◎演  员 约翰·特拉沃尔塔 John Travolta (id:1054426)
       丽贝卡·蒂尔尼 Rebecca Tilney (id:1152025)
       迪布拉·穆尼 Debra Mooney (id:1133075)
       文斯·沃恩 Vince Vaughn (id:1002673)
       特丽·波洛 Teri Polo (id:1019032)
       马特·欧莱瑞 Matt O'Leary (id:1009351)
       鲁本·桑地亚哥-哈德森 Ruben Santiago-Hudson (id:1144231)
       苏珊·弗洛德 Susan Floyd (id:1081810)
       威廉·帕里 William Parry (id:1136927)
       史蒂夫·布西密 Steve Buscemi (id:1054409)
        Craig Scott Conner (id:1264818)
        Aaron Fiore (id:1223582)
        Ty Sears (id:1218753)
       布丽吉特托马尔基奥 Bridgetta Tomarchio (id:1169817)
       Charles E. Bailey Charles E. Bailey (id:1166138)
       David Schifter David Schifter (id:1025690)
       吉姆·麦司奇门 Jim Meskimen (id:1055696)
       克里斯·埃里斯 Chris Ellis (id:1088482)
       扎克·哈内尔 Zach Hanner (id:1099070)
       尼克·罗兰 Nick Loren (id:1120203)
       霍尔姆斯·奥斯本 Holmes Osborne (id:1129889)
       安吉丽卡·托恩 Angelica Torn (id:1155599)
       哈罗德·贝克尔 Harold Becker (id:1027587)
       乔纳森·D.克兰 Jonathan D. Krane (id:1276659)
       马克·曼西纳 Mark Mancina (id:1032518)
       迈克尔·塞瑞岑 Michael Seresin (id:1009970)
       彼得·霍尼斯 Peter Honess (id:1286837)
       Gretchen Rennell Gretchen Rennell (id:1295462)
       Robert Greenfield Robert Greenfield (id:1285401)
       Barry Chusid Barry Chusid (id:1280793)
       Clay A. Griffith Clay A. Griffith (id:1285467)
       蒂娜·恩肖 Tina Earnshaw (id:1282939)
       波莉·恩肖 Polly Earnshaw (id:1282946)
       Candida Conery Candida Conery (id:1281122)
       米歇尔·布勒 Michelle Bühler (id:1279844)
       约兰达·塔辛 Yolanda Toussieng (id:1299453)
       Toni-Ann Walker Toni-Ann Walker (id:1300313)
       阿兰·格拉夫 Allan Graf (id:1285262)
       Patrick Murphy Patrick Murphy (id:1129780)
◎简  介

  弗兰克(约翰·特拉沃尔塔 John Travolta 饰)和苏珊(泰瑞·波罗 Teri Polo 饰)虽然离了婚,但是两人对于他们的孩子丹尼(马特·欧莱瑞 Matt O'Leary 饰)的爱却没有终止。尽管婚姻失败了,但在教育上,弗兰克和苏珊都希望能够尽到他们的职责。在父母的纵容和溺爱下,丹尼渐渐成为了一个满口谎言不学无术的坏孩子。                                    
                                某日,苏珊邂逅了名为瑞克(文斯·沃恩 Vince Vaughn 饰)的男子,文质彬彬的瑞克很快就吸引了苏珊的注意,两人渐渐走到一起,然而,就在他们准备结婚之时,丹尼却告诉弗兰克,瑞克的真实身份是一名杀手。面对行事诡异的瑞克和扯谎成性的儿子,弗兰克不知道该选择相信谁。
  1. Video
  2. ID                                       : 1
  3. ID in the original source medium         : 4113 (0x1011)
  4. Format                                   : AVC
  5. Format/Info                              : Advanced Video Codec
  6. Format profile                           : [email protected]
  7. Format settings                          : CABAC / 3 Ref Frames
  8. Format settings, CABAC                   : Yes
  9. Format settings, Reference frames        : 3 frames
  10. Codec ID                                 : V_MPEG4/ISO/AVC
  11. Duration                                 : 1 h 29 min
  12. Bit rate mode                            : Variable
  13. Bit rate                                 : 26.0 Mb/s
  14. Maximum bit rate                         : 40.0 Mb/s
  15. Width                                    : 1 920 pixels
  16. Height                                   : 1 080 pixels
  17. Display aspect ratio                     : 16:9
  18. Frame rate mode                          : Constant
  19. Frame rate                               : 23.976 (24000/1001/189150) FPS
  20. Color space                              : YUV
  21. Chroma subsampling                       : 4:2:0
  22. Bit depth                                : 8 bits
  23. Scan type                                : Progressive
  24. Bits/(Pixel*Frame)                       : 0.523
  25. Stream size                              : 15.6 GiB (92%)
  26. Writing library                          : x264 core 152 r2851bm ba24899
  27. Encoding settings                        : cabac=1 / ref=4 / deblock=1:0:0 / analyse=0x3:0x133 / me=umh / subme=9 / psy=1 / psy_rd=1.00:0.00 / mixed_ref=1 / me_range=16 / chroma_me=1 / trellis=2 / 8x8dct=1 / cqm=0 / deadzone=21,11 / fast_pskip=1 / chroma_qp_offset=-2 / threads=24 / lookahead_threads=2 / sliced_threads=0 / slices=4 / nr=0 / decimate=1 / interlaced=0 / bluray_compat=1 / constrained_intra=0 / bframes=3 / b_pyramid=1 / b_adapt=2 / b_bias=0 / direct=3 / weightb=1 / open_gop=1 / weightp=1 / keyint=24 / keyint_min=1 / scenecut=40 / intra_refresh=0 / rc_lookahead=24 / rc=abr / mbtree=1 / bitrate=26000 / ratetol=1.0 / qcomp=0.60 / qpmin=0 / qpmax=69 / qpstep=4 / vbv_maxrate=40000 / vbv_bufsize=30000 / nal_hrd=vbr / filler=0 / ip_ratio=1.40 / aq=1:1.00
  28. Language                                 : English
  29. Default                                  : No
  30. Forced                                   : No
  31. Color range                              : Limited
  32. Color primaries                          : BT.709
  33. Transfer characteristics                 : BT.709
  34. Matrix coefficients                      : BT.709
  35. Original source medium                   : Blu-ray
  36. Audio #1
  37. ID                                       : 2
  38. ID in the original source medium         : 4352 (0x1100)
  39. Format                                   : DTS XLL
  40. Format/Info                              : Digital Theater Systems
  41. Commercial name                          : DTS-HD Master Audio
  42. Codec ID                                 : A_DTS
  43. Duration                                 : 1 h 29 min
  44. Bit rate mode                            : Variable
  45. Bit rate                                 : 1 920 kb/s
  46. Channel(s)                               : 6 channels
  47. Channel layout                           : C L R Ls Rs LFE
  48. Sampling rate                            : 48.0 kHz
  49. Frame rate                               : 93.750 FPS (512 SPF)
  50. Bit depth                                : 16 bits
  51. Compression mode                         : Lossless
  52. Stream size                              : 1.20 GiB (7%)
  53. Title                                    : DTS-HD MA 5.1
  54. Language                                 : English
  55. Default                                  : Yes
  56. Forced                                   : No
  57. Original source medium                   : Blu-ray
  58. Audio #2
  59. ID                                       : 3
  60. ID in the original source medium         : 4353 (0x1101)
  61. Format                                   : AC-3
  62. Format/Info                              : Audio Coding 3
  63. Commercial name                          : Dolby Digital
  64. Codec ID                                 : A_AC3
  65. Duration                                 : 1 h 29 min
  66. Bit rate mode                            : Constant
  67. Bit rate                                 : 256 kb/s
  68. Channel(s)                               : 2 channels
  69. Channel layout                           : L R
  70. Sampling rate                            : 48.0 kHz
  71. Frame rate                               : 31.250 FPS (1536 SPF)
  72. Compression mode                         : Lossy
  73. Stream size                              : 163 MiB (1%)
  74. Title                                    : DD 2.0
  75. Language                                 : English
  76. Service kind                             : Complete Main
  77. Default                                  : No
  78. Forced                                   : No
  79. Original source medium                   : Blu-ray
  80. Text #1
  81. ID                                       : 4
  82. Format                                   : UTF-8
  83. Codec ID                                 : S_TEXT/UTF8
  84. Codec ID/Info                            : UTF-8 Plain Text
  85. Duration                                 : 1 h 20 min
  86. Bit rate                                 : 66 b/s
  87. Frame rate                               : 0.204 FPS
  88. Count of elements                        : 988
  89. Stream size                              : 39.4 KiB (0%)
  90. Language                                 : English
  91. Default                                  : Yes
  92. Forced                                   : No
  93. Text #2
  94. ID                                       : 5
  95. ID in the original source medium         : 4608 (0x1200)
  96. Format                                   : PGS
  97. Muxing mode                              : zlib
  98. Codec ID                                 : S_HDMV/PGS
  99. Codec ID/Info                            : Picture based subtitle format used on BDs/HD-DVDs
  100. Duration                                 : 1 h 20 min
  101. Bit rate                                 : 36.1 kb/s
  102. Frame rate                               : 0.295 FPS
  103. Count of elements                        : 1430
  104. Stream size                              : 20.9 MiB (0%)
  105. Language                                 : English
  106. Default                                  : No
  107. Forced                                   : No
  108. Original source medium                   : Blu-ray
  109. Text #3
  110. ID                                       : 6
  111. ID in the original source medium         : 4609 (0x1201)
  112. Format                                   : PGS
  113. Muxing mode                              : zlib
  114. Codec ID                                 : S_HDMV/PGS
  115. Codec ID/Info                            : Picture based subtitle format used on BDs/HD-DVDs
  116. Duration                                 : 1 h 23 min
  117. Bit rate                                 : 36.7 kb/s
  118. Frame rate                               : 0.206 FPS
  119. Count of elements                        : 1029
  120. Stream size                              : 21.9 MiB (0%)
  121. Language                                 : English
  122. Default                                  : No
  123. Forced                                   : No
  124. Original source medium                   : Blu-ray
  125. Menu
  126. 00:00:00.000                             : en:Chapter 01
  127. 00:06:20.088                             : en:Chapter 02
  128. 00:11:38.489                             : en:Chapter 03
  129. 00:16:17.559                             : en:Chapter 04
  130. 00:20:15.547                             : en:Chapter 05
  131. 00:24:27.966                             : en:Chapter 06
  132. 00:32:19.228                             : en:Chapter 07
  133. 00:36:05.872                             : en:Chapter 08
  134. 00:40:20.376                             : en:Chapter 09
  135. 00:44:11.690                             : en:Chapter 10
  136. 00:50:43.248                             : en:Chapter 11
  137. 01:01:29.727                             : en:Chapter 12
  138. 01:07:57.031                             : en:Chapter 13
  139. 01:15:29.274                             : en:Chapter 14
  140. 01:23:30.380                             : en:Chapter 15
复制代码




                                       
                                       

                                       
                                       
                                       




Domestic.Disturbance.2001.1080p.BluRay.REMUX.AVC.DTS-HD.MA.5.1-FGT.torrent (21.82 KB, 下载次数: 0)
回复

使用道具 举报

您需要登录后才可以回帖 登录 | 立即注册

本版积分规则

QQ|Archiver|手机版|小黑屋|蓝光电影网

GMT+8, 2022-11-30 08:02 , Processed in 0.053552 second(s), 28 queries .

Powered by Discuz! X3.4

Copyright © 2001-2020, Tencent Cloud.

快速回复 返回顶部 返回列表