找回密码
 立即注册

QQ登录

只需一步,快速开始

查看: 38|回复: 0

[其他] 铁血战士:猎物 Prey.2022.2160p.DSNP.WEB-DL.x265.10bit.HDR.DDP5.1.Atmos-CM 11.90GB

[复制链接]

0

精华

0

好友

2

听众

新手上路

Rank: 2

蓝光币
5
发表于 前天 07:59 | 显示全部楼层 |阅读模式


◎标  题 铁血战士:猎物
◎译  名 铁血战士5 / 终极战士:兽猎者(台) / 铁血战士:骷髅 / Skulls / 铁血战士:狩猎追击(港)
◎片  名 Prey
◎年  代 2022
◎产  地 美国
◎类  别 动作 / 科幻 / 恐怖
◎语  言 英语
◎上映日期 2022-08-05(美国网络)
◎IMDb评分 6.4/10 (877人评价)
◎IMDb链接 https://www.imdb.com/title/tt11866324/
◎豆瓣链接 https://movie.douban.com/subject/35262994/
◎导  演 丹·特拉亨伯格 Dan Trachtenberg
◎演  员 安伯·明迪桑德 Amber Midthunder
       戴恩·迪利格罗 Dane DiLiegro
       斯蒂芬·马蒂亚斯 Stefany Mathias
       斯托米·基普 Stormee Kipp
       达寇塔·比弗 Dakota Beavers
       杰夫·卡特 Jeff Cutter
◎简  介

  Prey is coming to Hulu August 5                                       
                                    “Prey,” an all-new action-thriller from 20th Century Studios directed by Dan Trachtenberg (“The Boys,” “10 Cloverfield Lane”) and the newest entry in the “Predator” franchise, will stream August 5, 2022, exclusively on Hulu.                                       
                                                                           
                                    Set in the Comanche Nation 300 years ago, “Prey” is the story of a young woman, Naru, a fierce and highly skilled warrior....
  1. Video
  2. ID                                       : 1
  3. Format                                   : HEVC
  4. Format/Info                              : High Efficiency Video Coding
  5. Format profile                           : Main [email protected]@High
  6. HDR format                               : SMPTE ST 2086, HDR10 compatible
  7. Codec ID                                 : V_MPEGH/ISO/HEVC
  8. Duration                                 : 1 h 39 min
  9. Bit rate                                 : 16.4 Mb/s
  10. Width                                    : 3 840 pixels
  11. Height                                   : 2 160 pixels
  12. Display aspect ratio                     : 16:9
  13. Frame rate mode                          : Constant
  14. Frame rate                               : 24.000 FPS
  15. Color space                              : YUV
  16. Chroma subsampling                       : 4:2:0
  17. Bit depth                                : 10 bits
  18. Bits/(Pixel*Frame)                       : 0.082
  19. Stream size                              : 11.4 GiB (95%)
  20. Language                                 : English
  21. Default                                  : Yes
  22. Forced                                   : No
  23. Color range                              : Limited
  24. Color primaries                          : BT.2020
  25. Transfer characteristics                 : PQ
  26. Matrix coefficients                      : BT.2020 non-constant
  27. Mastering display color primaries        : BT.2020
  28. Mastering display luminance              : min: 0.0001 cd/m2, max: 1000 cd/m2
  29. Audio
  30. ID                                       : 2
  31. Format                                   : E-AC-3 JOC
  32. Format/Info                              : Enhanced AC-3 with Joint Object Coding
  33. Commercial name                          : Dolby Digital Plus with Dolby Atmos
  34. Codec ID                                 : A_EAC3
  35. Duration                                 : 1 h 39 min
  36. Bit rate mode                            : Constant
  37. Bit rate                                 : 768 kb/s
  38. Channel(s)                               : 6 channels
  39. Channel layout                           : L R C LFE Ls Rs
  40. Sampling rate                            : 48.0 kHz
  41. Frame rate                               : 31.250 FPS (1536 SPF)
  42. Compression mode                         : Lossy
  43. Stream size                              : 547 MiB (4%)
  44. Language                                 : English
  45. Service kind                             : Complete Main
  46. Default                                  : Yes
  47. Forced                                   : No
  48. Complexity index                         : 16
  49. Number of dynamic objects                : 15
  50. Bed channel count                        : 1 channel
  51. Bed channel configuration                : LFE
  52. Text #1
  53. ID                                       : 3
  54. Format                                   : UTF-8
  55. Codec ID                                 : S_TEXT/UTF8
  56. Codec ID/Info                            : UTF-8 Plain Text
  57. Duration                                 : 1 h 29 min
  58. Bit rate                                 : 29 b/s
  59. Frame rate                               : 0.158 FPS
  60. Count of elements                        : 852
  61. Stream size                              : 19.5 KiB (0%)
  62. Title                                    : SDH
  63. Language                                 : English
  64. Default                                  : No
  65. Forced                                   : No
  66. Text #2
  67. ID                                       : 4
  68. Format                                   : UTF-8
  69. Codec ID                                 : S_TEXT/UTF8
  70. Codec ID/Info                            : UTF-8 Plain Text
  71. Duration                                 : 1 h 28 min
  72. Bit rate                                 : 15 b/s
  73. Frame rate                               : 0.072 FPS
  74. Count of elements                        : 381
  75. Stream size                              : 9.78 KiB (0%)
  76. Language                                 : English
  77. Default                                  : No
  78. Forced                                   : No
  79. Text #3
  80. ID                                       : 5
  81. Format                                   : UTF-8
  82. Codec ID                                 : S_TEXT/UTF8
  83. Codec ID/Info                            : UTF-8 Plain Text
  84. Duration                                 : 1 h 38 min
  85. Bit rate                                 : 10 b/s
  86. Frame rate                               : 0.048 FPS
  87. Count of elements                        : 287
  88. Stream size                              : 7.78 KiB (0%)
  89. Language                                 : Czech
  90. Default                                  : No
  91. Forced                                   : No
  92. Text #4
  93. ID                                       : 6
  94. Format                                   : UTF-8
  95. Codec ID                                 : S_TEXT/UTF8
  96. Codec ID/Info                            : UTF-8 Plain Text
  97. Duration                                 : 1 h 38 min
  98. Bit rate                                 : 10 b/s
  99. Frame rate                               : 0.050 FPS
  100. Count of elements                        : 296
  101. Stream size                              : 7.70 KiB (0%)
  102. Language                                 : Danish
  103. Default                                  : No
  104. Forced                                   : No
  105. Text #5
  106. ID                                       : 7
  107. Format                                   : UTF-8
  108. Codec ID                                 : S_TEXT/UTF8
  109. Codec ID/Info                            : UTF-8 Plain Text
  110. Duration                                 : 1 h 38 min
  111. Bit rate                                 : 11 b/s
  112. Frame rate                               : 0.048 FPS
  113. Count of elements                        : 286
  114. Stream size                              : 8.25 KiB (0%)
  115. Language                                 : German
  116. Default                                  : No
  117. Forced                                   : No
  118. Text #6
  119. ID                                       : 8
  120. Format                                   : UTF-8
  121. Codec ID                                 : S_TEXT/UTF8
  122. Codec ID/Info                            : UTF-8 Plain Text
  123. Duration                                 : 1 h 38 min
  124. Bit rate                                 : 19 b/s
  125. Frame rate                               : 0.050 FPS
  126. Count of elements                        : 299
  127. Stream size                              : 14.1 KiB (0%)
  128. Language                                 : Greek
  129. Default                                  : No
  130. Forced                                   : No
  131. Text #7
  132. ID                                       : 9
  133. Format                                   : UTF-8
  134. Codec ID                                 : S_TEXT/UTF8
  135. Codec ID/Info                            : UTF-8 Plain Text
  136. Duration                                 : 1 h 38 min
  137. Bit rate                                 : 11 b/s
  138. Frame rate                               : 0.050 FPS
  139. Count of elements                        : 298
  140. Stream size                              : 8.22 KiB (0%)
  141. Language                                 : Spanish
  142. Default                                  : No
  143. Forced                                   : No
  144. Text #8
  145. ID                                       : 10
  146. Format                                   : UTF-8
  147. Codec ID                                 : S_TEXT/UTF8
  148. Codec ID/Info                            : UTF-8 Plain Text
  149. Duration                                 : 1 h 38 min
  150. Bit rate                                 : 10 b/s
  151. Frame rate                               : 0.050 FPS
  152. Count of elements                        : 297
  153. Stream size                              : 7.84 KiB (0%)
  154. Title                                    : Latin American
  155. Language                                 : Spanish
  156. Default                                  : No
  157. Forced                                   : No
  158. Text #9
  159. ID                                       : 11
  160. Format                                   : UTF-8
  161. Codec ID                                 : S_TEXT/UTF8
  162. Codec ID/Info                            : UTF-8 Plain Text
  163. Duration                                 : 1 h 38 min
  164. Bit rate                                 : 11 b/s
  165. Frame rate                               : 0.049 FPS
  166. Count of elements                        : 293
  167. Stream size                              : 8.38 KiB (0%)
  168. Language                                 : Finnish
  169. Default                                  : No
  170. Forced                                   : No
  171. Text #10
  172. ID                                       : 12
  173. Format                                   : UTF-8
  174. Codec ID                                 : S_TEXT/UTF8
  175. Codec ID/Info                            : UTF-8 Plain Text
  176. Duration                                 : 1 h 38 min
  177. Bit rate                                 : 11 b/s
  178. Frame rate                               : 0.049 FPS
  179. Count of elements                        : 290
  180. Stream size                              : 8.25 KiB (0%)
  181. Language                                 : French
  182. Default                                  : No
  183. Forced                                   : No
  184. Text #11
  185. ID                                       : 13
  186. Format                                   : UTF-8
  187. Codec ID                                 : S_TEXT/UTF8
  188. Codec ID/Info                            : UTF-8 Plain Text
  189. Duration                                 : 1 h 38 min
  190. Bit rate                                 : 10 b/s
  191. Frame rate                               : 0.050 FPS
  192. Count of elements                        : 297
  193. Stream size                              : 7.93 KiB (0%)
  194. Language                                 : Hungarian
  195. Default                                  : No
  196. Forced                                   : No
  197. Text #12
  198. ID                                       : 14
  199. Format                                   : UTF-8
  200. Codec ID                                 : S_TEXT/UTF8
  201. Codec ID/Info                            : UTF-8 Plain Text
  202. Duration                                 : 1 h 38 min
  203. Bit rate                                 : 10 b/s
  204. Frame rate                               : 0.049 FPS
  205. Count of elements                        : 292
  206. Stream size                              : 7.42 KiB (0%)
  207. Language                                 : Italian
  208. Default                                  : No
  209. Forced                                   : No
  210. Text #13
  211. ID                                       : 15
  212. Format                                   : UTF-8
  213. Codec ID                                 : S_TEXT/UTF8
  214. Codec ID/Info                            : UTF-8 Plain Text
  215. Duration                                 : 1 h 38 min
  216. Bit rate                                 : 12 b/s
  217. Frame rate                               : 0.061 FPS
  218. Count of elements                        : 364
  219. Stream size                              : 9.31 KiB (0%)
  220. Language                                 : Japanese
  221. Default                                  : No
  222. Forced                                   : No
  223. Text #14
  224. ID                                       : 16
  225. Format                                   : UTF-8
  226. Codec ID                                 : S_TEXT/UTF8
  227. Codec ID/Info                            : UTF-8 Plain Text
  228. Duration                                 : 1 h 38 min
  229. Bit rate                                 : 11 b/s
  230. Frame rate                               : 0.050 FPS
  231. Count of elements                        : 299
  232. Stream size                              : 8.63 KiB (0%)
  233. Language                                 : Korean
  234. Default                                  : No
  235. Forced                                   : No
  236. Text #15
  237. ID                                       : 17
  238. Format                                   : UTF-8
  239. Codec ID                                 : S_TEXT/UTF8
  240. Codec ID/Info                            : UTF-8 Plain Text
  241. Duration                                 : 1 h 38 min
  242. Bit rate                                 : 11 b/s
  243. Frame rate                               : 0.045 FPS
  244. Count of elements                        : 267
  245. Stream size                              : 8.13 KiB (0%)
  246. Language                                 : Dutch
  247. Default                                  : No
  248. Forced                                   : No
  249. Text #16
  250. ID                                       : 18
  251. Format                                   : UTF-8
  252. Codec ID                                 : S_TEXT/UTF8
  253. Codec ID/Info                            : UTF-8 Plain Text
  254. Duration                                 : 1 h 38 min
  255. Bit rate                                 : 11 b/s
  256. Frame rate                               : 0.038 FPS
  257. Count of elements                        : 227
  258. Stream size                              : 8.23 KiB (0%)
  259. Language                                 : Norwegian
  260. Default                                  : No
  261. Forced                                   : No
  262. Text #17
  263. ID                                       : 19
  264. Format                                   : UTF-8
  265. Codec ID                                 : S_TEXT/UTF8
  266. Codec ID/Info                            : UTF-8 Plain Text
  267. Duration                                 : 1 h 38 min
  268. Bit rate                                 : 10 b/s
  269. Frame rate                               : 0.049 FPS
  270. Count of elements                        : 290
  271. Stream size                              : 7.81 KiB (0%)
  272. Language                                 : Polish
  273. Default                                  : No
  274. Forced                                   : No
  275. Text #18
  276. ID                                       : 20
  277. Format                                   : UTF-8
  278. Codec ID                                 : S_TEXT/UTF8
  279. Codec ID/Info                            : UTF-8 Plain Text
  280. Duration                                 : 1 h 38 min
  281. Bit rate                                 : 11 b/s
  282. Frame rate                               : 0.050 FPS
  283. Count of elements                        : 296
  284. Stream size                              : 8.29 KiB (0%)
  285. Language                                 : Portuguese
  286. Default                                  : No
  287. Forced                                   : No
  288. Text #19
  289. ID                                       : 21
  290. Format                                   : UTF-8
  291. Codec ID                                 : S_TEXT/UTF8
  292. Codec ID/Info                            : UTF-8 Plain Text
  293. Duration                                 : 1 h 38 min
  294. Bit rate                                 : 11 b/s
  295. Frame rate                               : 0.050 FPS
  296. Count of elements                        : 295
  297. Stream size                              : 8.15 KiB (0%)
  298. Title                                    : Brazilian
  299. Language                                 : Portuguese
  300. Default                                  : No
  301. Forced                                   : No
  302. Text #20
  303. ID                                       : 22
  304. Format                                   : UTF-8
  305. Codec ID                                 : S_TEXT/UTF8
  306. Codec ID/Info                            : UTF-8 Plain Text
  307. Duration                                 : 1 h 38 min
  308. Bit rate                                 : 11 b/s
  309. Frame rate                               : 0.044 FPS
  310. Count of elements                        : 261
  311. Stream size                              : 8.03 KiB (0%)
  312. Language                                 : Romanian
  313. Default                                  : No
  314. Forced                                   : No
  315. Text #21
  316. ID                                       : 23
  317. Format                                   : UTF-8
  318. Codec ID                                 : S_TEXT/UTF8
  319. Codec ID/Info                            : UTF-8 Plain Text
  320. Duration                                 : 1 h 38 min
  321. Bit rate                                 : 10 b/s
  322. Frame rate                               : 0.050 FPS
  323. Count of elements                        : 298
  324. Stream size                              : 7.84 KiB (0%)
  325. Language                                 : Slovak
  326. Default                                  : No
  327. Forced                                   : No
  328. Text #22
  329. ID                                       : 24
  330. Format                                   : UTF-8
  331. Codec ID                                 : S_TEXT/UTF8
  332. Codec ID/Info                            : UTF-8 Plain Text
  333. Duration                                 : 1 h 38 min
  334. Bit rate                                 : 10 b/s
  335. Frame rate                               : 0.050 FPS
  336. Count of elements                        : 295
  337. Stream size                              : 7.71 KiB (0%)
  338. Language                                 : Swedish
  339. Default                                  : No
  340. Forced                                   : No
  341. Text #23
  342. ID                                       : 25
  343. Format                                   : UTF-8
  344. Codec ID                                 : S_TEXT/UTF8
  345. Codec ID/Info                            : UTF-8 Plain Text
  346. Duration                                 : 1 h 38 min
  347. Bit rate                                 : 11 b/s
  348. Frame rate                               : 0.050 FPS
  349. Count of elements                        : 296
  350. Stream size                              : 8.24 KiB (0%)
  351. Language                                 : Turkish
  352. Default                                  : No
  353. Forced                                   : No
  354. Text #24
  355. ID                                       : 26
  356. Format                                   : UTF-8
  357. Codec ID                                 : S_TEXT/UTF8
  358. Codec ID/Info                            : UTF-8 Plain Text
  359. Duration                                 : 1 h 38 min
  360. Bit rate                                 : 10 b/s
  361. Frame rate                               : 0.050 FPS
  362. Count of elements                        : 298
  363. Stream size                              : 7.91 KiB (0%)
  364. Title                                    : Hong Kong
  365. Language                                 : Chinese
  366. Default                                  : No
  367. Forced                                   : No
  368. Text #25
  369. ID                                       : 27
  370. Format                                   : UTF-8
  371. Codec ID                                 : S_TEXT/UTF8
  372. Codec ID/Info                            : UTF-8 Plain Text
  373. Duration                                 : 1 h 38 min
  374. Bit rate                                 : 11 b/s
  375. Frame rate                               : 0.050 FPS
  376. Count of elements                        : 299
  377. Stream size                              : 8.32 KiB (0%)
  378. Title                                    : Simplified
  379. Language                                 : Chinese
  380. Default                                  : No
  381. Forced                                   : No
  382. Text #26
  383. ID                                       : 28
  384. Format                                   : UTF-8
  385. Codec ID                                 : S_TEXT/UTF8
  386. Codec ID/Info                            : UTF-8 Plain Text
  387. Duration                                 : 1 h 38 min
  388. Bit rate                                 : 10 b/s
  389. Frame rate                               : 0.050 FPS
  390. Count of elements                        : 299
  391. Stream size                              : 7.92 KiB (0%)
  392. Title                                    : Traditional
  393. Language                                 : Chinese
  394. Default                                  : No
  395. Forced                                   : No
  396. Menu
  397. 01:32:13.000                             : Credits
复制代码




                                       
                                       

                                       
                                       
                                       




Prey.2022.2160p.DSNP.WEB-DL.x265.10bit.HDR.DDP5.1.Atmos-CM.torrent (15.51 KB, 下载次数: 3)
回复

使用道具 举报

您需要登录后才可以回帖 登录 | 立即注册

本版积分规则

QQ|Archiver|手机版|小黑屋|蓝光电影网

GMT+8, 2022-8-8 17:51 , Processed in 0.056821 second(s), 28 queries .

Powered by Discuz! X3.4

Copyright © 2001-2020, Tencent Cloud.

快速回复 返回顶部 返回列表