找回密码
 立即注册

QQ登录

只需一步,快速开始

查看: 50|回复: 0

[其他] 康斯坦丁:神秘之所 DC.Showcase.Constantine.The.House.of.Mystery.2022.2160p.iT.WEB-DL.DD5.1.DV.MP4.x265-DVSUX 13.10GB

[复制链接]

0

精华

0

好友

2

听众

新手上路

Rank: 2

蓝光币
5
发表于 2022-5-12 07:56:17 | 显示全部楼层 |阅读模式


◎译  名 康斯坦丁:神秘之所 / DC Showcase – Constantine: House of Mystery / DC展台:康斯坦丁
◎片  名 Constantine: House of Mystery
◎年  代 2022
◎产  地 美国
◎类  别 动画
◎语  言 英语
◎上映日期 2022-05-03(美国)
◎IMDb链接 https://www.imdb.com/title/tt18305072/
◎豆瓣链接 https://movie.douban.com/subject/35633926/
◎片  长 27分钟
◎导  演 马特·皮特斯 Matt Peters (id:1332849)
◎编  剧 厄尼·阿特巴克 Ernie Altbacker (id:1367847)
◎演  员 罗宾·阿特金·唐斯 Robin Atkin Downes (id:1316486)
◎简  介

  Occult detective John Constantine is trapped in the House of Mystery, a secret domain where none can escape from.
  1. Video
  2. ID                                       : 1
  3. Format                                   : HEVC
  4. Format/Info                              : High Efficiency Video Coding
  5. Format profile                           : Main [email protected]@High
  6. HDR format                               : Dolby Vision, Version 1.0, dvhe.05.06, BL+RPU
  7. Codec ID                                 : dvhe
  8. Codec ID/Info                            : High Efficiency Video Coding with Dolby Vision
  9. Duration                                 : 1 h 16 min
  10. Bit rate                                 : 24.2 Mb/s
  11. Width                                    : 3 840 pixels
  12. Height                                   : 2 160 pixels
  13. Display aspect ratio                     : 16:9
  14. Frame rate mode                          : Constant
  15. Frame rate                               : 23.976 (24000/1001/189150) FPS
  16. Color space                              : YUV
  17. Chroma subsampling                       : 4:2:0
  18. Bit depth                                : 10 bits
  19. Bits/(Pixel*Frame)                       : 0.122
  20. Stream size                              : 12.9 GiB (98%)
  21. Default                                  : Yes
  22. Alternate group                          : 1
  23. Encoded date                             : UTC 2022-05-11 05:52:14
  24. Tagged date                              : UTC 2022-05-11 05:53:44
  25. Codec configuration box                  : hvcC+dvcC
  26. Audio
  27. ID                                       : 2
  28. Format                                   : AC-3
  29. Format/Info                              : Audio Coding 3
  30. Commercial name                          : Dolby Digital
  31. Codec ID                                 : ac-3
  32. Duration                                 : 1 h 16 min
  33. Bit rate mode                            : Constant
  34. Bit rate                                 : 384 kb/s
  35. Maximum bit rate                         : 406 kb/s
  36. Channel(s)                               : 6 channels
  37. Channel layout                           : L R C LFE Ls Rs
  38. Sampling rate                            : 48.0 kHz
  39. Frame rate                               : 31.250 FPS (1536 SPF)
  40. Compression mode                         : Lossy
  41. Stream size                              : 210 MiB (2%)
  42. Title                                    : English
  43. Language                                 : English
  44. Service kind                             : Complete Main
  45. Default                                  : Yes
  46. Alternate group                          : 1
  47. Tagged date                              : UTC 2022-05-11 05:53:44
  48. Text #1
  49. ID                                       : 3
  50. Format                                   : Timed Text
  51. Codec ID                                 : tx3g
  52. Duration                                 : 1 h 15 min
  53. Bit rate mode                            : Variable
  54. Bit rate                                 : 67 b/s
  55. Stream size                              : 37.0 KiB (0%)
  56. Title                                    : English
  57. Language                                 : English
  58. Forced                                   : No
  59. Encoded date                             : UTC 2022-05-11 05:53:42
  60. Tagged date                              : UTC 2022-05-11 05:53:44
  61. Text #2
  62. ID                                       : 4
  63. Format                                   : Timed Text
  64. Codec ID                                 : tx3g
  65. Duration                                 : 1 h 15 min
  66. Bit rate mode                            : Variable
  67. Bit rate                                 : 56 b/s
  68. Stream size                              : 31.2 KiB (0%)
  69. Title                                    : English
  70. Language                                 : English
  71. Forced                                   : No
  72. Encoded date                             : UTC 2022-05-11 05:53:42
  73. Tagged date                              : UTC 2022-05-11 05:53:44
  74. Text #3
  75. ID                                       : 5
  76. Format                                   : Timed Text
  77. Codec ID                                 : tx3g
  78. Duration                                 : 1 h 16 min
  79. Bit rate mode                            : Variable
  80. Bit rate                                 : 45 b/s
  81. Stream size                              : 24.9 KiB (0%)
  82. Title                                    : Chinese-Traditional
  83. Language                                 : Chinese
  84. Forced                                   : No
  85. Encoded date                             : UTC 2022-05-11 05:53:42
  86. Tagged date                              : UTC 2022-05-11 05:53:44
  87. Text #4
  88. ID                                       : 6
  89. Format                                   : Timed Text
  90. Codec ID                                 : tx3g
  91. Duration                                 : 1 h 16 min
  92. Bit rate mode                            : Variable
  93. Bit rate                                 : 51 b/s
  94. Stream size                              : 28.6 KiB (0%)
  95. Title                                    : Danish
  96. Language                                 : Danish
  97. Forced                                   : No
  98. Encoded date                             : UTC 2022-05-11 05:53:42
  99. Tagged date                              : UTC 2022-05-11 05:53:44
  100. Text #5
  101. ID                                       : 7
  102. Format                                   : Timed Text
  103. Codec ID                                 : tx3g
  104. Duration                                 : 1 h 16 min
  105. Bit rate mode                            : Variable
  106. Bit rate                                 : 56 b/s
  107. Stream size                              : 31.3 KiB (0%)
  108. Title                                    : Dutch
  109. Language                                 : Dutch
  110. Forced                                   : No
  111. Encoded date                             : UTC 2022-05-11 05:53:42
  112. Tagged date                              : UTC 2022-05-11 05:53:44
  113. Text #6
  114. ID                                       : 8
  115. Format                                   : Timed Text
  116. Codec ID                                 : tx3g
  117. Duration                                 : 1 h 16 min
  118. Bit rate mode                            : Variable
  119. Bit rate                                 : 54 b/s
  120. Stream size                              : 30.3 KiB (0%)
  121. Title                                    : Finnish
  122. Language                                 : Finnish
  123. Forced                                   : No
  124. Encoded date                             : UTC 2022-05-11 05:53:42
  125. Tagged date                              : UTC 2022-05-11 05:53:44
  126. Text #7
  127. ID                                       : 9
  128. Format                                   : Timed Text
  129. Codec ID                                 : tx3g
  130. Duration                                 : 1 h 16 min
  131. Bit rate mode                            : Variable
  132. Bit rate                                 : 65 b/s
  133. Stream size                              : 36.5 KiB (0%)
  134. Title                                    : French
  135. Language                                 : French
  136. Forced                                   : No
  137. Encoded date                             : UTC 2022-05-11 05:53:42
  138. Tagged date                              : UTC 2022-05-11 05:53:44
  139. Text #8
  140. ID                                       : 10
  141. Format                                   : Timed Text
  142. Codec ID                                 : tx3g
  143. Duration                                 : 1 h 15 min
  144. Bit rate mode                            : Variable
  145. Bit rate                                 : 65 b/s
  146. Stream size                              : 36.2 KiB (0%)
  147. Title                                    : German
  148. Language                                 : German
  149. Forced                                   : No
  150. Encoded date                             : UTC 2022-05-11 05:53:42
  151. Tagged date                              : UTC 2022-05-11 05:53:44
  152. Text #9
  153. ID                                       : 11
  154. Format                                   : Timed Text
  155. Codec ID                                 : tx3g
  156. Duration                                 : 1 h 16 min
  157. Bit rate mode                            : Variable
  158. Bit rate                                 : 81 b/s
  159. Stream size                              : 45.1 KiB (0%)
  160. Title                                    : Hebrew
  161. Language                                 : Hebrew
  162. Forced                                   : No
  163. Encoded date                             : UTC 2022-05-11 05:53:44
  164. Tagged date                              : UTC 2022-05-11 05:53:44
  165. Text #10
  166. ID                                       : 12
  167. Format                                   : Timed Text
  168. Codec ID                                 : tx3g
  169. Duration                                 : 1 h 16 min
  170. Bit rate mode                            : Variable
  171. Bit rate                                 : 50 b/s
  172. Stream size                              : 27.8 KiB (0%)
  173. Title                                    : Norwegian
  174. Language                                 : Norwegian
  175. Forced                                   : No
  176. Encoded date                             : UTC 2022-05-11 05:53:44
  177. Tagged date                              : UTC 2022-05-11 05:53:44
  178. Text #11
  179. ID                                       : 13
  180. Format                                   : Timed Text
  181. Codec ID                                 : tx3g
  182. Duration                                 : 1 h 16 min
  183. Bit rate mode                            : Variable
  184. Bit rate                                 : 51 b/s
  185. Stream size                              : 28.5 KiB (0%)
  186. Title                                    : Portuguese-BR
  187. Language                                 : Portuguese
  188. Forced                                   : No
  189. Encoded date                             : UTC 2022-05-11 05:53:44
  190. Tagged date                              : UTC 2022-05-11 05:53:44
  191. Text #12
  192. ID                                       : 14
  193. Format                                   : Timed Text
  194. Codec ID                                 : tx3g
  195. Duration                                 : 1 h 16 min
  196. Bit rate mode                            : Variable
  197. Bit rate                                 : 56 b/s
  198. Stream size                              : 31.2 KiB (0%)
  199. Title                                    : Spanish
  200. Language                                 : Spanish
  201. Forced                                   : No
  202. Encoded date                             : UTC 2022-05-11 05:53:44
  203. Tagged date                              : UTC 2022-05-11 05:53:44
  204. Text #13
  205. ID                                       : 15
  206. Format                                   : Timed Text
  207. Codec ID                                 : tx3g
  208. Duration                                 : 1 h 16 min
  209. Bit rate mode                            : Variable
  210. Bit rate                                 : 52 b/s
  211. Stream size                              : 29.3 KiB (0%)
  212. Title                                    : Swedish
  213. Language                                 : Swedish
  214. Forced                                   : No
  215. Encoded date                             : UTC 2022-05-11 05:53:44
  216. Tagged date                              : UTC 2022-05-11 05:53:44
复制代码







                                       
                                       

                                       
                                       
                                       




康斯坦丁:神秘之所 DC.Showcase.Constantine.The.House.of.Mystery.2022.2160p.iT.WEB-DL.DD5.1.DV.MP4.x265-DVSUX 13.10GB

DC.Showcase.Constantine.The.House.of.Mystery.2022.2160p.iT.WEB-DL.DD5.1.DV.MP4.x.torrent

17.08 KB, 下载次数: 0, 下载积分: 蓝光币 -2

回复

使用道具 举报

您需要登录后才可以回帖 登录 | 立即注册

本版积分规则

QQ|Archiver|手机版|小黑屋|蓝光电影网

GMT+8, 2022-5-20 00:24 , Processed in 0.051724 second(s), 26 queries .

Powered by Discuz! X3.4

Copyright © 2001-2020, Tencent Cloud.

快速回复 返回顶部 返回列表