找回密码
 立即注册

QQ登录

只需一步,快速开始

查看: 33|回复: 0

[其他] 普通人 Ordinary.People.1980.2160p.WEB-DL.x265.10bit.HDR.TrueHD.2.0-NOGRP 22.66GB

[复制链接]

0

精华

0

好友

2

听众

新手上路

Rank: 2

蓝光币
5
发表于 2022-5-10 08:02:27 | 显示全部楼层 |阅读模式
[img][/img]

◎标  题 普通人
◎译  名 凡夫俗子 / 慈父严母
◎片  名 Ordinary People
◎年  代 1980
◎产  地 美国
◎类  别 剧情
◎语  言 英语
◎上映日期 1980-09-19
◎IMDb评分 7.7/10 (50006人评价)
◎IMDb链接 https://www.imdb.com/title/tt0081283/
◎豆瓣评分 8.0/10 (4558人评价)
◎豆瓣链接 https://movie.douban.com/subject/1294925/
◎片  长 124 分钟
◎导  演 罗伯特·雷德福 Robert Redford
◎编  剧 朱迪斯·格斯特 Judith Guest
       阿尔文·萨金特 Alvin Sargent
       南希·多德 Nancy Dowd
◎演  员 唐纳德·萨瑟兰 Donald Sutherland
       玛丽·泰勒·摩尔 Mary Tyler Moore
       贾德·赫希 Judd Hirsch
       蒂莫西·赫顿 Timothy Hutton
       M·埃梅特·沃尔什 M. Emmet Walsh
       伊丽莎白·麦戈文 Elizabeth McGovern
       黛娜·马诺夫 Dinah Manoff
       弗瑞德里克·林恩 Fredric Lehne
       詹姆斯·希金 James Sikking
       Basil Hoffman Basil Hoffman
       奎因·K·雷德克 Quinn K. Redeker
       Mariclare Costello Mariclare Costello
       Elizabeth Hubbard Elizabeth Hubbard
       亚当·鲍德温 Adam Baldwin
       理查德·怀廷 Richard Whiting
       Cynthia Baker Cynthia Baker
       Rudy Hornish Rudy Hornish
       简·奥德曼 Jane Alderman
       Marilyn Rockafellow Marilyn Rockafellow
       唐·比利特 Don Billett
       Randy De Troit Randy De Troit
       迈克·T·维斯 Michael T. Weiss
       罗纳德·施瓦里 Ronald L. Schwary
       Penny Perry Penny Perry
       Gary Liddiard Gary Liddiard
       Steve Perry Steve Perry
       迈克尔·布里顿 Michael Britton
◎标  签 美国 / 家庭 / 心理 / 成长 / 奥斯卡最佳影片 / 奥斯卡 / 美国电影 / 罗伯特·雷德福
◎简  介

  和大部分家庭一样,杰瑞特一家人过着稳定而又平静的生活,卡尔文(唐纳德·萨瑟兰 Donald Sutherland)不仅是一个工作上矜矜业业的正直律师,同时也将父亲和丈夫的角色扮演得十分出色,和妻子贝丝(玛丽·泰勒·摩尔 Mary Tyler Moore 饰)结婚二十余载,两人的感情分外稳定。                                    
                                身为杰瑞特家的大儿子,伯克(Scott Doebler 饰)享受着更多的关心与爱,身为小儿子的康纳德(蒂莫西·赫顿 Timothy Hutton 饰)对此却并不在意。一次意外中,伯克溺水身亡,悲痛欲绝的贝丝迁怒于当时和伯克在一起的康纳德,这让后者十分痛苦与自责,好在有卡尔文的陪伴和关心,他内心的创伤才渐渐治愈。然而,当他再次鼓起勇气向母亲索取温暖的时候,贝丝的举动却让他的心再一次坠入了冰窖。
  1. Video
  2. ID                                       : 1
  3. Format                                   : HEVC
  4. Format/Info                              : High Efficiency Video Coding
  5. Format profile                           : Main [email protected]@High
  6. HDR format                               : SMPTE ST 2086, HDR10 compatible
  7. Codec ID                                 : V_MPEGH/ISO/HEVC
  8. Duration                                 : 2 h 4 min
  9. Bit rate                                 : 25.0 Mb/s
  10. Width                                    : 3 838 pixels
  11. Height                                   : 2 160 pixels
  12. Display aspect ratio                     : 16:9
  13. Frame rate mode                          : Constant
  14. Frame rate                               : 23.976 FPS
  15. Color space                              : YUV
  16. Chroma subsampling                       : 4:2:0 (Type 2)
  17. Bit depth                                : 10 bits
  18. Bits/(Pixel*Frame)                       : 0.126
  19. Stream size                              : 21.7 GiB (96%)
  20. Default                                  : Yes
  21. Forced                                   : No
  22. Color range                              : Limited
  23. Color primaries                          : BT.2020
  24. Transfer characteristics                 : PQ
  25. Matrix coefficients                      : BT.2020 non-constant
  26. Mastering display color primaries        : Display P3
  27. Mastering display luminance              : min: 0.0050 cd/m2, max: 1000 cd/m2
  28. Maximum Content Light Level              : 8540 cd/m2
  29. Maximum Frame-Average Light Level        : 343 cd/m2
  30. Audio #1
  31. ID                                       : 2
  32. ID in the original source medium         : 4352 (0x1100)
  33. Format                                   : MLP FBA
  34. Format/Info                              : Meridian Lossless Packing FBA
  35. Commercial name                          : Dolby TrueHD
  36. Codec ID                                 : A_TRUEHD
  37. Duration                                 : 2 h 4 min
  38. Bit rate mode                            : Variable
  39. Bit rate                                 : 633 kb/s
  40. Maximum bit rate                         : 1 209 kb/s
  41. Channel(s)                               : 2 channels
  42. Channel layout                           : L R
  43. Sampling rate                            : 48.0 kHz
  44. Frame rate                               : 1 200.000 FPS (40 SPF)
  45. Compression mode                         : Lossless
  46. Stream size                              : 563 MiB (2%)
  47. Language                                 : English
  48. Default                                  : Yes
  49. Forced                                   : No
  50. Original source medium                   : Blu-ray
  51. Audio #2
  52. ID                                       : 3
  53. ID in the original source medium         : 4352 (0x1100)
  54. Format                                   : AC-3
  55. Format/Info                              : Audio Coding 3
  56. Commercial name                          : Dolby Digital
  57. Codec ID                                 : A_AC3
  58. Duration                                 : 2 h 4 min
  59. Bit rate mode                            : Constant
  60. Bit rate                                 : 224 kb/s
  61. Channel(s)                               : 2 channels
  62. Channel layout                           : L R
  63. Sampling rate                            : 48.0 kHz
  64. Frame rate                               : 31.250 FPS (1536 SPF)
  65. Compression mode                         : Lossy
  66. Stream size                              : 199 MiB (1%)
  67. Language                                 : English
  68. Service kind                             : Complete Main
  69. Default                                  : Yes
  70. Forced                                   : No
  71. Original source medium                   : Blu-ray
  72. Audio #3
  73. ID                                       : 4
  74. Format                                   : AAC LC
  75. Format/Info                              : Advanced Audio Codec Low Complexity
  76. Codec ID                                 : A_AAC-2
  77. Duration                                 : 2 h 4 min
  78. Bit rate                                 : 109 kb/s
  79. Channel(s)                               : 2 channels
  80. Channel layout                           : L R
  81. Sampling rate                            : 48.0 kHz
  82. Frame rate                               : 46.875 FPS (1024 SPF)
  83. Compression mode                         : Lossy
  84. Stream size                              : 96.5 MiB (0%)
  85. Language                                 : English
  86. Default                                  : Yes
  87. Forced                                   : No
  88. Text #1
  89. ID                                       : 5
  90. Format                                   : UTF-8
  91. Codec ID                                 : S_TEXT/UTF8
  92. Codec ID/Info                            : UTF-8 Plain Text
  93. Duration                                 : 1 h 59 min
  94. Bit rate                                 : 64 b/s
  95. Count of elements                        : 2010
  96. Stream size                              : 56.3 KiB (0%)
  97. Title                                    : English CC
  98. Language                                 : English
  99. Default                                  : Yes
  100. Forced                                   : No
  101. Text #2
  102. ID                                       : 6
  103. Format                                   : UTF-8
  104. Codec ID                                 : S_TEXT/UTF8
  105. Codec ID/Info                            : UTF-8 Plain Text
  106. Duration                                 : 2 h 3 min
  107. Bit rate                                 : 62 b/s
  108. Count of elements                        : 1455
  109. Stream size                              : 56.1 KiB (0%)
  110. Title                                    : German
  111. Language                                 : German
  112. Default                                  : No
  113. Forced                                   : No
  114. Text #3
  115. ID                                       : 7
  116. Format                                   : UTF-8
  117. Codec ID                                 : S_TEXT/UTF8
  118. Codec ID/Info                            : UTF-8 Plain Text
  119. Duration                                 : 1 h 57 min
  120. Bit rate                                 : 69 b/s
  121. Count of elements                        : 1753
  122. Stream size                              : 60.1 KiB (0%)
  123. Title                                    : Spanish Latin American
  124. Language                                 : Spanish
  125. Default                                  : No
  126. Forced                                   : No
  127. Text #4
  128. ID                                       : 8
  129. Format                                   : UTF-8
  130. Codec ID                                 : S_TEXT/UTF8
  131. Codec ID/Info                            : UTF-8 Plain Text
  132. Duration                                 : 2 h 0 min
  133. Bit rate                                 : 58 b/s
  134. Count of elements                        : 1379
  135. Stream size                              : 51.7 KiB (0%)
  136. Title                                    : Spanish European
  137. Language                                 : Spanish
  138. Default                                  : No
  139. Forced                                   : No
  140. Text #5
  141. ID                                       : 9
  142. Format                                   : UTF-8
  143. Codec ID                                 : S_TEXT/UTF8
  144. Codec ID/Info                            : UTF-8 Plain Text
  145. Duration                                 : 2 h 0 min
  146. Bit rate                                 : 44 b/s
  147. Count of elements                        : 1172
  148. Stream size                              : 39.6 KiB (0%)
  149. Title                                    : French European
  150. Language                                 : French
  151. Default                                  : No
  152. Forced                                   : No
  153. Text #6
  154. ID                                       : 10
  155. Format                                   : UTF-8
  156. Codec ID                                 : S_TEXT/UTF8
  157. Codec ID/Info                            : UTF-8 Plain Text
  158. Duration                                 : 1 h 57 min
  159. Bit rate                                 : 63 b/s
  160. Count of elements                        : 1382
  161. Stream size                              : 54.1 KiB (0%)
  162. Title                                    : Italian
  163. Language                                 : Italian
  164. Default                                  : No
  165. Forced                                   : No
  166. Text #7
  167. ID                                       : 11
  168. Format                                   : UTF-8
  169. Codec ID                                 : S_TEXT/UTF8
  170. Codec ID/Info                            : UTF-8 Plain Text
  171. Duration                                 : 1 h 57 min
  172. Bit rate                                 : 47 b/s
  173. Count of elements                        : 1118
  174. Stream size                              : 40.5 KiB (0%)
  175. Title                                    : Dutch
  176. Language                                 : Dutch
  177. Default                                  : No
  178. Forced                                   : No
  179. Text #8
  180. ID                                       : 12
  181. Format                                   : UTF-8
  182. Codec ID                                 : S_TEXT/UTF8
  183. Codec ID/Info                            : UTF-8 Plain Text
  184. Duration                                 : 1 h 57 min
  185. Bit rate                                 : 61 b/s
  186. Count of elements                        : 1366
  187. Stream size                              : 52.9 KiB (0%)
  188. Title                                    : Portuguese Brazilian
  189. Language                                 : Portuguese
  190. Default                                  : No
  191. Forced                                   : No
  192. Text #9
  193. ID                                       : 13
  194. ID in the original source medium         : 4608 (0x1200)
  195. Format                                   : PGS
  196. Muxing mode                              : zlib
  197. Codec ID                                 : S_HDMV/PGS
  198. Codec ID/Info                            : Picture based subtitle format used on BDs/HD-DVDs
  199. Duration                                 : 1 h 57 min
  200. Bit rate                                 : 44.0 kb/s
  201. Count of elements                        : 3714
  202. Stream size                              : 36.9 MiB (0%)
  203. Language                                 : English
  204. Default                                  : No
  205. Forced                                   : No
  206. Original source medium                   : Blu-ray
  207. Text #10
  208. ID                                       : 14
  209. ID in the original source medium         : 4609 (0x1201)
  210. Format                                   : PGS
  211. Muxing mode                              : zlib
  212. Codec ID                                 : S_HDMV/PGS
  213. Codec ID/Info                            : Picture based subtitle format used on BDs/HD-DVDs
  214. Duration                                 : 1 h 59 min
  215. Bit rate                                 : 49.4 kb/s
  216. Count of elements                        : 3950
  217. Stream size                              : 42.3 MiB (0%)
  218. Language                                 : English
  219. Default                                  : No
  220. Forced                                   : No
  221. Original source medium                   : Blu-ray
  222. Text #11
  223. ID                                       : 15
  224. ID in the original source medium         : 4610 (0x1202)
  225. Format                                   : PGS
  226. Muxing mode                              : zlib
  227. Codec ID                                 : S_HDMV/PGS
  228. Codec ID/Info                            : Picture based subtitle format used on BDs/HD-DVDs
  229. Duration                                 : 2 h 0 min
  230. Bit rate                                 : 43.2 kb/s
  231. Count of elements                        : 2908
  232. Stream size                              : 37.2 MiB (0%)
  233. Language                                 : German
  234. Default                                  : No
  235. Forced                                   : No
  236. Original source medium                   : Blu-ray
  237. Text #12
  238. ID                                       : 16
  239. ID in the original source medium         : 4611 (0x1203)
  240. Format                                   : PGS
  241. Muxing mode                              : zlib
  242. Codec ID                                 : S_HDMV/PGS
  243. Codec ID/Info                            : Picture based subtitle format used on BDs/HD-DVDs
  244. Duration                                 : 2 h 0 min
  245. Bit rate                                 : 38.7 kb/s
  246. Count of elements                        : 2758
  247. Stream size                              : 33.3 MiB (0%)
  248. Language                                 : Spanish
  249. Default                                  : No
  250. Forced                                   : No
  251. Original source medium                   : Blu-ray
  252. Text #13
  253. ID                                       : 17
  254. ID in the original source medium         : 4612 (0x1204)
  255. Format                                   : PGS
  256. Muxing mode                              : zlib
  257. Codec ID                                 : S_HDMV/PGS
  258. Codec ID/Info                            : Picture based subtitle format used on BDs/HD-DVDs
  259. Duration                                 : 2 h 0 min
  260. Bit rate                                 : 28.7 kb/s
  261. Count of elements                        : 2344
  262. Stream size                              : 24.7 MiB (0%)
  263. Language                                 : French
  264. Default                                  : No
  265. Forced                                   : No
  266. Original source medium                   : Blu-ray
  267. Text #14
  268. ID                                       : 18
  269. ID in the original source medium         : 4613 (0x1205)
  270. Format                                   : PGS
  271. Muxing mode                              : zlib
  272. Codec ID                                 : S_HDMV/PGS
  273. Codec ID/Info                            : Picture based subtitle format used on BDs/HD-DVDs
  274. Duration                                 : 1 h 57 min
  275. Bit rate                                 : 23.6 kb/s
  276. Count of elements                        : 2870
  277. Stream size                              : 19.8 MiB (0%)
  278. Language                                 : Japanese
  279. Default                                  : No
  280. Forced                                   : No
  281. Original source medium                   : Blu-ray
  282. Text #15
  283. ID                                       : 19
  284. ID in the original source medium         : 4614 (0x1206)
  285. Format                                   : PGS
  286. Muxing mode                              : zlib
  287. Codec ID                                 : S_HDMV/PGS
  288. Codec ID/Info                            : Picture based subtitle format used on BDs/HD-DVDs
  289. Duration                                 : 2 h 3 min
  290. Bit rate                                 : 92 b/s
  291. Count of elements                        : 8
  292. Stream size                              : 83.4 KiB (0%)
  293. Language                                 : German
  294. Default                                  : No
  295. Forced                                   : No
  296. Original source medium                   : Blu-ray
  297. Text #16
  298. ID                                       : 20
  299. ID in the original source medium         : 4615 (0x1207)
  300. Format                                   : PGS
  301. Muxing mode                              : zlib
  302. Codec ID                                 : S_HDMV/PGS
  303. Codec ID/Info                            : Picture based subtitle format used on BDs/HD-DVDs
  304. Duration                                 : 2 h 3 min
  305. Bit rate                                 : 30 b/s
  306. Count of elements                        : 4
  307. Stream size                              : 27.8 KiB (0%)
  308. Language                                 : Spanish
  309. Default                                  : No
  310. Forced                                   : No
  311. Original source medium                   : Blu-ray
  312. Text #17
  313. ID                                       : 21
  314. ID in the original source medium         : 4616 (0x1208)
  315. Format                                   : PGS
  316. Muxing mode                              : zlib
  317. Codec ID                                 : S_HDMV/PGS
  318. Codec ID/Info                            : Picture based subtitle format used on BDs/HD-DVDs
  319. Duration                                 : 4 s 546 ms
  320. Bit rate                                 : 40.7 kb/s
  321. Count of elements                        : 2
  322. Stream size                              : 22.6 KiB (0%)
  323. Language                                 : French
  324. Default                                  : No
  325. Forced                                   : No
  326. Original source medium                   : Blu-ray
  327. Text #18
  328. ID                                       : 22
  329. ID in the original source medium         : 4617 (0x1209)
  330. Format                                   : PGS
  331. Muxing mode                              : zlib
  332. Codec ID                                 : S_HDMV/PGS
  333. Codec ID/Info                            : Picture based subtitle format used on BDs/HD-DVDs
  334. Duration                                 : 2 s 252 ms
  335. Bit rate                                 : 24.2 kb/s
  336. Count of elements                        : 2
  337. Stream size                              : 6.65 KiB (0%)
  338. Language                                 : Japanese
  339. Default                                  : No
  340. Forced                                   : No
  341. Original source medium                   : Blu-ray
  342. Menu
  343. 00:00:00.000                             : en:Chapter 01
  344. 00:03:42.305                             : en:Chapter 02
  345. 00:15:13.371                             : en:Chapter 03
  346. 00:35:31.840                             : en:Chapter 04
  347. 00:40:50.075                             : en:Chapter 05
  348. 00:55:09.976                             : en:Chapter 06
  349. 01:13:05.385                             : en:Chapter 07
  350. 01:30:24.257                             : en:Chapter 08
  351. 01:50:58.158                             : en:Chapter 09
  352. 02:01:03.805                             : en:Chapter 10
复制代码




                                       
                                       

                                       
                                       
                                       




Ordinary.People.1980.2160p.WEB-DL.x265.10bit.HDR.TrueHD.2.0-NOGRP.torrent (28.99 KB, 下载次数: 1)
回复

使用道具 举报

您需要登录后才可以回帖 登录 | 立即注册

本版积分规则

QQ|Archiver|手机版|小黑屋|蓝光电影网

GMT+8, 2022-5-19 23:24 , Processed in 0.055306 second(s), 28 queries .

Powered by Discuz! X3.4

Copyright © 2001-2020, Tencent Cloud.

快速回复 返回顶部 返回列表