找回密码
 立即注册

QQ登录

只需一步,快速开始

查看: 30|回复: 0

[其他] 纸镇 Paper.Towns.2015.2160p.WEB-DL.x265.10bit.HDR.DTS-HD.MA.5.1-NOGRP 15.65GB

[复制链接]

0

精华

0

好友

2

听众

新手上路

Rank: 2

蓝光币
5
发表于 2022-5-10 08:01:48 | 显示全部楼层 |阅读模式


◎译  名 纸镇 / 纸上城市(台)
◎片  名 Paper Towns
◎年  代 2015
◎产  地 美国
◎类  别 剧情 / 爱情 / 悬疑
◎语  言 英语
◎上映日期 2015-07-24(美国)
◎IMDb链接 https://www.imdb.com/title/tt3622592/
◎豆瓣评分 6.2/10 (8730人评价)
◎豆瓣链接 https://movie.douban.com/subject/25944282/
◎片  长 109分钟
◎导  演 杰克·施莱尔 Jake Schreier (id:1326789)
◎编  剧 约翰·格林 John Green (id:1285363)
       斯科特·纽斯塔德 Scott Neustadter (id:1310745)
       迈克尔·H·韦伯 Michael H. Weber (id:1310744)
◎演  员 纳特·沃尔夫 Nat Wolff (id:1213072)
       卡拉·迪瓦伊 Cara Delevingne (id:1326177)
       贾斯蒂斯·史密斯 Justice Smith (id:1350981)
       奥斯汀·艾布拉姆斯 Austin Abrams (id:1339630)
       豪斯顿·塞奇 Halston Sage (id:1335913)
       洁丝·辛克莱 Jaz Sinclair (id:1350982)
       格里芬·弗里曼 Griffin Freeman (id:1326430)
       凯特琳·卡弗 Caitlin Carver (id:1341943)
       卡拉·布欧诺 Cara Buono (id:1074937)
       苏珊·马克·米勒 Susan Macke Miller (id:1350983)
       汤姆·希尔曼 Tom Hillmann (id:1350984)
       梅格·克罗斯比 Meg Crosbie (id:1350985)
       吉姆·R·科曼 Jim R. Coleman (id:1350986)
       RJ·希勒 RJ Shearer (id:1386105)
       安塞尔·艾尔高特 Ansel Elgort (id:1335176)
       约翰·格林 John Green (id:1285363)
       詹妮弗·拉梅 Jennifer Lame (id:1338444)
◎简  介

  昆汀(奈特·沃尔夫 Nat Wolff 饰)从很小的时候起就暗恋邻居玛格(卡拉·迪瓦伊 Cara Delevingne 饰),然而拥有美丽外表和开朗个性的玛格从来都不缺少追求者,亦有了相恋的男友,因此昆汀选择将这份感情深深的埋藏在心底。                                    
                                一天深夜,玛格意外的潜入了昆汀的房间,她恳请昆汀帮她一个忙,协助她报复劈腿的前男友。可是第二天,玛格神秘的失踪了,没有留下任何线索,而她和昆汀那一夜的经历成为了永远的秘密。昆汀深知事情没有看上去的那么简单,于是决定凭借自己的力量寻找玛格的下落。一点又一点的线索被发掘出来,一个名为纸镇的地点渐渐浮出了水面。
◎获奖情况 (共5项)
  第17届美国青少年选择奖 (2015)
  最佳突破表演电影新星
   └──卡拉·迪瓦伊 (id:1326177)
  最佳暑期电影
  最佳暑期电影(提名)
  最佳暑期电影男演员(提名)
   └──纳特·沃尔夫 (id:1213072)
  最佳暑期电影女演员
   └──卡拉·迪瓦伊 (id:1326177)
  1. Video
  2. ID                                       : 1
  3. Format                                   : HEVC
  4. Format/Info                              : High Efficiency Video Coding
  5. Format profile                           : Main [email protected]@High
  6. HDR format                               : SMPTE ST 2086, HDR10 compatible
  7. Codec ID                                 : V_MPEGH/ISO/HEVC
  8. Duration                                 : 1 h 49 min
  9. Bit rate                                 : 16.2 Mb/s
  10. Width                                    : 3 840 pixels
  11. Height                                   : 2 160 pixels
  12. Display aspect ratio                     : 16:9
  13. Frame rate mode                          : Constant
  14. Frame rate                               : 23.976 (24000/1001/189150) FPS
  15. Color space                              : YUV
  16. Chroma subsampling                       : 4:2:0
  17. Bit depth                                : 10 bits
  18. Bits/(Pixel*Frame)                       : 0.082
  19. Stream size                              : 12.4 GiB (79%)
  20. Language                                 : English
  21. Default                                  : Yes
  22. Forced                                   : No
  23. Color range                              : Limited
  24. Color primaries                          : BT.2020
  25. Transfer characteristics                 : PQ
  26. Matrix coefficients                      : BT.2020 non-constant
  27. Mastering display color primaries        : Display P3
  28. Mastering display luminance              : min: 0.0050 cd/m2, max: 1000 cd/m2

  29. Audio #1
  30. ID                                       : 2
  31. Format                                   : DTS XLL
  32. Format/Info                              : Digital Theater Systems
  33. Commercial name                          : DTS-HD Master Audio
  34. Codec ID                                 : A_DTS
  35. Duration                                 : 1 h 49 min
  36. Bit rate mode                            : Variable
  37. Bit rate                                 : 3 851 kb/s
  38. Channel(s)                               : 6 channels
  39. Channel layout                           : C L R Ls Rs LFE
  40. Sampling rate                            : 48.0 kHz
  41. Frame rate                               : 93.750 FPS (512 SPF)
  42. Bit depth                                : 24 bits
  43. Compression mode                         : Lossless
  44. Delay relative to video                  : 1 s 0 ms
  45. Stream size                              : 2.93 GiB (19%)
  46. Title                                    : DTS-HD MA 5.1
  47. Language                                 : English
  48. Default                                  : Yes
  49. Forced                                   : No

  50. Audio #2
  51. ID                                       : 3
  52. Format                                   : E-AC-3
  53. Format/Info                              : Enhanced AC-3
  54. Commercial name                          : Dolby Digital Plus
  55. Codec ID                                 : A_EAC3
  56. Duration                                 : 1 h 49 min
  57. Bit rate mode                            : Constant
  58. Bit rate                                 : 256 kb/s
  59. Channel(s)                               : 6 channels
  60. Channel layout                           : L R C LFE Ls Rs
  61. Sampling rate                            : 48.0 kHz
  62. Frame rate                               : 31.250 FPS (1536 SPF)
  63. Compression mode                         : Lossy
  64. Stream size                              : 200 MiB (1%)
  65. Language                                 : English
  66. Service kind                             : Complete Main
  67. Default                                  : No
  68. Forced                                   : No

  69. Text #1
  70. ID                                       : 4
  71. Format                                   : UTF-8
  72. Codec ID                                 : S_TEXT/UTF8
  73. Codec ID/Info                            : UTF-8 Plain Text
  74. Duration                                 : 1 h 43 min
  75. Bit rate                                 : 68 b/s
  76. Count of elements                        : 1892
  77. Stream size                              : 52.3 KiB (0%)
  78. Title                                    : English
  79. Language                                 : English
  80. Default                                  : Yes
  81. Forced                                   : No

  82. Text #2
  83. ID                                       : 5
  84. Format                                   : UTF-8
  85. Codec ID                                 : S_TEXT/UTF8
  86. Codec ID/Info                            : UTF-8 Plain Text
  87. Duration                                 : 1 h 41 min
  88. Bit rate                                 : 41 b/s
  89. Count of elements                        : 1567
  90. Stream size                              : 30.9 KiB (0%)
  91. Title                                    : Chinese (Hong Kong)
  92. Language                                 : Chinese
  93. Default                                  : No
  94. Forced                                   : No

  95. Text #3
  96. ID                                       : 6
  97. Format                                   : UTF-8
  98. Codec ID                                 : S_TEXT/UTF8
  99. Codec ID/Info                            : UTF-8 Plain Text
  100. Duration                                 : 1 h 48 min
  101. Bit rate                                 : 52 b/s
  102. Count of elements                        : 1563
  103. Stream size                              : 41.7 KiB (0%)
  104. Title                                    : Chinese (Simplified)
  105. Language                                 : Chinese
  106. Default                                  : No
  107. Forced                                   : No

  108. Text #4
  109. ID                                       : 7
  110. Format                                   : UTF-8
  111. Codec ID                                 : S_TEXT/UTF8
  112. Codec ID/Info                            : UTF-8 Plain Text
  113. Duration                                 : 1 h 48 min
  114. Bit rate                                 : 47 b/s
  115. Count of elements                        : 1607
  116. Stream size                              : 38.0 KiB (0%)
  117. Title                                    : Chinese (Traditional)
  118. Language                                 : Chinese
  119. Default                                  : No
  120. Forced                                   : No

  121. Text #5
  122. ID                                       : 8
  123. Format                                   : UTF-8
  124. Codec ID                                 : S_TEXT/UTF8
  125. Codec ID/Info                            : UTF-8 Plain Text
  126. Duration                                 : 1 h 41 min
  127. Bit rate                                 : 55 b/s
  128. Count of elements                        : 1167
  129. Stream size                              : 41.6 KiB (0%)
  130. Title                                    : Danish
  131. Language                                 : Danish
  132. Default                                  : No
  133. Forced                                   : No

  134. Text #6
  135. ID                                       : 9
  136. Format                                   : UTF-8
  137. Codec ID                                 : S_TEXT/UTF8
  138. Codec ID/Info                            : UTF-8 Plain Text
  139. Duration                                 : 1 h 48 min
  140. Bit rate                                 : 55 b/s
  141. Count of elements                        : 1365
  142. Stream size                              : 44.3 KiB (0%)
  143. Title                                    : German
  144. Language                                 : German
  145. Default                                  : No
  146. Forced                                   : No

  147. Text #7
  148. ID                                       : 10
  149. Format                                   : UTF-8
  150. Codec ID                                 : S_TEXT/UTF8
  151. Codec ID/Info                            : UTF-8 Plain Text
  152. Duration                                 : 1 h 48 min
  153. Bit rate                                 : 52 b/s
  154. Count of elements                        : 1501
  155. Stream size                              : 41.5 KiB (0%)
  156. Title                                    : Spanish
  157. Language                                 : Spanish
  158. Default                                  : No
  159. Forced                                   : No

  160. Text #8
  161. ID                                       : 11
  162. Format                                   : UTF-8
  163. Codec ID                                 : S_TEXT/UTF8
  164. Codec ID/Info                            : UTF-8 Plain Text
  165. Duration                                 : 1 h 48 min
  166. Bit rate                                 : 53 b/s
  167. Count of elements                        : 1463
  168. Stream size                              : 42.8 KiB (0%)
  169. Title                                    : Spanish (Latinoamericano)
  170. Language                                 : Spanish
  171. Default                                  : No
  172. Forced                                   : No

  173. Text #9
  174. ID                                       : 12
  175. Format                                   : UTF-8
  176. Codec ID                                 : S_TEXT/UTF8
  177. Codec ID/Info                            : UTF-8 Plain Text
  178. Duration                                 : 1 h 48 min
  179. Bit rate                                 : 46 b/s
  180. Count of elements                        : 1353
  181. Stream size                              : 36.9 KiB (0%)
  182. Title                                    : French
  183. Language                                 : French
  184. Default                                  : No
  185. Forced                                   : No

  186. Text #10
  187. ID                                       : 13
  188. Format                                   : UTF-8
  189. Codec ID                                 : S_TEXT/UTF8
  190. Codec ID/Info                            : UTF-8 Plain Text
  191. Duration                                 : 1 h 48 min
  192. Bit rate                                 : 58 b/s
  193. Count of elements                        : 1558
  194. Stream size                              : 46.5 KiB (0%)
  195. Title                                    : French (Canadien)
  196. Language                                 : French
  197. Default                                  : No
  198. Forced                                   : No

  199. Text #11
  200. ID                                       : 14
  201. Format                                   : UTF-8
  202. Codec ID                                 : S_TEXT/UTF8
  203. Codec ID/Info                            : UTF-8 Plain Text
  204. Duration                                 : 1 h 48 min
  205. Bit rate                                 : 53 b/s
  206. Count of elements                        : 1550
  207. Stream size                              : 42.4 KiB (0%)
  208. Title                                    : Italian
  209. Language                                 : Italian
  210. Default                                  : No
  211. Forced                                   : No

  212. Text #12
  213. ID                                       : 15
  214. Format                                   : UTF-8
  215. Codec ID                                 : S_TEXT/UTF8
  216. Codec ID/Info                            : UTF-8 Plain Text
  217. Duration                                 : 1 h 48 min
  218. Bit rate                                 : 53 b/s
  219. Count of elements                        : 1356
  220. Stream size                              : 42.2 KiB (0%)
  221. Title                                    : Japanese
  222. Language                                 : Japanese
  223. Default                                  : No
  224. Forced                                   : No

  225. Text #13
  226. ID                                       : 16
  227. Format                                   : UTF-8
  228. Codec ID                                 : S_TEXT/UTF8
  229. Codec ID/Info                            : UTF-8 Plain Text
  230. Duration                                 : 1 h 48 min
  231. Bit rate                                 : 51 b/s
  232. Count of elements                        : 1531
  233. Stream size                              : 41.0 KiB (0%)
  234. Title                                    : Korean
  235. Language                                 : Korean
  236. Default                                  : No
  237. Forced                                   : No

  238. Text #14
  239. ID                                       : 17
  240. Format                                   : UTF-8
  241. Codec ID                                 : S_TEXT/UTF8
  242. Codec ID/Info                            : UTF-8 Plain Text
  243. Duration                                 : 1 h 48 min
  244. Bit rate                                 : 48 b/s
  245. Count of elements                        : 1081
  246. Stream size                              : 38.5 KiB (0%)
  247. Title                                    : Hungarian
  248. Language                                 : Hungarian
  249. Default                                  : No
  250. Forced                                   : No

  251. Text #15
  252. ID                                       : 18
  253. Format                                   : UTF-8
  254. Codec ID                                 : S_TEXT/UTF8
  255. Codec ID/Info                            : UTF-8 Plain Text
  256. Duration                                 : 1 h 48 min
  257. Bit rate                                 : 45 b/s
  258. Count of elements                        : 1200
  259. Stream size                              : 36.2 KiB (0%)
  260. Title                                    : Dutch
  261. Language                                 : Dutch
  262. Default                                  : No
  263. Forced                                   : No

  264. Text #16
  265. ID                                       : 19
  266. Format                                   : UTF-8
  267. Codec ID                                 : S_TEXT/UTF8
  268. Codec ID/Info                            : UTF-8 Plain Text
  269. Duration                                 : 1 h 41 min
  270. Bit rate                                 : 55 b/s
  271. Count of elements                        : 1540
  272. Stream size                              : 41.4 KiB (0%)
  273. Title                                    : Norwegian
  274. Language                                 : Norwegian
  275. Default                                  : No
  276. Forced                                   : No

  277. Text #17
  278. ID                                       : 20
  279. Format                                   : UTF-8
  280. Codec ID                                 : S_TEXT/UTF8
  281. Codec ID/Info                            : UTF-8 Plain Text
  282. Duration                                 : 1 h 48 min
  283. Bit rate                                 : 41 b/s
  284. Count of elements                        : 1418
  285. Stream size                              : 32.9 KiB (0%)
  286. Title                                    : Polish
  287. Language                                 : Polish
  288. Default                                  : No
  289. Forced                                   : No

  290. Text #18
  291. ID                                       : 21
  292. Format                                   : UTF-8
  293. Codec ID                                 : S_TEXT/UTF8
  294. Codec ID/Info                            : UTF-8 Plain Text
  295. Duration                                 : 1 h 48 min
  296. Bit rate                                 : 56 b/s
  297. Count of elements                        : 1532
  298. Stream size                              : 44.5 KiB (0%)
  299. Title                                    : Portuguese
  300. Language                                 : Portuguese
  301. Default                                  : No
  302. Forced                                   : No

  303. Text #19
  304. ID                                       : 22
  305. Format                                   : UTF-8
  306. Codec ID                                 : S_TEXT/UTF8
  307. Codec ID/Info                            : UTF-8 Plain Text
  308. Duration                                 : 1 h 48 min
  309. Bit rate                                 : 58 b/s
  310. Count of elements                        : 1535
  311. Stream size                              : 46.6 KiB (0%)
  312. Title                                    : Portuguese (Brasil)
  313. Language                                 : Portuguese
  314. Default                                  : No
  315. Forced                                   : No

  316. Text #20
  317. ID                                       : 23
  318. Format                                   : UTF-8
  319. Codec ID                                 : S_TEXT/UTF8
  320. Codec ID/Info                            : UTF-8 Plain Text
  321. Duration                                 : 1 h 48 min
  322. Bit rate                                 : 54 b/s
  323. Count of elements                        : 1542
  324. Stream size                              : 43.6 KiB (0%)
  325. Title                                    : Romanian
  326. Language                                 : Romanian
  327. Default                                  : No
  328. Forced                                   : No

  329. Text #21
  330. ID                                       : 24
  331. Format                                   : UTF-8
  332. Codec ID                                 : S_TEXT/UTF8
  333. Codec ID/Info                            : UTF-8 Plain Text
  334. Duration                                 : 1 h 48 min
  335. Bit rate                                 : 50 b/s
  336. Count of elements                        : 1548
  337. Stream size                              : 39.8 KiB (0%)
  338. Title                                    : Slovak
  339. Language                                 : Slovak
  340. Default                                  : No
  341. Forced                                   : No

  342. Text #22
  343. ID                                       : 25
  344. Format                                   : UTF-8
  345. Codec ID                                 : S_TEXT/UTF8
  346. Codec ID/Info                            : UTF-8 Plain Text
  347. Duration                                 : 1 h 48 min
  348. Bit rate                                 : 44 b/s
  349. Count of elements                        : 1534
  350. Stream size                              : 35.3 KiB (0%)
  351. Title                                    : Finnish
  352. Language                                 : Finnish
  353. Default                                  : No
  354. Forced                                   : No

  355. Text #23
  356. ID                                       : 26
  357. Format                                   : UTF-8
  358. Codec ID                                 : S_TEXT/UTF8
  359. Codec ID/Info                            : UTF-8 Plain Text
  360. Duration                                 : 1 h 41 min
  361. Bit rate                                 : 58 b/s
  362. Count of elements                        : 1547
  363. Stream size                              : 43.3 KiB (0%)
  364. Title                                    : Swedish
  365. Language                                 : Swedish
  366. Default                                  : No
  367. Forced                                   : No

  368. Text #24
  369. ID                                       : 27
  370. Format                                   : UTF-8
  371. Codec ID                                 : S_TEXT/UTF8
  372. Codec ID/Info                            : UTF-8 Plain Text
  373. Duration                                 : 1 h 48 min
  374. Bit rate                                 : 59 b/s
  375. Count of elements                        : 1556
  376. Stream size                              : 46.9 KiB (0%)
  377. Title                                    : Turkish
  378. Language                                 : Turkish
  379. Default                                  : No
  380. Forced                                   : No

  381. Text #25
  382. ID                                       : 28
  383. Format                                   : UTF-8
  384. Codec ID                                 : S_TEXT/UTF8
  385. Codec ID/Info                            : UTF-8 Plain Text
  386. Duration                                 : 1 h 48 min
  387. Bit rate                                 : 57 b/s
  388. Count of elements                        : 1353
  389. Stream size                              : 45.6 KiB (0%)
  390. Title                                    : Icelandic
  391. Language                                 : Icelandic
  392. Default                                  : No
  393. Forced                                   : No

  394. Text #26
  395. ID                                       : 29
  396. Format                                   : UTF-8
  397. Codec ID                                 : S_TEXT/UTF8
  398. Codec ID/Info                            : UTF-8 Plain Text
  399. Duration                                 : 1 h 42 min
  400. Bit rate                                 : 58 b/s
  401. Count of elements                        : 1554
  402. Stream size                              : 43.5 KiB (0%)
  403. Title                                    : Czech
  404. Language                                 : Czech
  405. Default                                  : No
  406. Forced                                   : No

  407. Text #27
  408. ID                                       : 30
  409. Format                                   : PGS
  410. Muxing mode                              : zlib
  411. Codec ID                                 : S_HDMV/PGS
  412. Codec ID/Info                            : Picture based subtitle format used on BDs/HD-DVDs
  413. Duration                                 : 1 h 41 min
  414. Bit rate                                 : 37.5 kb/s
  415. Count of elements                        : 3028
  416. Stream size                              : 27.3 MiB (0%)
  417. Language                                 : English
  418. Default                                  : No
  419. Forced                                   : No

  420. Text #28
  421. ID                                       : 31
  422. Format                                   : PGS
  423. Muxing mode                              : zlib
  424. Codec ID                                 : S_HDMV/PGS
  425. Codec ID/Info                            : Picture based subtitle format used on BDs/HD-DVDs
  426. Duration                                 : 1 h 48 min
  427. Bit rate                                 : 30.2 kb/s
  428. Count of elements                        : 3134
  429. Stream size                              : 23.4 MiB (0%)
  430. Language                                 : Chinese
  431. Default                                  : No
  432. Forced                                   : No

  433. Text #29
  434. ID                                       : 32
  435. Format                                   : PGS
  436. Muxing mode                              : zlib
  437. Codec ID                                 : S_HDMV/PGS
  438. Codec ID/Info                            : Picture based subtitle format used on BDs/HD-DVDs
  439. Duration                                 : 1 h 48 min
  440. Bit rate                                 : 31.9 kb/s
  441. Count of elements                        : 2306
  442. Stream size                              : 24.7 MiB (0%)
  443. Language                                 : Danish
  444. Default                                  : No
  445. Forced                                   : No

  446. Text #30
  447. ID                                       : 33
  448. Format                                   : PGS
  449. Muxing mode                              : zlib
  450. Codec ID                                 : S_HDMV/PGS
  451. Codec ID/Info                            : Picture based subtitle format used on BDs/HD-DVDs
  452. Duration                                 : 1 h 48 min
  453. Bit rate                                 : 28.4 kb/s
  454. Count of elements                        : 2400
  455. Stream size                              : 22.0 MiB (0%)
  456. Language                                 : Dutch
  457. Default                                  : No
  458. Forced                                   : No

  459. Text #31
  460. ID                                       : 34
  461. Format                                   : PGS
  462. Muxing mode                              : zlib
  463. Codec ID                                 : S_HDMV/PGS
  464. Codec ID/Info                            : Picture based subtitle format used on BDs/HD-DVDs
  465. Duration                                 : 1 h 48 min
  466. Bit rate                                 : 36.7 kb/s
  467. Count of elements                        : 3088
  468. Stream size                              : 28.4 MiB (0%)
  469. Language                                 : Estonian
  470. Default                                  : No
  471. Forced                                   : No

  472. Text #32
  473. ID                                       : 35
  474. Format                                   : PGS
  475. Muxing mode                              : zlib
  476. Codec ID                                 : S_HDMV/PGS
  477. Codec ID/Info                            : Picture based subtitle format used on BDs/HD-DVDs
  478. Duration                                 : 1 h 48 min
  479. Bit rate                                 : 28.1 kb/s
  480. Count of elements                        : 3072
  481. Stream size                              : 21.8 MiB (0%)
  482. Language                                 : Finnish
  483. Default                                  : No
  484. Forced                                   : No

  485. Text #33
  486. ID                                       : 36
  487. Format                                   : PGS
  488. Muxing mode                              : zlib
  489. Codec ID                                 : S_HDMV/PGS
  490. Codec ID/Info                            : Picture based subtitle format used on BDs/HD-DVDs
  491. Duration                                 : 1 h 48 min
  492. Bit rate                                 : 27.4 kb/s
  493. Count of elements                        : 2708
  494. Stream size                              : 21.3 MiB (0%)
  495. Language                                 : French
  496. Default                                  : No
  497. Forced                                   : No

  498. Text #34
  499. ID                                       : 37
  500. Format                                   : PGS
  501. Muxing mode                              : zlib
  502. Codec ID                                 : S_HDMV/PGS
  503. Codec ID/Info                            : Picture based subtitle format used on BDs/HD-DVDs
  504. Duration                                 : 1 h 48 min
  505. Bit rate                                 : 35.5 kb/s
  506. Count of elements                        : 2730
  507. Stream size                              : 27.5 MiB (0%)
  508. Language                                 : German
  509. Default                                  : No
  510. Forced                                   : No

  511. Text #35
  512. ID                                       : 38
  513. Format                                   : PGS
  514. Muxing mode                              : zlib
  515. Codec ID                                 : S_HDMV/PGS
  516. Codec ID/Info                            : Picture based subtitle format used on BDs/HD-DVDs
  517. Duration                                 : 1 h 48 min
  518. Bit rate                                 : 33.0 kb/s
  519. Count of elements                        : 3108
  520. Stream size                              : 25.6 MiB (0%)
  521. Language                                 : Italian
  522. Default                                  : No
  523. Forced                                   : No

  524. Text #36
  525. ID                                       : 39
  526. Format                                   : PGS
  527. Muxing mode                              : zlib
  528. Codec ID                                 : S_HDMV/PGS
  529. Codec ID/Info                            : Picture based subtitle format used on BDs/HD-DVDs
  530. Duration                                 : 1 h 48 min
  531. Bit rate                                 : 21.0 kb/s
  532. Count of elements                        : 2712
  533. Stream size                              : 16.2 MiB (0%)
  534. Language                                 : Japanese
  535. Default                                  : No
  536. Forced                                   : No

  537. Text #37
  538. ID                                       : 40
  539. Format                                   : PGS
  540. Muxing mode                              : zlib
  541. Codec ID                                 : S_HDMV/PGS
  542. Codec ID/Info                            : Picture based subtitle format used on BDs/HD-DVDs
  543. Duration                                 : 1 h 48 min
  544. Bit rate                                 : 32.2 kb/s
  545. Count of elements                        : 3116
  546. Stream size                              : 25.0 MiB (0%)
  547. Language                                 : Latvian
  548. Default                                  : No
  549. Forced                                   : No

  550. Text #38
  551. ID                                       : 41
  552. Format                                   : PGS
  553. Muxing mode                              : zlib
  554. Codec ID                                 : S_HDMV/PGS
  555. Codec ID/Info                            : Picture based subtitle format used on BDs/HD-DVDs
  556. Duration                                 : 1 h 48 min
  557. Bit rate                                 : 33.2 kb/s
  558. Count of elements                        : 3076
  559. Stream size                              : 25.7 MiB (0%)
  560. Language                                 : Lithuanian
  561. Default                                  : No
  562. Forced                                   : No

  563. Text #39
  564. ID                                       : 42
  565. Format                                   : PGS
  566. Muxing mode                              : zlib
  567. Codec ID                                 : S_HDMV/PGS
  568. Codec ID/Info                            : Picture based subtitle format used on BDs/HD-DVDs
  569. Duration                                 : 1 h 48 min
  570. Bit rate                                 : 32.3 kb/s
  571. Count of elements                        : 3102
  572. Stream size                              : 25.1 MiB (0%)
  573. Language                                 : Norwegian
  574. Default                                  : No
  575. Forced                                   : No

  576. Text #40
  577. ID                                       : 43
  578. Format                                   : PGS
  579. Muxing mode                              : zlib
  580. Codec ID                                 : S_HDMV/PGS
  581. Codec ID/Info                            : Picture based subtitle format used on BDs/HD-DVDs
  582. Duration                                 : 1 h 48 min
  583. Bit rate                                 : 34.3 kb/s
  584. Count of elements                        : 3128
  585. Stream size                              : 26.6 MiB (0%)
  586. Language                                 : Russian
  587. Default                                  : No
  588. Forced                                   : No

  589. Text #41
  590. ID                                       : 44
  591. Format                                   : PGS
  592. Muxing mode                              : zlib
  593. Codec ID                                 : S_HDMV/PGS
  594. Codec ID/Info                            : Picture based subtitle format used on BDs/HD-DVDs
  595. Duration                                 : 1 h 48 min
  596. Bit rate                                 : 32.4 kb/s
  597. Count of elements                        : 3012
  598. Stream size                              : 25.1 MiB (0%)
  599. Language                                 : Spanish
  600. Default                                  : No
  601. Forced                                   : No

  602. Text #42
  603. ID                                       : 45
  604. Format                                   : PGS
  605. Muxing mode                              : zlib
  606. Codec ID                                 : S_HDMV/PGS
  607. Codec ID/Info                            : Picture based subtitle format used on BDs/HD-DVDs
  608. Duration                                 : 1 h 48 min
  609. Bit rate                                 : 33.3 kb/s
  610. Count of elements                        : 3112
  611. Stream size                              : 25.8 MiB (0%)
  612. Language                                 : Swedish
  613. Default                                  : No
  614. Forced                                   : No

  615. Text #43
  616. ID                                       : 46
  617. Format                                   : PGS
  618. Muxing mode                              : zlib
  619. Codec ID                                 : S_HDMV/PGS
  620. Codec ID/Info                            : Picture based subtitle format used on BDs/HD-DVDs
  621. Duration                                 : 1 h 48 min
  622. Bit rate                                 : 35.4 kb/s
  623. Count of elements                        : 3104
  624. Stream size                              : 27.4 MiB (0%)
  625. Language                                 : Ukrainian
  626. Default                                  : No
  627. Forced                                   : No

  628. Menu
  629. 00:00:00.000                             : en:Chapter 1
  630. 00:03:59.239                             : en:Chapter 2
  631. 00:06:03.196                             : en:Chapter 3
  632. 00:09:06.629                             : en:Chapter 4
  633. 00:11:11.379                             : en:Chapter 5
  634. 00:13:35.064                             : en:Chapter 6
  635. 00:18:08.212                             : en:Chapter 7
  636. 00:22:26.011                             : en:Chapter 8
  637. 00:27:34.528                             : en:Chapter 9
  638. 00:31:18.210                             : en:Chapter 10
  639. 00:33:18.747                             : en:Chapter 11
  640. 00:37:51.311                             : en:Chapter 12
  641. 00:40:43.983                             : en:Chapter 13
  642. 00:43:56.551                             : en:Chapter 14
  643. 00:48:08.803                             : en:Chapter 15
  644. 00:50:20.100                             : en:Chapter 16
  645. 00:54:39.193                             : en:Chapter 17
  646. 00:59:02.706                             : en:Chapter 18
  647. 01:02:55.021                             : en:Chapter 19
  648. 01:06:57.931                             : en:Chapter 20
  649. 01:13:01.085                             : en:Chapter 21
  650. 01:16:49.480                             : en:Chapter 22
  651. 01:21:41.522                             : en:Chapter 23
  652. 01:26:22.094                             : en:Chapter 24
  653. 01:33:31.147                             : en:Chapter 25
  654. 01:36:36.499                             : en:Chapter 26
  655. 01:39:32.967                             : en:Chapter 27
  656. 01:42:31.395                             : en:Chapter 28
复制代码




                                       
                                       

                                       
                                       
                                       




Paper.Towns.2015.2160p.WEB-DL.x265.10bit.HDR.DTS-HD.MA.5.1-NOGRP.torrent (20.21 KB, 下载次数: 1)
回复

使用道具 举报

您需要登录后才可以回帖 登录 | 立即注册

本版积分规则

QQ|Archiver|手机版|小黑屋|蓝光电影网

GMT+8, 2022-5-19 23:27 , Processed in 0.057238 second(s), 28 queries .

Powered by Discuz! X3.4

Copyright © 2001-2020, Tencent Cloud.

快速回复 返回顶部 返回列表