找回密码
 立即注册

QQ登录

只需一步,快速开始

查看: 29|回复: 0

[其他] 被抹去的男孩 Boy.Erased.2018.2160p.WEB-DL.x265.10bit.SDR.DTS-HD.MA.5.1-NOGRP 12.69GB

[复制链接]

0

精华

0

好友

2

听众

新手上路

Rank: 2

蓝光币
5
发表于 2022-5-10 08:01:29 | 显示全部楼层 |阅读模式


◎译  名 被抹去的男孩 / 抹去的男孩 / 被抹掉的男孩
◎片  名 Boy Erased
◎年  代 2018
◎产  地 澳大利亚 / 美国
◎类  别 剧情 / 同性 / 传记
◎语  言 英语
◎上映日期 2018-09-01(特柳赖德电影节) / 2018-11-02(美国)
◎IMDb链接 https://www.imdb.com/title/tt7008872/
◎豆瓣评分 7.4/10 (21271人评价)
◎豆瓣链接 https://movie.douban.com/subject/27066184/
◎片  长 115分钟
◎导  演 乔尔·埃哲顿 Joel Edgerton (id:1010631)
◎编  剧 加拉德·康利 Garrard Conley (id:1397582)
       乔尔·埃哲顿 Joel Edgerton (id:1010631)
◎演  员 卢卡斯·赫奇斯 Lucas Hedges (id:1340596)
       妮可·基德曼 Nicole Kidman (id:1054442)
       罗素·克劳 Russell Crowe (id:1016674)
       玛德琳·克莱因 Madelyn Cline (id:1361248)
       维克托·麦凯 Victor McCay (id:1217124)
       大卫·约瑟夫·克雷格 David Joseph Craig (id:1351161)
       特洛耶·希文 Troye Sivan (id:1018332)
       艾米丽·辛克勒 Emily Hinkler (id:1387041)
       德文·迈克尔 Devin Michael (id:1409261)
       马特·伯克 Matt Burke (id:1397595)
       林赛·莫泽 Lindsey Moser (id:1397594)
       杰西·拉图雷特 Jesse LaTourette (id:1397598)
       布里顿·瑟尔 Britton Sear (id:1397597)
       大卫·迪特莫尔 David Ditmore (id:1397596)
       威廉·吴 William Ngo (id:1336375)
       乔尔·埃哲顿 Joel Edgerton (id:1010631)
       泽维尔·多兰 Xavier Dolan (id:1032111)
       蒂姆·韦尔 Tim Ware (id:1313203)
       弗利 Flea (id:1027333)
       兰德尔·P·海文斯 Randall P. Havens (id:1360135)
       乔·阿尔文 Joe Alwyn (id:1348117)
       约什·舍雷尔 Josh Scherer (id:1397593)
       西奥多·佩尔兰 Théodore Pellerin (id:1367557)
       弗兰克·霍伊·泰勒 Frank Hoyt Taylor (id:1397592)
       罗恩·克林顿·史密斯 Ron Clinton Smith (id:1158719)
       杰森·戴维斯 Jason Davis (id:1365392)
       布鲁克·托德 Brook Todd (id:1397591)
       林恩·阿什 Lynne Ashe (id:1397590)
       迈克尔·金 Michael King (id:1397589)
       沙耶·迈克唐纳德 Shaye McDonald (id:1397588)
       辛迪·霍根 Cindy Hogan (id:1397587)
       布莱克·伯吉斯 Blake Burgess (id:1397586)
       凯文·莱恩汉 Kevin Linehan (id:1397585)
       佩吉·亨利 Paige Henry (id:1397584)
       马莱丽·格雷迪 Malerie Grady (id:1397583)
       切莉·琼斯 Cherry Jones (id:1040616)
       乔伊·雅各布森 Joy Jacobson (id:1393702)
       威尔·金德拉克 Will Kindrachuk (id:1396660)
       摩根·乔恩·福克斯 Morgan Jon Fox (id:1020042)
       马洛里·基德韦尔 Mallory Kidwell (id:1392768)
       佩拉·米德尔顿 Perla Middleton (id:1392763)
       乔尔·埃哲顿 Joel Edgerton (id:1010631)
       强尼·格林伍德 Jonny Greenwood (id:1041462)
       丹尼·本斯 Danny Bensi (id:1445092)
       桑德·朱里亚 Saunder Jurriaans (id:1445115)
       杰伊·拉比诺维茨 Jay Rabinowitz (id:1295114)
       崔茜·萨默维尔 Trish Summerville (id:1338093)
◎简  介

  乔尔·埃哲顿将自编自导新片[被清除的男孩](Boy Erased,暂译),主演卢卡斯·赫奇斯,妮可·基德曼、罗素·克劳有望加盟。影片改编自杰拉德·康利同名自传,故事讲述阿肯色一个保守小镇的牧师之子(赫奇斯饰)因同性恋性取向而遭到家庭的排斥,基德曼、克劳饰其父母。影片将于今秋开拍。                                    
                                故事简介:在阿肯色州一座封建保守的小城,浸信会牧师19岁的儿子向父母出柜。男孩却被迫参加教会支持的同性恋矫正项目来“治愈”同性恋,否则将会付出失去亲人、朋友和宗教信仰的代价。他起初参与了含有12个步骤的残酷治疗,但最终鼓起勇气逃跑,选择拥抱真正自我。
◎获奖情况 (共10项)
  第76届金球奖 (2019)
  电影类 剧情片最佳男主角(提名)
   └──卢卡斯·赫奇斯 (id:1340596)
  电影类 最佳原创歌曲(提名)
  第6届美国化妆及发型设计工会奖 (2019)
  电影类最佳现代戏化妆(提名)
  第24届美国评论家选择电影奖 (2019)
  最佳女配角(提名)
   └──妮可·基德曼 (id:1054442)
  第23届金卫星奖 (2019)
  电影部门 剧情片最佳男主角(提名)
   └──卢卡斯·赫奇斯 (id:1340596)
  电影部门 最佳男配角(提名)
   └──罗素·克劳 (id:1016674)
  电影部门 最佳女配角(提名)
   └──妮可·基德曼 (id:1054442)
  电影部门 最佳原创歌曲(提名)
  第17届华盛顿影评人协会奖 (2018)
  最佳女配角(提名)
   └──妮可·基德曼 (id:1054442)
  第6届豆瓣电影年度榜单 (2019)
  年度LGBT电影(提名)
  1. Video
  2. ID                                       : 1
  3. Format                                   : HEVC
  4. Format/Info                              : High Efficiency Video Coding
  5. Format profile                           : Main [email protected]@High
  6. Codec ID                                 : V_MPEGH/ISO/HEVC
  7. Duration                                 : 1 h 55 min
  8. Bit rate                                 : 12.0 Mb/s
  9. Width                                    : 3 832 pixels
  10. Height                                   : 2 070 pixels
  11. Display aspect ratio                     : 1.85:1
  12. Frame rate mode                          : Constant
  13. Frame rate                               : 23.976 FPS
  14. Color space                              : YUV
  15. Chroma subsampling                       : 4:2:0
  16. Bit depth                                : 10 bits
  17. Bits/(Pixel*Frame)                       : 0.063
  18. Stream size                              : 9.67 GiB (76%)
  19. Default                                  : Yes
  20. Forced                                   : No
  21. Color range                              : Limited
  22. Color primaries                          : BT.709
  23. Transfer characteristics                 : BT.709
  24. Matrix coefficients                      : BT.709
  25. Audio #1
  26. ID                                       : 2
  27. Format                                   : DTS XLL
  28. Format/Info                              : Digital Theater Systems
  29. Commercial name                          : DTS-HD Master Audio
  30. Codec ID                                 : A_DTS
  31. Duration                                 : 1 h 54 min
  32. Bit rate mode                            : Variable
  33. Bit rate                                 : 3 338 kb/s
  34. Channel(s)                               : 6 channels
  35. Channel layout                           : C L R Ls Rs LFE
  36. Sampling rate                            : 48.0 kHz
  37. Frame rate                               : 93.750 FPS (512 SPF)
  38. Bit depth                                : 24 bits
  39. Compression mode                         : Lossless
  40. Delay relative to video                  : 25 s 0 ms
  41. Stream size                              : 2.68 GiB (21%)
  42. Title                                    : DTS-HD MA 5.1
  43. Language                                 : English
  44. Default                                  : Yes
  45. Forced                                   : No
  46. Audio #2
  47. ID                                       : 3
  48. Format                                   : AC-3
  49. Format/Info                              : Audio Coding 3
  50. Commercial name                          : Dolby Digital
  51. Codec ID                                 : A_AC3
  52. Duration                                 : 1 h 55 min
  53. Bit rate mode                            : Constant
  54. Bit rate                                 : 384 kb/s
  55. Channel(s)                               : 6 channels
  56. Channel layout                           : L R C LFE Ls Rs
  57. Sampling rate                            : 48.0 kHz
  58. Frame rate                               : 31.250 FPS (1536 SPF)
  59. Compression mode                         : Lossy
  60. Stream size                              : 316 MiB (2%)
  61. Language                                 : English
  62. Service kind                             : Complete Main
  63. Default                                  : No
  64. Forced                                   : No
  65. Text #1
  66. ID                                       : 4
  67. Format                                   : UTF-8
  68. Codec ID                                 : S_TEXT/UTF8
  69. Codec ID/Info                            : UTF-8 Plain Text
  70. Duration                                 : 1 h 54 min
  71. Bit rate                                 : 60 b/s
  72. Count of elements                        : 1721
  73. Stream size                              : 51.1 KiB (0%)
  74. Title                                    : English CC
  75. Language                                 : English
  76. Default                                  : Yes
  77. Forced                                   : No
  78. Text #2
  79. ID                                       : 5
  80. Format                                   : UTF-8
  81. Codec ID                                 : S_TEXT/UTF8
  82. Codec ID/Info                            : UTF-8 Plain Text
  83. Duration                                 : 1 h 45 min
  84. Bit rate                                 : 58 b/s
  85. Count of elements                        : 1363
  86. Stream size                              : 45.5 KiB (0%)
  87. Title                                    : English SDH
  88. Language                                 : English
  89. Default                                  : No
  90. Forced                                   : No
  91. Text #3
  92. ID                                       : 6
  93. Format                                   : UTF-8
  94. Codec ID                                 : S_TEXT/UTF8
  95. Codec ID/Info                            : UTF-8 Plain Text
  96. Duration                                 : 1 h 48 min
  97. Bit rate                                 : 82 b/s
  98. Count of elements                        : 1249
  99. Stream size                              : 65.3 KiB (0%)
  100. Title                                    : Arabic
  101. Language                                 : Arabic
  102. Default                                  : No
  103. Forced                                   : No
  104. Text #4
  105. ID                                       : 7
  106. Format                                   : UTF-8
  107. Codec ID                                 : S_TEXT/UTF8
  108. Codec ID/Info                            : UTF-8 Plain Text
  109. Duration                                 : 1 h 48 min
  110. Bit rate                                 : 81 b/s
  111. Count of elements                        : 1249
  112. Stream size                              : 64.4 KiB (0%)
  113. Title                                    : Bulgarian
  114. Language                                 : Bulgarian
  115. Default                                  : No
  116. Forced                                   : No
  117. Text #5
  118. ID                                       : 8
  119. Format                                   : UTF-8
  120. Codec ID                                 : S_TEXT/UTF8
  121. Codec ID/Info                            : UTF-8 Plain Text
  122. Duration                                 : 1 h 48 min
  123. Bit rate                                 : 47 b/s
  124. Count of elements                        : 1244
  125. Stream size                              : 37.4 KiB (0%)
  126. Title                                    : Czech
  127. Language                                 : Czech
  128. Default                                  : No
  129. Forced                                   : No
  130. Text #6
  131. ID                                       : 9
  132. Format                                   : UTF-8
  133. Codec ID                                 : S_TEXT/UTF8
  134. Codec ID/Info                            : UTF-8 Plain Text
  135. Duration                                 : 1 h 54 min
  136. Bit rate                                 : 47 b/s
  137. Count of elements                        : 1110
  138. Stream size                              : 39.4 KiB (0%)
  139. Title                                    : Danish
  140. Language                                 : Danish
  141. Default                                  : No
  142. Forced                                   : No
  143. Text #7
  144. ID                                       : 10
  145. Format                                   : UTF-8
  146. Codec ID                                 : S_TEXT/UTF8
  147. Codec ID/Info                            : UTF-8 Plain Text
  148. Duration                                 : 1 h 54 min
  149. Bit rate                                 : 46 b/s
  150. Count of elements                        : 1181
  151. Stream size                              : 38.8 KiB (0%)
  152. Title                                    : German
  153. Language                                 : German
  154. Default                                  : No
  155. Forced                                   : No
  156. Text #8
  157. ID                                       : 11
  158. Format                                   : UTF-8
  159. Codec ID                                 : S_TEXT/UTF8
  160. Codec ID/Info                            : UTF-8 Plain Text
  161. Duration                                 : 1 h 48 min
  162. Bit rate                                 : 90 b/s
  163. Count of elements                        : 1245
  164. Stream size                              : 71.9 KiB (0%)
  165. Title                                    : Greek
  166. Language                                 : Greek
  167. Default                                  : No
  168. Forced                                   : No
  169. Text #9
  170. ID                                       : 12
  171. Format                                   : UTF-8
  172. Codec ID                                 : S_TEXT/UTF8
  173. Codec ID/Info                            : UTF-8 Plain Text
  174. Duration                                 : 1 h 54 min
  175. Bit rate                                 : 48 b/s
  176. Count of elements                        : 1225
  177. Stream size                              : 40.9 KiB (0%)
  178. Title                                    : Spanish European
  179. Language                                 : Spanish
  180. Default                                  : No
  181. Forced                                   : No
  182. Text #10
  183. ID                                       : 13
  184. Format                                   : UTF-8
  185. Codec ID                                 : S_TEXT/UTF8
  186. Codec ID/Info                            : UTF-8 Plain Text
  187. Duration                                 : 1 h 48 min
  188. Bit rate                                 : 44 b/s
  189. Count of elements                        : 1234
  190. Stream size                              : 35.6 KiB (0%)
  191. Title                                    : Finnish
  192. Language                                 : Finnish
  193. Default                                  : No
  194. Forced                                   : No
  195. Text #11
  196. ID                                       : 14
  197. Format                                   : UTF-8
  198. Codec ID                                 : S_TEXT/UTF8
  199. Codec ID/Info                            : UTF-8 Plain Text
  200. Duration                                 : 1 h 54 min
  201. Bit rate                                 : 42 b/s
  202. Count of elements                        : 1271
  203. Stream size                              : 35.3 KiB (0%)
  204. Title                                    : French European
  205. Language                                 : French
  206. Default                                  : No
  207. Forced                                   : No
  208. Text #12
  209. ID                                       : 15
  210. Format                                   : UTF-8
  211. Codec ID                                 : S_TEXT/UTF8
  212. Codec ID/Info                            : UTF-8 Plain Text
  213. Duration                                 : 1 h 48 min
  214. Bit rate                                 : 128 b/s
  215. Count of elements                        : 1249
  216. Stream size                              : 102 KiB (0%)
  217. Title                                    : Hindi
  218. Language                                 : Hindi
  219. Default                                  : No
  220. Forced                                   : No
  221. Text #13
  222. ID                                       : 16
  223. Format                                   : UTF-8
  224. Codec ID                                 : S_TEXT/UTF8
  225. Codec ID/Info                            : UTF-8 Plain Text
  226. Duration                                 : 1 h 48 min
  227. Bit rate                                 : 50 b/s
  228. Count of elements                        : 1246
  229. Stream size                              : 40.0 KiB (0%)
  230. Title                                    : Hungarian
  231. Language                                 : Hungarian
  232. Default                                  : No
  233. Forced                                   : No
  234. Text #14
  235. ID                                       : 17
  236. Format                                   : UTF-8
  237. Codec ID                                 : S_TEXT/UTF8
  238. Codec ID/Info                            : UTF-8 Plain Text
  239. Duration                                 : 1 h 54 min
  240. Bit rate                                 : 49 b/s
  241. Count of elements                        : 1185
  242. Stream size                              : 41.1 KiB (0%)
  243. Title                                    : Italian
  244. Language                                 : Italian
  245. Default                                  : No
  246. Forced                                   : No
  247. Text #15
  248. ID                                       : 18
  249. Format                                   : UTF-8
  250. Codec ID                                 : S_TEXT/UTF8
  251. Codec ID/Info                            : UTF-8 Plain Text
  252. Duration                                 : 1 h 48 min
  253. Bit rate                                 : 49 b/s
  254. Count of elements                        : 1240
  255. Stream size                              : 38.8 KiB (0%)
  256. Title                                    : Dutch
  257. Language                                 : Dutch
  258. Default                                  : No
  259. Forced                                   : No
  260. Text #16
  261. ID                                       : 19
  262. Format                                   : UTF-8
  263. Codec ID                                 : S_TEXT/UTF8
  264. Codec ID/Info                            : UTF-8 Plain Text
  265. Duration                                 : 1 h 48 min
  266. Bit rate                                 : 49 b/s
  267. Count of elements                        : 1244
  268. Stream size                              : 39.4 KiB (0%)
  269. Title                                    : Norwegian
  270. Language                                 : Norwegian
  271. Default                                  : No
  272. Forced                                   : No
  273. Text #17
  274. ID                                       : 20
  275. Format                                   : UTF-8
  276. Codec ID                                 : S_TEXT/UTF8
  277. Codec ID/Info                            : UTF-8 Plain Text
  278. Duration                                 : 1 h 48 min
  279. Bit rate                                 : 44 b/s
  280. Count of elements                        : 1239
  281. Stream size                              : 35.0 KiB (0%)
  282. Title                                    : Polish
  283. Language                                 : Polish
  284. Default                                  : No
  285. Forced                                   : No
  286. Text #18
  287. ID                                       : 21
  288. Format                                   : UTF-8
  289. Codec ID                                 : S_TEXT/UTF8
  290. Codec ID/Info                            : UTF-8 Plain Text
  291. Duration                                 : 1 h 48 min
  292. Bit rate                                 : 52 b/s
  293. Count of elements                        : 1242
  294. Stream size                              : 41.7 KiB (0%)
  295. Title                                    : Portuguese European
  296. Language                                 : Portuguese
  297. Default                                  : No
  298. Forced                                   : No
  299. Text #19
  300. ID                                       : 22
  301. Format                                   : UTF-8
  302. Codec ID                                 : S_TEXT/UTF8
  303. Codec ID/Info                            : UTF-8 Plain Text
  304. Duration                                 : 1 h 48 min
  305. Bit rate                                 : 52 b/s
  306. Count of elements                        : 1237
  307. Stream size                              : 41.9 KiB (0%)
  308. Title                                    : Romanian
  309. Language                                 : Romanian
  310. Default                                  : No
  311. Forced                                   : No
  312. Text #20
  313. ID                                       : 23
  314. Format                                   : UTF-8
  315. Codec ID                                 : S_TEXT/UTF8
  316. Codec ID/Info                            : UTF-8 Plain Text
  317. Duration                                 : 1 h 48 min
  318. Bit rate                                 : 88 b/s
  319. Count of elements                        : 1250
  320. Stream size                              : 70.1 KiB (0%)
  321. Title                                    : Russian
  322. Language                                 : Russian
  323. Default                                  : No
  324. Forced                                   : No
  325. Text #21
  326. ID                                       : 24
  327. Format                                   : UTF-8
  328. Codec ID                                 : S_TEXT/UTF8
  329. Codec ID/Info                            : UTF-8 Plain Text
  330. Duration                                 : 1 h 54 min
  331. Bit rate                                 : 50 b/s
  332. Count of elements                        : 1161
  333. Stream size                              : 41.8 KiB (0%)
  334. Title                                    : Swedish
  335. Language                                 : Swedish
  336. Default                                  : No
  337. Forced                                   : No
  338. Text #22
  339. ID                                       : 25
  340. Format                                   : UTF-8
  341. Codec ID                                 : S_TEXT/UTF8
  342. Codec ID/Info                            : UTF-8 Plain Text
  343. Duration                                 : 1 h 48 min
  344. Bit rate                                 : 52 b/s
  345. Count of elements                        : 1244
  346. Stream size                              : 41.8 KiB (0%)
  347. Title                                    : Turkish
  348. Language                                 : Turkish
  349. Default                                  : No
  350. Forced                                   : No
  351. Text #23
  352. ID                                       : 26
  353. Format                                   : PGS
  354. Muxing mode                              : zlib
  355. Codec ID                                 : S_HDMV/PGS
  356. Codec ID/Info                            : Picture based subtitle format used on BDs/HD-DVDs
  357. Duration                                 : 1 h 45 min
  358. Bit rate                                 : 39.1 kb/s
  359. Count of elements                        : 2708
  360. Stream size                              : 29.6 MiB (0%)
  361. Title                                    : SDH
  362. Language                                 : English
  363. Default                                  : No
  364. Forced                                   : No
  365. Text #24
  366. ID                                       : 27
  367. Format                                   : PGS
  368. Muxing mode                              : zlib
  369. Codec ID                                 : S_HDMV/PGS
  370. Codec ID/Info                            : Picture based subtitle format used on BDs/HD-DVDs
  371. Duration                                 : 1 h 54 min
  372. Bit rate                                 : 29.9 kb/s
  373. Count of elements                        : 2488
  374. Stream size                              : 24.4 MiB (0%)
  375. Title                                    : Canadian
  376. Language                                 : French
  377. Default                                  : No
  378. Forced                                   : No
  379. Text #25
  380. ID                                       : 28
  381. Format                                   : PGS
  382. Muxing mode                              : zlib
  383. Codec ID                                 : S_HDMV/PGS
  384. Codec ID/Info                            : Picture based subtitle format used on BDs/HD-DVDs
  385. Duration                                 : 1 h 54 min
  386. Bit rate                                 : 29.7 kb/s
  387. Count of elements                        : 2490
  388. Stream size                              : 24.3 MiB (0%)
  389. Title                                    : Latin American
  390. Language                                 : Spanish
  391. Default                                  : No
  392. Forced                                   : No
  393. Menu
  394. 00:00:00.000                             : en:Chapter 01
  395. 00:05:05.430                             : en:Chapter 02
  396. 00:11:05.040                             : en:Chapter 03
  397. 00:18:40.912                             : en:Chapter 04
  398. 00:23:12.767                             : en:Chapter 05
  399. 00:31:08.827                             : en:Chapter 06
  400. 00:42:33.386                             : en:Chapter 07
  401. 00:46:52.729                             : en:Chapter 08
  402. 00:54:15.547                             : en:Chapter 09
  403. 00:58:15.829                             : en:Chapter 10
  404. 01:02:40.593                             : en:Chapter 11
  405. 01:07:00.103                             : en:Chapter 12
  406. 01:12:14.876                             : en:Chapter 13
  407. 01:16:09.027                             : en:Chapter 14
  408. 01:21:24.551                             : en:Chapter 15
  409. 01:25:54.154                             : en:Chapter 16
  410. 01:30:24.883                             : en:Chapter 17
  411. 01:34:55.070                             : en:Chapter 18
  412. 01:41:49.359                             : en:Chapter 19
  413. 01:49:06.254                             : en:Chapter 20
复制代码




                                       
                                       

                                       
                                       
                                       




Boy.Erased.2018.2160p.WEB-DL.x265.10bit.SDR.DTS-HD.MA.5.1-NOGRP.torrent (16.5 KB, 下载次数: 0)
回复

使用道具 举报

您需要登录后才可以回帖 登录 | 立即注册

本版积分规则

QQ|Archiver|手机版|小黑屋|蓝光电影网

GMT+8, 2022-5-19 23:08 , Processed in 0.054672 second(s), 28 queries .

Powered by Discuz! X3.4

Copyright © 2001-2020, Tencent Cloud.

快速回复 返回顶部 返回列表