找回密码
 立即注册

QQ登录

只需一步,快速开始

查看: 26|回复: 0

[UHD.HEVC] 哭悲 The.Sadness.2021.CHINESE.2160p.BluRay.REMUX.HEVC.DTS-HD.MA.5.1-FGT 60.22GB

[复制链接]

0

精华

0

好友

2

听众

新手上路

Rank: 2

蓝光币
5
发表于 2022-5-9 07:54:44 | 显示全部楼层 |阅读模式


◎标  题 哭悲
◎译  名 The Sadness
◎年  代 2021
◎产  地 中国台湾
◎类  别 恐怖
◎语  言 汉语普通话
◎上映日期 2021年1月22日
◎IMDb评分 6.7/10 (964人评价)
◎IMDb链接 https://www.imdb.com/title/tt13872248/
◎豆瓣评分 6.1/10 (3032人评价)
◎豆瓣链接 https://movie.douban.com/subject/35280566/
◎片  长 分钟
◎导  演 贾宥廷
◎编  剧 Rob Jabbaz
◎演  员 朱轩洋
       雷嘉纳
       王自强
       邱彦翔
       陈映如
       蓝苇华
       蔡昌宪
◎简  介

  《哭悲》故事描述新型病毒蔓延,全世界的人們對病毒逐漸麻木,沒人相信病毒的突變和濳藏危機即將到來。俊喆和他的女友凱婷討論疫情何時結束,但生活還是一如往常。某天早上,俊喆騎車送凱婷去上班分開後,兩人分別目睹不明暴徒的襲擊事件:包括早餐店老闆被阿婆撲倒狂咬、隔壁鄰居拿著武器大街狂奔、各地的暴動事件頻傳,恐慌、尖叫聲在全城蔓延。遭感染的異常人類發出「嘎嘎嘎嘔」的聲音,遍布街頭,被虐殺的血腥畫面滿街都是,大狂殺恐怖襲來,誰能活下來?俊喆要如何殺出活路,拯救不知去向的心愛女友?
  1. Video
  2. ID                                       : 1
  3. ID in the original source medium         : 4113 (0x1011)
  4. Format                                   : HEVC
  5. Format/Info                              : High Efficiency Video Coding
  6. Format profile                           : Main [email protected]@High
  7. HDR format                               : SMPTE ST 2094 App 4, Version 1, HDR10+ Profile B compatible
  8. Codec ID                                 : V_MPEGH/ISO/HEVC
  9. Duration                                 : 1 h 39 min
  10. Bit rate                                 : 81.7 Mb/s
  11. Width                                    : 3 840 pixels
  12. Height                                   : 2 160 pixels
  13. Display aspect ratio                     : 16:9
  14. Frame rate mode                          : Constant
  15. Frame rate                               : 24.000 FPS
  16. Color space                              : YUV
  17. Chroma subsampling                       : 4:2:0 (Type 2)
  18. Bit depth                                : 10 bits
  19. Bits/(Pixel*Frame)                       : 0.410
  20. Stream size                              : 57.0 GiB (95%)
  21. Language                                 : English
  22. Default                                  : No
  23. Forced                                   : No
  24. Color range                              : Limited
  25. Color primaries                          : BT.2020
  26. Transfer characteristics                 : PQ
  27. Matrix coefficients                      : BT.2020 non-constant
  28. Mastering display color primaries        : Display P3
  29. Mastering display luminance              : min: 0.0001 cd/m2, max: 1000 cd/m2
  30. Maximum Content Light Level              : 3560 cd/m2
  31. Maximum Frame-Average Light Level        : 427 cd/m2
  32. Original source medium                   : Blu-ray

  33. Audio #1
  34. ID                                       : 2
  35. ID in the original source medium         : 4353 (0x1101)
  36. Format                                   : DTS XLL
  37. Format/Info                              : Digital Theater Systems
  38. Commercial name                          : DTS-HD Master Audio
  39. Codec ID                                 : A_DTS
  40. Duration                                 : 1 h 39 min
  41. Bit rate mode                            : Variable
  42. Bit rate                                 : 1 942 kb/s
  43. Channel(s)                               : 6 channels
  44. Channel layout                           : C L R Ls Rs LFE
  45. Sampling rate                            : 48.0 kHz
  46. Frame rate                               : 93.750 FPS (512 SPF)
  47. Bit depth                                : 16 bits
  48. Compression mode                         : Lossless
  49. Stream size                              : 1.36 GiB (2%)
  50. Title                                    : DTS-HD MA 5.1
  51. Language                                 : Chinese
  52. Default                                  : Yes
  53. Forced                                   : No
  54. Original source medium                   : Blu-ray

  55. Audio #2
  56. ID                                       : 3
  57. Format                                   : AC-3
  58. Format/Info                              : Audio Coding 3
  59. Commercial name                          : Dolby Digital
  60. Codec ID                                 : A_AC3
  61. Duration                                 : 1 h 39 min
  62. Bit rate mode                            : Constant
  63. Bit rate                                 : 640 kb/s
  64. Channel(s)                               : 6 channels
  65. Channel layout                           : L R C LFE Ls Rs
  66. Sampling rate                            : 48.0 kHz
  67. Frame rate                               : 31.250 FPS (1536 SPF)
  68. Compression mode                         : Lossy
  69. Stream size                              : 458 MiB (1%)
  70. Title                                    : DD 5.1
  71. Language                                 : Chinese
  72. Service kind                             : Complete Main
  73. Default                                  : No
  74. Forced                                   : No

  75. Audio #3
  76. ID                                       : 4
  77. ID in the original source medium         : 4352 (0x1100)
  78. Format                                   : DTS XLL
  79. Format/Info                              : Digital Theater Systems
  80. Commercial name                          : DTS-HD Master Audio
  81. Codec ID                                 : A_DTS
  82. Duration                                 : 1 h 39 min
  83. Bit rate mode                            : Variable
  84. Bit rate                                 : 1 938 kb/s
  85. Channel(s)                               : 6 channels
  86. Channel layout                           : C L R Ls Rs LFE
  87. Sampling rate                            : 48.0 kHz
  88. Frame rate                               : 93.750 FPS (512 SPF)
  89. Bit depth                                : 16 bits
  90. Compression mode                         : Lossless
  91. Stream size                              : 1.35 GiB (2%)
  92. Title                                    : DTS-HD MA 5.1
  93. Language                                 : German
  94. Default                                  : No
  95. Forced                                   : No
  96. Original source medium                   : Blu-ray

  97. Text #1
  98. ID                                       : 5
  99. Format                                   : UTF-8
  100. Codec ID                                 : S_TEXT/UTF8
  101. Codec ID/Info                            : UTF-8 Plain Text
  102. Duration                                 : 1 h 32 min
  103. Bit rate                                 : 29 b/s
  104. Count of elements                        : 706
  105. Stream size                              : 20.1 KiB (0%)
  106. Language                                 : English
  107. Default                                  : Yes
  108. Forced                                   : No

  109. Text #2
  110. ID                                       : 6
  111. ID in the original source medium         : 4768 (0x12A0)
  112. Format                                   : PGS
  113. Muxing mode                              : zlib
  114. Codec ID                                 : S_HDMV/PGS
  115. Codec ID/Info                            : Picture based subtitle format used on BDs/HD-DVDs
  116. Duration                                 : 1 h 32 min
  117. Bit rate                                 : 21.5 kb/s
  118. Count of elements                        : 1250
  119. Stream size                              : 14.2 MiB (0%)
  120. Language                                 : German
  121. Default                                  : No
  122. Forced                                   : No
  123. Original source medium                   : Blu-ray

  124. Text #3
  125. ID                                       : 7
  126. ID in the original source medium         : 4769 (0x12A1)
  127. Format                                   : PGS
  128. Muxing mode                              : zlib
  129. Codec ID                                 : S_HDMV/PGS
  130. Codec ID/Info                            : Picture based subtitle format used on BDs/HD-DVDs
  131. Duration                                 : 1 h 32 min
  132. Bit rate                                 : 19.6 kb/s
  133. Count of elements                        : 1434
  134. Stream size                              : 13.0 MiB (0%)
  135. Language                                 : English
  136. Default                                  : No
  137. Forced                                   : No
  138. Original source medium                   : Blu-ray

  139. Text #4
  140. ID                                       : 8
  141. ID in the original source medium         : 4770 (0x12A2)
  142. Format                                   : PGS
  143. Muxing mode                              : zlib
  144. Codec ID                                 : S_HDMV/PGS
  145. Codec ID/Info                            : Picture based subtitle format used on BDs/HD-DVDs
  146. Duration                                 : 1 h 32 min
  147. Bit rate                                 : 15.6 kb/s
  148. Count of elements                        : 1410
  149. Stream size                              : 10.4 MiB (0%)
  150. Language                                 : Chinese
  151. Default                                  : No
  152. Forced                                   : No
  153. Original source medium                   : Blu-ray

  154. Text #5
  155. ID                                       : 9
  156. ID in the original source medium         : 4771 (0x12A3)
  157. Format                                   : PGS
  158. Muxing mode                              : zlib
  159. Codec ID                                 : S_HDMV/PGS
  160. Codec ID/Info                            : Picture based subtitle format used on BDs/HD-DVDs
  161. Duration                                 : 1 h 13 min
  162. Bit rate                                 : 547 b/s
  163. Count of elements                        : 20
  164. Stream size                              : 293 KiB (0%)
  165. Language                                 : German
  166. Default                                  : No
  167. Forced                                   : No
  168. Original source medium                   : Blu-ray

  169. Menu
  170. 00:00:00.000                             : en:Chapter 01
  171. 00:08:05.666                             : en:Chapter 02
  172. 00:16:42.708                             : en:Chapter 03
  173. 00:23:03.375                             : en:Chapter 04
  174. 00:32:02.625                             : en:Chapter 05
  175. 00:41:15.000                             : en:Chapter 06
  176. 00:49:36.791                             : en:Chapter 07
  177. 00:57:08.208                             : en:Chapter 08
  178. 01:05:20.666                             : en:Chapter 09
  179. 01:13:18.916                             : en:Chapter 10
  180. 01:19:43.041                             : en:Chapter 11
  181. 01:29:17.875                             : en:Chapter 12
复制代码




                                       
                                       

                                       
                                       
                                       




The.Sadness.2021.CHINESE.2160p.BluRay.REMUX.HEVC.DTS-HD.MA.5.1-FGT.torrent (75.92 KB, 下载次数: 0)
回复

使用道具 举报

您需要登录后才可以回帖 登录 | 立即注册

本版积分规则

QQ|Archiver|手机版|小黑屋|蓝光电影网

GMT+8, 2022-5-19 22:26 , Processed in 0.054585 second(s), 28 queries .

Powered by Discuz! X3.4

Copyright © 2001-2020, Tencent Cloud.

快速回复 返回顶部 返回列表