找回密码
 立即注册

QQ登录

只需一步,快速开始

查看: 122|回复: 0

[其他] 神秘海域 Uncharted.2022.2160p.MA.WEB-DL.x265.10bit.SDR.DTS-HD.MA.5.1-SWTYBLZ 22.39GB

[复制链接]

0

精华

0

好友

2

听众

新手上路

Rank: 2

蓝光币
5
发表于 2022-4-28 07:56:24 | 显示全部楼层 |阅读模式


◎译  名 神秘海域 / 秘境探险(港 / 台) / 神秘海域:德雷克船长的宝藏 / Uncharted: Drake's Fortune
◎片  名 Uncharted
◎年  代 2022
◎产  地 美国
◎类  别 动作 / 冒险
◎语  言 英语 / 西班牙语
◎上映日期 2022-03-14(中国大陆) / 2022-02-18(美国)
◎IMDb链接 https://www.imdb.com/title/tt1464335/
◎豆瓣评分 6.3/10 (39937人评价)
◎豆瓣链接 https://movie.douban.com/subject/3822687/
◎片  长 116分钟
◎导  演 鲁本·弗雷斯彻 Ruben Fleischer (id:1274906)
◎编  剧 雷夫·贾金斯 Rafe Judkins (id:1178355)
       阿特·马库姆 Art Marcum (id:1306770)
       马特·霍洛维 Matt Holloway (id:1286819)
◎演  员 汤姆·赫兰德 Tom Holland (id:1325351)
       马克·沃尔伯格 Mark Wahlberg (id:1035674)
       索菲娅·阿里 Sophia Ali (id:1391500)
       塔蒂·加布里埃 Tati Gabrielle (id:1378292)
       安东尼奥·班德拉斯 Antonio Banderas (id:1022582)
       史蒂芬·威丁顿 Steven Waddington (id:1319284)
       乔治娅·古德曼 Georgia Goodman (id:1392804)
       迪尔梅德·默塔 Diarmaid Murtagh (id:1332703)
       约瑟夫·巴德拉玛 Joseph Balderrama (id:1400929)
       阿拉娜·博登 Alana Boden (id:1385424)
       罗伯特?马瑟 Robert Maaser (id:1414390)
       埃斯金迪尔·特斯法 Eskindir Tesfay (id:1395237)
       曼纽尔·德·巴拉斯 Manuel de Blas (id:1001008)
       帕特丽夏·梅登 Patricia Meeden (id:1445766)
       诺兰·诺斯 Nolan North (id:1134542)
       吉米·哈特 Jimmy Hart (id:1303375)
       皮鲁·埃斯贝克 Pilou Asb?k (id:1032805)
       莎拉·佩特里克 Sarah Petrick (id:1446700)
       平吉·莫里 Pingi Moli  (id:1468362)
       蒂尔南·琼斯 Tiernan Jones  (id:1468363)
       鲁迪·潘科 Rudy Pankow  (id:1468364)
       乔纳森·法伊拉 Jonathan Failla  (id:1468365)
       安东尼·托马斯 Anthony Thomas  (id:1468366)
       彼得·锡顿-克拉克  Peter Seaton-Clark  (id:1468367)
       查尔斯·罗文 Charles Roven (id:1023082)
       阿维·阿拉德 Avi Arad (id:1462069)
       亚历克斯·加特纳 Alex Gartner (id:1423137)
       阿里·阿拉德 Ari Arad (id:1463185)
       鲁本·弗雷斯彻 Ruben Fleischer (id:1274906)
       阿萨德·齐齐尔巴什 Asad Qizilbash (id:1463186)
       丁正勋 Chung-hoon Chung (id:1076638)
       玛琳·斯图尔特 Marlene Stewart (id:1051194)
       贾斯汀·理查蒙德 Justin Richmond (id:1397058)
◎简  介

  足智多谋的内森·德雷克(汤姆·赫兰德 饰)和经验丰富的寻宝者维克多·苏利文(马克·沃尔伯格 饰)组成搭档,追寻费迪南·麦哲伦500年前遗失的宝藏。一开始,这似乎只是个简单的寻宝工作,但很快演变成了一场惊险刺激、横跨全球的竞赛。他们必须赶在冷酷无情的蒙卡达(安东尼奥·班德拉斯 饰)之前寻得宝藏。蒙卡达坚信他和他的家族才是宝藏的正当继承人。若内森和苏利文能破译线索,解开这世界上最古老的谜团,他们便能找到价值50亿美元的宝藏,甚至还可能找到内森失踪已久的哥哥……但首先,他们必须学会通力合作。
  1. Video
  2. ID                                       : 1
  3. Format                                   : HEVC
  4. Format/Info                              : High Efficiency Video Coding
  5. Format profile                           : Main [email protected]@High
  6. Codec ID                                 : V_MPEGH/ISO/HEVC
  7. Duration                                 : 1 h 55 min
  8. Bit rate                                 : 24.6 Mb/s
  9. Width                                    : 3 840 pixels
  10. Height                                   : 2 160 pixels
  11. Display aspect ratio                     : 16:9
  12. Frame rate mode                          : Constant
  13. Frame rate                               : 23.976 (24000/1001/189150) FPS
  14. Color space                              : YUV
  15. Chroma subsampling                       : 4:2:0 (Type 2)
  16. Bit depth                                : 10 bits
  17. Bits/(Pixel*Frame)                       : 0.124
  18. Stream size                              : 19.9 GiB (89%)
  19. Language                                 : English
  20. Default                                  : Yes
  21. Forced                                   : No
  22. Color range                              : Limited
  23. Color primaries                          : BT.709
  24. Transfer characteristics                 : BT.709
  25. Matrix coefficients                      : BT.709

  26. Audio #1
  27. ID                                       : 2
  28. ID in the original source medium         : 4352 (0x1100)
  29. Format                                   : DTS XLL
  30. Format/Info                              : Digital Theater Systems
  31. Commercial name                          : DTS-HD Master Audio
  32. Codec ID                                 : A_DTS
  33. Duration                                 : 1 h 55 min
  34. Bit rate mode                            : Variable
  35. Bit rate                                 : 2 213 kb/s
  36. Channel(s)                               : 6 channels
  37. Channel layout                           : C L R Ls Rs LFE
  38. Sampling rate                            : 48.0 kHz
  39. Frame rate                               : 93.750 FPS (512 SPF)
  40. Bit depth                                : 16 bits
  41. Compression mode                         : Lossless
  42. Delay relative to video                  : 7 ms
  43. Stream size                              : 1.79 GiB (8%)
  44. Title                                    : DTS-HD MA 5.1
  45. Language                                 : English
  46. Default                                  : Yes
  47. Forced                                   : No
  48. Original source medium                   : Blu-ray

  49. Audio #2
  50. ID                                       : 3
  51. Format                                   : E-AC-3 JOC
  52. Format/Info                              : Enhanced AC-3 with Joint Object Coding
  53. Commercial name                          : Dolby Digital Plus with Dolby Atmos
  54. Codec ID                                 : A_EAC3
  55. Duration                                 : 1 h 55 min
  56. Bit rate mode                            : Constant
  57. Bit rate                                 : 768 kb/s
  58. Channel(s)                               : 6 channels
  59. Channel layout                           : L R C LFE Ls Rs
  60. Sampling rate                            : 48.0 kHz
  61. Frame rate                               : 31.250 FPS (1536 SPF)
  62. Compression mode                         : Lossy
  63. Stream size                              : 637 MiB (3%)
  64. Title                                    : DDP 5.1 Atmos
  65. Language                                 : English
  66. Service kind                             : Complete Main
  67. Default                                  : No
  68. Forced                                   : No
  69. Complexity index                         : 16
  70. Number of dynamic objects                : 15
  71. Bed channel count                        : 1 channel
  72. Bed channel configuration                : LFE

  73. Text #1
  74. ID                                       : 4
  75. Format                                   : UTF-8
  76. Codec ID                                 : S_TEXT/UTF8
  77. Codec ID/Info                            : UTF-8 Plain Text
  78. Duration                                 : 4 min 20 s
  79. Bit rate                                 : 17 b/s
  80. Count of elements                        : 23
  81. Stream size                              : 573 Bytes (0%)
  82. Title                                    : English [Forced]
  83. Language                                 : English
  84. Default                                  : No
  85. Forced                                   : Yes

  86. Text #2
  87. ID                                       : 5
  88. Format                                   : UTF-8
  89. Codec ID                                 : S_TEXT/UTF8
  90. Codec ID/Info                            : UTF-8 Plain Text
  91. Duration                                 : 1 h 47 min
  92. Bit rate                                 : 57 b/s
  93. Count of elements                        : 1449
  94. Stream size                              : 45.3 KiB (0%)
  95. Title                                    : English
  96. Language                                 : English
  97. Default                                  : Yes
  98. Forced                                   : No

  99. Text #3
  100. ID                                       : 6
  101. Format                                   : UTF-8
  102. Codec ID                                 : S_TEXT/UTF8
  103. Codec ID/Info                            : UTF-8 Plain Text
  104. Duration                                 : 1 h 48 min
  105. Bit rate                                 : 63 b/s
  106. Count of elements                        : 1602
  107. Stream size                              : 50.0 KiB (0%)
  108. Title                                    : English [SDH]
  109. Language                                 : English
  110. Default                                  : No
  111. Forced                                   : No

  112. Text #4
  113. ID                                       : 7
  114. Format                                   : UTF-8
  115. Codec ID                                 : S_TEXT/UTF8
  116. Codec ID/Info                            : UTF-8 Plain Text
  117. Duration                                 : 1 h 53 min
  118. Bit rate                                 : 43 b/s
  119. Count of elements                        : 1354
  120. Stream size                              : 36.3 KiB (0%)
  121. Title                                    : Simplified
  122. Language                                 : Chinese
  123. Default                                  : No
  124. Forced                                   : No

  125. Text #5
  126. ID                                       : 8
  127. Format                                   : UTF-8
  128. Codec ID                                 : S_TEXT/UTF8
  129. Codec ID/Info                            : UTF-8 Plain Text
  130. Duration                                 : 1 h 53 min
  131. Bit rate                                 : 37 b/s
  132. Count of elements                        : 1354
  133. Stream size                              : 31.3 KiB (0%)
  134. Title                                    : Traditional
  135. Language                                 : Chinese
  136. Default                                  : No
  137. Forced                                   : No

  138. Text #6
  139. ID                                       : 9
  140. Format                                   : UTF-8
  141. Codec ID                                 : S_TEXT/UTF8
  142. Codec ID/Info                            : UTF-8 Plain Text
  143. Duration                                 : 1 h 53 min
  144. Bit rate                                 : 40 b/s
  145. Count of elements                        : 1012
  146. Stream size                              : 34.0 KiB (0%)
  147. Title                                    : Dutch
  148. Language                                 : Dutch
  149. Default                                  : No
  150. Forced                                   : No

  151. Text #7
  152. ID                                       : 10
  153. Format                                   : UTF-8
  154. Codec ID                                 : S_TEXT/UTF8
  155. Codec ID/Info                            : UTF-8 Plain Text
  156. Duration                                 : 1 h 53 min
  157. Bit rate                                 : 44 b/s
  158. Count of elements                        : 1378
  159. Stream size                              : 37.4 KiB (0%)
  160. Title                                    : Finnish
  161. Language                                 : Finnish
  162. Default                                  : No
  163. Forced                                   : No

  164. Text #8
  165. ID                                       : 11
  166. Format                                   : UTF-8
  167. Codec ID                                 : S_TEXT/UTF8
  168. Codec ID/Info                            : UTF-8 Plain Text
  169. Duration                                 : 1 h 53 min
  170. Bit rate                                 : 44 b/s
  171. Count of elements                        : 1307
  172. Stream size                              : 37.3 KiB (0%)
  173. Title                                    : French
  174. Language                                 : French
  175. Default                                  : No
  176. Forced                                   : No

  177. Text #9
  178. ID                                       : 12
  179. Format                                   : UTF-8
  180. Codec ID                                 : S_TEXT/UTF8
  181. Codec ID/Info                            : UTF-8 Plain Text
  182. Duration                                 : 1 h 53 min
  183. Bit rate                                 : 43 b/s
  184. Count of elements                        : 1328
  185. Stream size                              : 36.4 KiB (0%)
  186. Title                                    : Indonesian
  187. Language                                 : Indonesian
  188. Default                                  : No
  189. Forced                                   : No

  190. Text #10
  191. ID                                       : 13
  192. Format                                   : UTF-8
  193. Codec ID                                 : S_TEXT/UTF8
  194. Codec ID/Info                            : UTF-8 Plain Text
  195. Duration                                 : 1 h 53 min
  196. Bit rate                                 : 43 b/s
  197. Count of elements                        : 1228
  198. Stream size                              : 36.4 KiB (0%)
  199. Title                                    : Italian
  200. Language                                 : Italian
  201. Default                                  : No
  202. Forced                                   : No

  203. Text #11
  204. ID                                       : 14
  205. Format                                   : UTF-8
  206. Codec ID                                 : S_TEXT/UTF8
  207. Codec ID/Info                            : UTF-8 Plain Text
  208. Duration                                 : 1 h 53 min
  209. Bit rate                                 : 47 b/s
  210. Count of elements                        : 1362
  211. Stream size                              : 39.5 KiB (0%)
  212. Title                                    : Korean
  213. Language                                 : Korean
  214. Default                                  : No
  215. Forced                                   : No

  216. Text #12
  217. ID                                       : 15
  218. Format                                   : UTF-8
  219. Codec ID                                 : S_TEXT/UTF8
  220. Codec ID/Info                            : UTF-8 Plain Text
  221. Duration                                 : 1 h 53 min
  222. Bit rate                                 : 39 b/s
  223. Count of elements                        : 1210
  224. Stream size                              : 33.1 KiB (0%)
  225. Title                                    : Norwegian
  226. Language                                 : Norwegian
  227. Default                                  : No
  228. Forced                                   : No

  229. Text #13
  230. ID                                       : 16
  231. Format                                   : UTF-8
  232. Codec ID                                 : S_TEXT/UTF8
  233. Codec ID/Info                            : UTF-8 Plain Text
  234. Duration                                 : 1 h 53 min
  235. Bit rate                                 : 47 b/s
  236. Count of elements                        : 1321
  237. Stream size                              : 39.9 KiB (0%)
  238. Title                                    : Portuguese Brazilian
  239. Language                                 : Portuguese
  240. Default                                  : No
  241. Forced                                   : No

  242. Text #14
  243. ID                                       : 17
  244. Format                                   : UTF-8
  245. Codec ID                                 : S_TEXT/UTF8
  246. Codec ID/Info                            : UTF-8 Plain Text
  247. Duration                                 : 1 h 53 min
  248. Bit rate                                 : 46 b/s
  249. Count of elements                        : 1299
  250. Stream size                              : 38.9 KiB (0%)
  251. Title                                    : Spanish
  252. Language                                 : Spanish
  253. Default                                  : No
  254. Forced                                   : No

  255. Text #15
  256. ID                                       : 18
  257. Format                                   : UTF-8
  258. Codec ID                                 : S_TEXT/UTF8
  259. Codec ID/Info                            : UTF-8 Plain Text
  260. Duration                                 : 1 h 53 min
  261. Bit rate                                 : 44 b/s
  262. Count of elements                        : 1293
  263. Stream size                              : 37.4 KiB (0%)
  264. Title                                    : European Spanish
  265. Language                                 : Spanish
  266. Default                                  : No
  267. Forced                                   : No

  268. Text #16
  269. ID                                       : 19
  270. Format                                   : UTF-8
  271. Codec ID                                 : S_TEXT/UTF8
  272. Codec ID/Info                            : UTF-8 Plain Text
  273. Duration                                 : 1 h 53 min
  274. Bit rate                                 : 42 b/s
  275. Count of elements                        : 1040
  276. Stream size                              : 35.8 KiB (0%)
  277. Title                                    : Swedish
  278. Language                                 : Swedish
  279. Default                                  : No
  280. Forced                                   : No

  281. Text #17
  282. ID                                       : 20
  283. Format                                   : UTF-8
  284. Codec ID                                 : S_TEXT/UTF8
  285. Codec ID/Info                            : UTF-8 Plain Text
  286. Duration                                 : 1 h 53 min
  287. Bit rate                                 : 37 b/s
  288. Count of elements                        : 1303
  289. Stream size                              : 31.3 KiB (0%)
  290. Title                                    : Japanese
  291. Language                                 : Japanese
  292. Default                                  : No
  293. Forced                                   : No

  294. Text #18
  295. ID                                       : 21
  296. Format                                   : UTF-8
  297. Codec ID                                 : S_TEXT/UTF8
  298. Codec ID/Info                            : UTF-8 Plain Text
  299. Duration                                 : 1 h 53 min
  300. Bit rate                                 : 114 b/s
  301. Count of elements                        : 1358
  302. Stream size                              : 95.5 KiB (0%)
  303. Title                                    : Thai
  304. Language                                 : Thai
  305. Default                                  : No
  306. Forced                                   : No

  307. Text #19
  308. ID                                       : 22
  309. Format                                   : UTF-8
  310. Codec ID                                 : S_TEXT/UTF8
  311. Codec ID/Info                            : UTF-8 Plain Text
  312. Duration                                 : 1 h 47 min
  313. Bit rate                                 : 54 b/s
  314. Count of elements                        : 1332
  315. Stream size                              : 42.7 KiB (0%)
  316. Title                                    : Turkish
  317. Language                                 : Turkish
  318. Default                                  : No
  319. Forced                                   : No

  320. Text #20
  321. ID                                       : 23
  322. Format                                   : PGS
  323. Muxing mode                              : zlib
  324. Codec ID                                 : S_HDMV/PGS
  325. Codec ID/Info                            : Picture based subtitle format used on BDs/HD-DVDs
  326. Duration                                 : 1 h 47 min
  327. Bit rate                                 : 33.4 kb/s
  328. Count of elements                        : 2670
  329. Stream size                              : 25.7 MiB (0%)
  330. Language                                 : English
  331. Default                                  : No
  332. Forced                                   : No

  333. Text #21
  334. ID                                       : 24
  335. Format                                   : PGS
  336. Muxing mode                              : zlib
  337. Codec ID                                 : S_HDMV/PGS
  338. Codec ID/Info                            : Picture based subtitle format used on BDs/HD-DVDs
  339. Duration                                 : 1 h 53 min
  340. Bit rate                                 : 26.5 kb/s
  341. Count of elements                        : 2614
  342. Stream size                              : 21.6 MiB (0%)
  343. Language                                 : French
  344. Default                                  : No
  345. Forced                                   : No

  346. Text #22
  347. ID                                       : 25
  348. Format                                   : PGS
  349. Muxing mode                              : zlib
  350. Codec ID                                 : S_HDMV/PGS
  351. Codec ID/Info                            : Picture based subtitle format used on BDs/HD-DVDs
  352. Duration                                 : 1 h 53 min
  353. Bit rate                                 : 27.4 kb/s
  354. Count of elements                        : 2586
  355. Stream size                              : 22.3 MiB (0%)
  356. Language                                 : Spanish
  357. Default                                  : No
  358. Forced                                   : No

  359. Menu
  360. 00:00:00.000                             : en:Chapter 01
  361. 00:08:16.496                             : en:Chapter 02
  362. 00:12:23.284                             : en:Chapter 03
  363. 00:18:56.885                             : en:Chapter 04
  364. 00:24:30.218                             : en:Chapter 05
  365. 00:31:35.101                             : en:Chapter 06
  366. 00:36:14.338                             : en:Chapter 07
  367. 00:41:26.984                             : en:Chapter 08
  368. 00:48:05.090                             : en:Chapter 09
  369. 00:53:18.403                             : en:Chapter 10
  370. 00:59:13.258                             : en:Chapter 11
  371. 01:05:53.199                             : en:Chapter 12
  372. 01:12:02.943                             : en:Chapter 13
  373. 01:17:32.898                             : en:Chapter 14
  374. 01:25:00.220                             : en:Chapter 15
  375. 01:34:41.842                             : en:Chapter 16
复制代码




                                       
                                       

                                       
                                       
                                       




Uncharted.2022.2160p.MA.WEB-DL.x265.10bit.SDR.DTS-HD.MA.5.1-SWTYBLZ.torrent (28.64 KB, 下载次数: 13)
回复

使用道具 举报

您需要登录后才可以回帖 登录 | 立即注册

本版积分规则

QQ|Archiver|手机版|小黑屋|蓝光电影网

GMT+8, 2022-5-20 00:32 , Processed in 0.079039 second(s), 28 queries .

Powered by Discuz! X3.4

Copyright © 2001-2020, Tencent Cloud.

快速回复 返回顶部 返回列表