找回密码
 立即注册

QQ登录

只需一步,快速开始

查看: 83|回复: 2

[科幻片] 月球陨落 Moonfall.2022.1080p.BluRay.x264-PiGNUS 14.25GB

[复制链接]

0

精华

0

好友

2

听众

新手上路

Rank: 2

蓝光币
5
发表于 2022-4-28 07:08:46 | 显示全部楼层 |阅读模式


◎译  名 月球陨落 / 月球坠落
◎片  名 Moonfall
◎年  代 2022
◎产  地 美国 / 中国大陆 / 英国
◎类  别 科幻 / 灾难
◎语  言 英语 / 汉语普通话
◎上映日期 2022-03-25(中国大陆) / 2022-02-04(美国)
◎IMDb链接 https://www.imdb.com/title/tt5834426/
◎豆瓣评分 5.4/10 (69961人评价)
◎豆瓣链接 https://movie.douban.com/subject/26825482/
◎片  长 130分钟
◎导  演 罗兰·艾默里奇 Roland Emmerich (id:1040593)
◎编  剧 罗兰·艾默里奇 Roland Emmerich (id:1040593)
       哈洛德·克卢瑟 Harald Kloser (id:1009834)
       斯宾塞·科恩 Spenser Cohen (id:1397103)
◎演  员 哈莉·贝瑞 Halle Berry (id:1054415)
       帕特里克·威尔森 Patrick Wilson (id:1006919)
       约翰·布莱德利 John Bradley (id:1314665)
       于文文 Kelly Yu (id:1342252)
       迈克尔·佩纳 Michael Pe?a (id:1131634)
       唐纳德·萨瑟兰 Donald Sutherland (id:1010556)
       查理·普拉默 Charlie Plummer (id:1350090)
       艾米·伊库瓦克 Eme Ikwuakor  (id:1467718)
       卡罗林纳·巴特察克 Carolina Bartczak (id:1332869)
       马克西姆·罗伊 Maxim Roy (id:1139679)
       斯蒂夫·博加尔特 Stephen Bogaert (id:1350047)
       蒂龙·本斯金 Tyrone Benskin (id:1389182)
       乔什·克鲁达斯 Josh Cruddas (id:1442635)
       凯蒂·布赖尔 Katy Breier (id:1444407)
       克里斯·桑迪福德 Chris Sandiford (id:1239842)
       兰迪·托马斯 Randy Thomas (id:1149651)
       克里什陶·马尔尚 Krista Marchand (id:1452439)
       泰勒·艾略特·伯克 Tyler Elliot Burke (id:1335425)
       娜塔莉·希波蒂 Nathaly Thibault (id:1345419)
       贾·史密斯-约翰逊 Jaa Smith-Johnson (id:1335589)
       史蒂文·皮奥维森 Steven Piovesan (id:1348738)
       大卫·泰勒 David Tyler (id:1243183)
       罗兰·艾默里奇 Roland Emmerich (id:1040593)
       王中军 Zhongjun Wang (id:1276036)
       王中磊 Zhonglei Wang (id:1276037)
       马里奥·达维尼翁 Mario Davignon (id:1281890)
       费利克斯·安托万·杜瓦尔 Félix-Antoine Duval (id:1465038)
◎简  介

  月球开始偏离轨道,离撞上地球的时间线越来越近,危机时刻,美国国防部提出使用核弹,来让月球重新回到正常轨道。但“假冒博士”(约翰·布莱德利饰)发现,月球内部是空的,显然是有外星文明在操控着月球的轨迹。这个计划逐渐被两位宇航员(帕特里克·威尔森和哈莉·贝瑞饰)接受,但前者因为多年前的一起太空事故,已被美国国家航空航天局开除,关键时刻,已经升为负责人的后者拍板,决定用一台被废弃在博物馆中的航天飞船再次升空飞往月球,借助前者超强的驾驶经验,深入月球地心完成任务。
  1. Video
  2. ID                                       : 1
  3. Format                                   : AVC
  4. Format/Info                              : Advanced Video Codec
  5. Format profile                           : [email protected]
  6. Format settings                          : CABAC / 5 Ref Frames
  7. Format settings, CABAC                   : Yes
  8. Format settings, Reference frames        : 5 frames
  9. Codec ID                                 : V_MPEG4/ISO/AVC
  10. Duration                                 : 2 h 10 min
  11. Bit rate                                 : 10.1 Mb/s
  12. Width                                    : 1 920 pixels
  13. Height                                   : 804 pixels
  14. Display aspect ratio                     : 2.40:1
  15. Frame rate mode                          : Constant
  16. Frame rate                               : 23.976 (24000/1001/189150) FPS
  17. Color space                              : YUV
  18. Chroma subsampling                       : 4:2:0
  19. Bit depth                                : 8 bits
  20. Scan type                                : Progressive
  21. Bits/(Pixel*Frame)                       : 0.272
  22. Stream size                              : 9.17 GiB (64%)
  23. Writing library                          : x264 core 164 r3094 bfc87b7
  24. Encoding settings                        : cabac=1 / ref=5 / deblock=1:-3:-3 / analyse=0x3:0x133 / me=umh / subme=9 / psy=1 / psy_rd=1.00:0.00 / mixed_ref=1 / me_range=16 / chroma_me=1 / trellis=2 / 8x8dct=1 / cqm=0 / deadzone=21,11 / fast_pskip=1 / chroma_qp_offset=-2 / threads=25 / lookahead_threads=2 / sliced_threads=0 / nr=0 / decimate=1 / interlaced=0 / bluray_compat=0 / constrained_intra=0 / bframes=3 / b_pyramid=2 / b_adapt=2 / b_bias=0 / direct=3 / weightb=1 / open_gop=0 / weightp=2 / keyint=250 / keyint_min=23 / scenecut=40 / intra_refresh=0 / rc_lookahead=60 / rc=crf / mbtree=1 / crf=15.0 / qcomp=0.60 / qpmin=0 / qpmax=69 / qpstep=4 / ip_ratio=1.40 / aq=1:1.00
  25. Default                                  : Yes
  26. Forced                                   : No

  27. Audio #1
  28. ID                                       : 2
  29. Format                                   : MLP FBA 16-ch
  30. Format/Info                              : Meridian Lossless Packing FBA with 16-channel presentation
  31. Commercial name                          : Dolby TrueHD with Dolby Atmos
  32. Codec ID                                 : A_TRUEHD
  33. Duration                                 : 2 h 10 min
  34. Bit rate mode                            : Variable
  35. Bit rate                                 : 4 704 kb/s
  36. Maximum bit rate                         : 8 046 kb/s
  37. Channel(s)                               : 8 channels
  38. Channel layout                           : L R C LFE Ls Rs Lb Rb
  39. Sampling rate                            : 48.0 kHz
  40. Frame rate                               : 1 200.000 FPS (40 SPF)
  41. Compression mode                         : Lossless
  42. Stream size                              : 4.28 GiB (30%)
  43. Language                                 : English
  44. Default                                  : Yes
  45. Forced                                   : No
  46. Number of dynamic objects                : 11
  47. Bed channel count                        : 1 channel
  48. Bed channel configuration                : LFE

  49. Audio #2
  50. ID                                       : 3
  51. Format                                   : AC-3
  52. Format/Info                              : Audio Coding 3
  53. Commercial name                          : Dolby Digital
  54. Format settings                          : Dolby Surround EX
  55. Codec ID                                 : A_AC3
  56. Duration                                 : 2 h 10 min
  57. Bit rate mode                            : Constant
  58. Bit rate                                 : 640 kb/s
  59. Channel(s)                               : 6 channels
  60. Channel layout                           : L R C LFE Ls Rs
  61. Sampling rate                            : 48.0 kHz
  62. Frame rate                               : 31.250 FPS (1536 SPF)
  63. Compression mode                         : Lossy
  64. Stream size                              : 596 MiB (4%)
  65. Language                                 : English
  66. Service kind                             : Complete Main
  67. Default                                  : Yes
  68. Forced                                   : No

  69. Audio #3
  70. ID                                       : 4
  71. Format                                   : AAC LC
  72. Format/Info                              : Advanced Audio Codec Low Complexity
  73. Codec ID                                 : A_AAC-2
  74. Duration                                 : 2 h 10 min
  75. Bit rate                                 : 114 kb/s
  76. Channel(s)                               : 2 channels
  77. Channel layout                           : L R
  78. Sampling rate                            : 48.0 kHz
  79. Frame rate                               : 46.875 FPS (1024 SPF)
  80. Compression mode                         : Lossy
  81. Delay relative to video                  : 9 ms
  82. Stream size                              : 106 MiB (1%)
  83. Title                                    : Commentary
  84. Language                                 : English
  85. Default                                  : No
  86. Forced                                   : No

  87. Text #1
  88. ID                                       : 5
  89. Format                                   : PGS
  90. Muxing mode                              : zlib
  91. Codec ID                                 : S_HDMV/PGS
  92. Codec ID/Info                            : Picture based subtitle format used on BDs/HD-DVDs
  93. Duration                                 : 2 h 0 min
  94. Bit rate                                 : 42.1 kb/s
  95. Count of elements                        : 4052
  96. Stream size                              : 36.4 MiB (0%)
  97. Title                                    : English SDH
  98. Language                                 : English
  99. Default                                  : No
  100. Forced                                   : No

  101. Text #2
  102. ID                                       : 6
  103. Format                                   : PGS
  104. Muxing mode                              : zlib
  105. Codec ID                                 : S_HDMV/PGS
  106. Codec ID/Info                            : Picture based subtitle format used on BDs/HD-DVDs
  107. Duration                                 : 2 h 0 min
  108. Bit rate                                 : 32.1 kb/s
  109. Count of elements                        : 3396
  110. Stream size                              : 27.7 MiB (0%)
  111. Title                                    : Spanish
  112. Language                                 : Spanish
  113. Default                                  : No
  114. Forced                                   : No

  115. Text #3
  116. ID                                       : 7
  117. Format                                   : PGS
  118. Muxing mode                              : zlib
  119. Codec ID                                 : S_HDMV/PGS
  120. Codec ID/Info                            : Picture based subtitle format used on BDs/HD-DVDs
  121. Duration                                 : 2 h 0 min
  122. Bit rate                                 : 34.7 kb/s
  123. Count of elements                        : 3354
  124. Stream size                              : 30.0 MiB (0%)
  125. Title                                    : English
  126. Language                                 : English
  127. Default                                  : No
  128. Forced                                   : No

  129. Text #4
  130. ID                                       : 8
  131. Format                                   : PGS
  132. Muxing mode                              : zlib
  133. Codec ID                                 : S_HDMV/PGS
  134. Codec ID/Info                            : Picture based subtitle format used on BDs/HD-DVDs
  135. Duration                                 : 2 h 10 min
  136. Bit rate                                 : 35.1 kb/s
  137. Count of elements                        : 3552
  138. Stream size                              : 32.6 MiB (0%)
  139. Title                                    : French
  140. Language                                 : French
  141. Default                                  : No
  142. Forced                                   : No

  143. Menu
  144. 00:00:00.000                             : en:Chapter 01
  145. 00:05:58.275                             : en:Chapter 02
  146. 00:13:28.057                             : en:Chapter 03
  147. 00:21:14.565                             : en:Chapter 04
  148. 00:30:58.940                             : en:Chapter 05
  149. 00:38:36.856                             : en:Chapter 06
  150. 00:47:33.726                             : en:Chapter 07
  151. 00:55:51.848                             : en:Chapter 08
  152. 01:03:39.816                             : en:Chapter 09
  153. 01:10:14.710                             : en:Chapter 10
  154. 01:15:38.534                             : en:Chapter 11
  155. 01:22:37.369                             : en:Chapter 12
  156. 01:30:10.780                             : en:Chapter 13
  157. 01:35:47.784                             : en:Chapter 14
  158. 01:45:09.178                             : en:Chapter 15
  159. 01:56:22.976                             : en:Chapter 16
  160. 02:10:17.601                             : en:Chapter 17
复制代码





                                       
                                       

                                       
                                       
                                       




Moonfall.2022.1080p.BluRay.x264-PiGNUS.torrent (18.54 KB, 下载次数: 14)
回复

使用道具 举报

0

精华

0

好友

2

听众

新手上路

Rank: 1

蓝光币
0
发表于 2022-4-29 21:18:44 | 显示全部楼层
辛苦了,谢谢
回复

使用道具 举报

0

精华

0

好友

4

听众

新手上路

Rank: 1

蓝光币
30
发表于 2022-4-30 15:14:13 | 显示全部楼层
多谢分享,辛苦了~
回复

使用道具 举报

您需要登录后才可以回帖 登录 | 立即注册

本版积分规则

QQ|Archiver|手机版|小黑屋|蓝光电影网

GMT+8, 2022-5-20 00:00 , Processed in 0.060876 second(s), 28 queries .

Powered by Discuz! X3.4

Copyright © 2001-2020, Tencent Cloud.

快速回复 返回顶部 返回列表