找回密码
 立即注册

QQ登录

只需一步,快速开始

查看: 939|回复: 1

[8bit.HDR] 登月第一人/第一人 First.Man.2018.IMAX.2160p.BluRay.x264.8bit.SDR.DTS-HD.MA.TrueHD.7.1.Atmos-SWTYBLZ 52.59GB

[复制链接]

已抛锚 成长值: 310

0

精华

0

好友

0

听众

管理员

Rank: 9Rank: 9Rank: 9

蓝光币
7041
发表于 2019-2-2 09:59:58 | 显示全部楼层 |阅读模式

115310jlflqdpf1v1s16sl.jpg
◎译  名 登月第一人 / 第一人 / 登月先锋(台) / 爱月之人(豆友译名)
◎片  名 登月第一人 First Man
◎年  代 2018
◎国  家 美国
◎类  别 剧情 / 列传 / 历史
◎语  言 英语
◎上映日期 2018-08-29(威尼斯电影节) / 2018-10-12(美国)
◎IMDb评分7.5/10 from 81,617 users
◎IMDb链接http://www.imdb.com/title/tt1213641/
◎豆瓣评分 7.7/10 from 16828 users
◎豆瓣链接 https://movie.douban.com/subject/3026559/
◎片  长 141分钟
◎导  演 达米恩·查泽雷
◎主  演 瑞恩·高斯林
      克莱尔·芙伊
      杰森·克拉克
      凯尔·钱德勒
      寇瑞·斯托尔
      派屈克·福吉特
      克里斯托弗·阿波特
      塞伦·希德
      奥莉维亚·汉密尔顿
      巴勃罗·施瑞博尔
      谢伊·惠格姆
      卢卡斯·哈斯
      伊桑·恩布里
      布莱恩·达西·詹姆斯
      科里·迈克尔·史姑娘
      克里斯·斯万博格

◎简  介 

  影片将聚焦美国传奇宇航员尼尔·阿姆斯特朗的生平,重点报告他在1961-1969年间成为人类历史上第一个登月者的进程,同时也展现出人类在此次史上最危险的宇宙摸索征途中所支出的难以设想的国家与个体牺牲。
  影片按照詹姆斯·汉森的列传作品《第一人:尼尔·阿姆斯特朗的人生》改编而成。
  尼尔·阿姆斯特朗,是人类历史上首位登上月球的宇航员。他1930年诞生,2012年去世,是美国阿波罗11号登月计划宇航员。在美国航空航天局退役时,阿姆斯特朗于1969年7月21日成为了第一个踏上月球的宇航员,也是第一个在地球外星体上留下脚印的人类成员。

◎获奖情况 

  第75届威尼斯电影节 (2018)
  主比赛单元 金狮奖 (提名) 达米恩·查泽雷

  第76届金球奖 (2019)
  电影类 最好女配角(提名) 克莱尔·芙伊
  电影类 最好原创配乐

  第72届英国电影学院奖 (2019)
  电影奖 最好女配角(提名) 克莱尔·芙伊
  电影奖 最好改编剧本(提名) 乔希·辛格
  电影奖 最好摄影(提名) 莱纳斯·桑德格伦
  电影奖 最好剪辑(提名) 汤姆·克罗斯
  电影奖 最好艺术指导(提名) 内森·克劳利 /Kathy Lucas
  电影奖 最好特别视觉结果(提名)
  电影奖 最好音效(提名)

  第33届美国摄影协会奖 (2019)
  电影长片最好摄影(提名) 莱纳斯·桑德格伦

  第69届美国剪辑工会奖 (2019)
  剧情片最好剪辑(提名) 汤姆·克罗斯

  第23届美国艺术指导工会奖 (2019)
  电影奖 最好历史电影艺术指导(提名) 内森·克劳利

  第66届美国音效剪辑协会奖 (2019)
  金卷轴奖 最好电影音效剪辑(提名)
  金卷轴奖 最好电影对白剪辑(提名)
  金卷轴奖 最好配乐剪辑(提名)

  第17届美国视觉结果协会奖 (2019)
  最好电影帮助视觉结果(提名)
  最好电影视觉结果分解(提名)

  第55届美国声音结果协会奖 (2019)
  真人电影最好音效(提名)

  第24届美国批评家挑选电影奖 (2019)
  最好影片(提名)
  最好导演(提名) 达米恩·查泽雷
  最好男配角(提名) 瑞恩·高斯林
  最好女配角(提名) 克莱尔·芙伊
  最好改编剧本(提名) 乔希·辛格
  最好摄影(提名)
  最好剪辑
  最好配乐
  最好美术指导(提名)
  最好视觉结果(提名)

  第23届金卫星奖 (2019)
  电影部分 最好剧情片(提名)
  电影部分 剧情片最好男配角(提名) 瑞恩·高斯林
  电影部分 最好女配角(提名) 克莱尔·芙伊
  电影部分 最好原创配乐
  电影部分 最好剪辑(提名)
  电影部分 最好音效(提名)
  电影部分 最好美术指导(提名)

  第22届好莱坞电影奖 (2018)
  年度导演 达米恩·查泽雷
  年度剪辑 汤姆·克罗斯
  年度配乐 贾斯汀·赫维兹

  第17届华盛顿影评人协会奖 (2018)
  最好摄影(提名)
  最好剪辑
  最好原创配乐(提名) 贾斯汀·赫维兹
  最好艺术指导(提名)

  第39届伦敦影评人协会奖 (2019)
  年度电影(提名)
  年度女配角(提名) 克莱尔·芙伊
  年度英国/爱尔兰女演员(提名) 克莱尔·芙伊
  技术成就奖(提名) 保罗·兰伯特

  第39届波士顿影评人协会奖 (2018)
  最好剪辑
  最好音乐(提名)

  第44届洛杉矶影评人协会奖 (2018)
  最好配乐(提名)

  第31届芝加哥影评人协会奖 (2018)
  最好摄影(提名) 莱纳斯·桑德格伦
  最好剪辑(提名) 汤姆·克罗斯
  最好原创配乐(提名) 贾斯汀·赫维兹
  最好视觉结果(提名)

  第17届旧金山影评人协会奖 (2018)
  最好摄影(提名)
  最好艺术指导(提名)
  最好原创配乐(提名)
  最好剪辑(提名)

  第18届温哥华影评人协会奖 (2019)
  最好女配角(提名) 克莱尔·芙伊

  第18届凤凰城影评人协会奖 (2018)
  最好原创配乐

  第3届亚特兰大影评人协会奖 (2018)
  十佳影片
  最好原创配乐

  第22届美国在线影评人协会奖 (2019)
  最好剪辑(提名)
  最好原创配乐(提名)
  最好摄影(提名)

  第5届豆瓣电影年度榜单 (2018)
  年度电影原声(提名)

  • Video
  • ID             : 1
  • Format           : AVC
  • Format/Info          : Advanced Video Codec
  • Format profile         : [email protected]
  • Format settings        : CABAC / 5 Ref Frames
  • Format settings, CABAC       : Yes
  • Format settings, RefFrames     : 5 frames
  • Codec ID           : V_MPEG4/ISO/AVC
  • Duration           : 2 h 20 min
  • Bit rate           : 46.0 Mb/s
  • Width            : 3 840 pixels
  • Height           : 2 160 pixels
  • Display aspect ratio       : 16:9
  • Frame rate mode        : Constant
  • Frame rate           : 23.976 (24000/1001) FPS
  • Color space          : YUV
  • Chroma subsampling       : 4:2:0
  • Bit depth          : 8 bits
  • Scan type          : Progressive
  • Bits/(Pixel*Frame)       : 0.231
  • Stream size          : 45.3 GiB (86%)
  • Title            : First.Man.2018.IMAX.2160p.BluRay.x264.8bit.SDR.DTS-HD.MA.TrueHD.7.1.Atmos-SWTYBLZ
  • Writing library        : x264 core 157 r2935 545de2f
  • Encoding settings        : cabac=1 / ref=5 / deblock=1:-1:-1 / analyse=0x3:0x113 / me=umh / subme=10 / psy=1 / psy_rd=1.00:0.15 / mixed_ref=1 / me_range=48 / chroma_me=1 / trellis=2 / 8x8dct=1 / cqm=0 / deadzone=21,11 / fast_pskip=1 / chroma_qp_offset=-3 / threads=48 / lookahead_threads=4 / sliced_threads=0 / nr=0 / decimate=0 / interlaced=0 / bluray_compat=0 / constrained_intra=0 / bframes=3 / b_pyramid=2 / b_adapt=2 / b_bias=0 / direct=3 / weightb=1 / open_gop=0 / weightp=2 / keyint=250 / keyint_min=23 / scenecut=40 / intra_refresh=0 / rc_lookahead=50 / rc=crf / mbtree=1 / crf=20.0 / qcomp=0.60 / qpmin=0 / qpmax=69 / qpstep=4 / ip_ratio=1.40 / aq=1:1.00
  • Default            : Yes
  • Forced           : No
  • Audio #1
  • ID             : 2
  • Format           : MLP FBA 16-ch
  • Format/Info          : Meridian Lossless Packing FBA with 16-channel presentation
  • Commercial name        : Dolby TrueHD with Dolby Atmos
  • Codec ID           : A_TRUEHD
  • Duration           : 2 h 20 min
  • Bit rate mode          : Variable
  • Bit rate           : 2 679 kb/s
  • Maximum bit rate         : 4 533 kb/s
  • Channel(s)           : 8 channels
  • Channel layout         : L R C LFE Ls Rs Lb Rb
  • Sampling rate          : 48.0 kHz
  • Frame rate           : 1 200.000 FPS (40 SPF)
  • Compression mode         : Lossless
  • Delay relative to video      : 33 ms
  • Stream size          : 2.64 GiB (5%)
  • Title            : First.Man.2018.IMAX.2160p.BluRay.x264.8bit.SDR.DTS-HD.MA.TrueHD.7.1.Atmos-SWTYBLZ
  • Language           : English
  • Default            : Yes
  • Forced           : No
  • Number of dynamic objects      : 11
  • Bed channel count        : 1 channel
  • Bed channel configuration      : LFE
  • Audio #2
  • ID             : 3
  • Format           : DTS XLL
  • Format/Info          : Digital Theater Systems
  • Commercial name        : DTS-HD Master Audio
  • Codec ID           : A_DTS
  • Duration           : 2 h 20 min
  • Bit rate mode          : Variable
  • Bit rate           : 3 893 kb/s
  • Channel(s)           : 8 channels
  • Channel layout         : C L R LFE Lb Rb Lss Rss
  • Sampling rate          : 48.0 kHz
  • Frame rate           : 93.750 FPS (512 SPF)
  • Bit depth          : 24 bits
  • Compression mode         : Lossless
  • Stream size          : 3.83 GiB (7%)
  • Title            : First.Man.2018.IMAX.2160p.BluRay.x264.8bit.SDR.DTS-HD.MA.TrueHD.7.1.Atmos-SWTYBLZ
  • Language           : English
  • Default            : No
  • Forced           : No
  • Audio #3
  • ID             : 4
  • Format           : AC-3
  • Format/Info          : Audio Coding 3
  • Commercial name        : Dolby Digital
  • Codec ID           : A_AC3
  • Duration           : 2 h 20 min
  • Bit rate mode          : Constant
  • Bit rate           : 640 kb/s
  • Channel(s)           : 6 channels
  • Channel layout         : L R C LFE Ls Rs
  • Sampling rate          : 48.0 kHz
  • Frame rate           : 31.250 FPS (1536 SPF)
  • Bit depth          : 16 bits
  • Compression mode         : Lossy
  • Stream size          : 645 MiB (1%)
  • Title            : First.Man.2018.IMAX.2160p.BluRay.x264.8bit.SDR.DTS-HD.MA.TrueHD.7.1.Atmos-SWTYBLZ
  • Language           : English
  • Service kind         : Complete Main
  • Default            : No
  • Forced           : No
  • Text #1
  • ID             : 5
  • Format           : UTF-8
  • Codec ID           : S_TEXT/UTF8
  • Codec ID/Info          : UTF-8 Plain Text
  • Duration           : 2 h 10 min
  • Bit rate           : 48 b/s
  • Count of elements        : 1376
  • Stream size          : 46.9 KiB (0%)
  • Title            : English-SRT
  • Language           : English
  • Default            : Yes
  • Forced           : No
  • Text #2
  • ID             : 6
  • Format           : UTF-8
  • Codec ID           : S_TEXT/UTF8
  • Codec ID/Info          : UTF-8 Plain Text
  • Duration           : 2 h 12 min
  • Bit rate           : 55 b/s
  • Count of elements        : 1596
  • Stream size          : 53.9 KiB (0%)
  • Title            : English-SDH-SRT
  • Language           : English
  • Default            : No
  • Forced           : No
  • Text #3
  • ID             : 7
  • Format           : PGS
  • Muxing mode          : zlib
  • Codec ID           : S_HDMV/PGS
  • Codec ID/Info          : Picture based subtitle format used on BDs/HD-DVDs
  • Duration           : 2 h 12 min
  • Bit rate           : 35.7 kb/s
  • Count of elements        : 3192
  • Stream size          : 33.8 MiB (0%)
  • Title            : English-PGS
  • Language           : English
  • Default            : No
  • Forced           : No
  • Text #4
  • ID             : 8
  • Format           : PGS
  • Muxing mode          : zlib
  • Codec ID           : S_HDMV/PGS
  • Codec ID/Info          : Picture based subtitle format used on BDs/HD-DVDs
  • Duration           : 2 h 19 min
  • Bit rate           : 27.0 kb/s
  • Count of elements        : 2796
  • Stream size          : 27.0 MiB (0%)
  • Title            : Spanish-PGS
  • Language           : Spanish
  • Default            : No
  • Forced           : No
  • Text #5
  • ID             : 9
  • Format           : PGS
  • Muxing mode          : zlib
  • Codec ID           : S_HDMV/PGS
  • Codec ID/Info          : Picture based subtitle format used on BDs/HD-DVDs
  • Duration           : 2 h 19 min
  • Bit rate           : 28.1 kb/s
  • Count of elements        : 2812
  • Stream size          : 28.1 MiB (0%)
  • Title            : French-PGS
  • Language           : French
  • Default            : No
  • Forced           : No
  • Menu
  • 00:00:00.000         : :Chapter 1
  • 00:07:20.440         : :Chapter 2
  • 00:13:35.981         : :Chapter 3
  • 00:19:53.192         : :Chapter 4
  • 00:25:59.724         : :Chapter 5
  • 00:31:30.138         : :Chapter 6
  • 00:40:17.248         : :Chapter 7
  • 00:49:57.703         : :Chapter 8
  • 01:00:03.016         : :Chapter 9
  • 01:05:42.396         : :Chapter 10
  • 01:11:05.761         : :Chapter 11
  • 01:15:12.966         : :Chapter 12
  • 01:21:32.888         : :Chapter 13
  • 01:30:35.304         : :Chapter 14
  • 01:39:00.726         : :Chapter 15
  • 01:48:58.490         : :Chapter 16
  • 01:54:44.419         : :Chapter 17
  • 02:00:14.916         : :Chapter 18
  • 02:09:55.746         : :Chapter 19
  • 02:14:02.743         : :Chapter 20


复制代码

复制代码

115311nskzirzeh7r88bmh.jpg 115312n1j5lrz108a0zuby.jpg 115313gbbtl5ntttqyd33b.jpg 115314kgyq06zxg04x40qg.jpg 115314w3dclwlvic2764cc.jpg 115315o55z55usobouguw5.jpg






First.Man.2018.IMAX.2160p.BluRay.x264.8bit.SDR.DTS-HD.MA.TrueHD.7.1.Atmos-SWTYBLZ.torrent (132.12 KB, 下载次数: 2)


回复

使用道具 举报

已抛锚 成长值: 5575

0

精华

0

好友

5

听众

新手上路

Rank: 2

蓝光币
0
发表于 2021-6-20 08:10:59 | 显示全部楼层
太好啦&萬分感謝版主的無私發佈分享%
回复

使用道具 举报

您需要登录后才可以回帖 登录 | 立即注册

本版积分规则

QQ|Archiver|手机版|小黑屋|蓝光电影网

GMT+8, 2022-7-5 05:37 , Processed in 0.062908 second(s), 24 queries .

Powered by Discuz! X3.4

Copyright © 2001-2020, Tencent Cloud.

快速回复 返回顶部 返回列表