找回密码
 立即注册

QQ登录

只需一步,快速开始

查看: 1672|回复: 0

[10bit.HDR] 迷魂记/眩晕 Vertigo.1958.2160p.UHD.BluRay.x265.10bit.HDR.DTS-X.7.1-FLAME 25.29GB

[复制链接]

已抛锚 成长值: 310

0

精华

0

好友

0

听众

管理员

Rank: 9Rank: 9Rank: 9

蓝光币
7041
发表于 2020-12-22 00:12:53 | 显示全部楼层 |阅读模式


译  名 迷魂记 / Alfred Hitchcock's Vertigo / 眩晕
片  名 Vertigo
年  代 1958
产  地 美国
类  别 恋爱 / 悬疑 / 惊悚
语  言 英语
上映日期 1958-05-09(美国)
IMDb评分8.3/10 from 360405 users
IMDb链接https://www.imdb.com/title/tt0052357
豆瓣评分 8.6/10 from 82683 users
豆瓣链接 https://movie.douban.com/subject/1297294/
片  长 128 分钟
导  演 阿尔弗雷德·希区柯克 Alfred Hitchcock
编  剧 亚历克·科佩尔 Alec Coppel / 萨缪尔·A·泰勒 Samuel A. Taylor / 皮埃尔·布瓦洛 Pierre Boileau / 托马·纳西雅克 Thomas Narcejac / 马克斯韦尔·安德森 Maxwell Anderson
主  演 詹姆斯·斯图尔特 James Stewart
     金·诺瓦克 Kim Novak
     芭芭拉·贝尔·戈迪斯 Barbara Bel Geddes
     汤姆·赫尔莫 Tom Helmore
     亨瑞·琼斯 Henry Jones
     雷蒙德贝利 Raymond Bailey
     埃伦·科比 Ellen Corby
     康斯坦丁肖恩 Konstantin Shayne
     李·帕特里克 Lee Patrick
     丹尼·鲍沙其 Danny Borzage
     保罗·布亚尔 Paul Bryar
     贝丝·弗劳尔斯 Bess Flowers
     弗莱德·格兰姆 Fred Graham
     阿尔弗雷德·希区柯克 Alfred Hitchcock
     Nina Shipman
     Steve Conte
     杰弗里·塞尔 Jeffrey Sayre
     John Benson
     Buck Harrington
     James W. Horan
     Art Howard
     June Jocelyn
     Perk Lazelle
     Lyle Moraine
     Forbes Murray
     Julian Petruzzi
     Ezelle Poule
     Sara Taft
     Joe Garcio
     Molly Dodd
     Isabel Analla
     Margaret Brayton
     Boyd Cabeen
     Jean Corbett

标  签 希区柯克 | 悬疑 | 美国 | 惊悚 | 典范 | AlfredHitchcock | 1958 | 美国电影
简  介
  退役警探约翰·弗格森(詹姆斯·斯图尔特 James Stewart 饰)的同学加文·埃尔斯特(汤姆·赫尔莫 Tom Helmore 饰)是造船商。他请求约翰跟踪自己的妻子,并称妻子经常被鬼魂附身。随后,约翰依照加文的指示,在厄尼餐厅见到了一位美丽的女人(金姆·诺瓦克 Kim Novak 饰)。经过跟踪,约翰发现女人确有分歧平常的行为:开车出门,去花店买花,去墓园在卡洛塔·巴尔德斯的碑前立足,去荣勋宫博物馆注视卡洛塔画像,最落后入麦基屈克旅店并出现在二楼的一扇窗前。约翰随即进入旅店观察,发现女人挂号名为卡洛塔·巴尔德斯,但其房中无人。卡洛塔·巴尔德斯究竟是何方崇高,鬼魂真的能附身活人吗?
获奖情况
  第31届奥斯卡金像奖(1959)
  最好声响(提名) 乔治·达顿
  最好艺术指导和布景(提名) 萨姆·库默 / 弗兰克·R·麦克凯尔威 / 亨利·巴姆斯泰德 / 哈尔·佩雷拉
  1. Video
  2. ID             : 1
  3. Format           : HEVC
  4. Format/Info          : High Efficiency Video Coding
  5. Format profile         : Main [email]10@L5.1[/email]@High
  6. HDR format           : SMPTE ST 2086, HDR10 compatible
  7. Codec ID           : V_MPEGH/ISO/HEVC
  8. Duration           : 2 h 8 min
  9. Bit rate           : 24.3 Mb/s
  10. Width            : 3 840 pixels
  11. Height           : 2 076 pixels
  12. Display aspect ratio       : 1.85:1
  13. Frame rate mode        : Constant
  14. Frame rate           : 23.976 (24000/1001/45378) FPS
  15. Color space          : YUV
  16. Chroma subsampling       : 4:2:0 (Type 2)
  17. Bit depth          : 10 bits
  18. Bits/(Pixel*Frame)       : 0.127
  19. Stream size          : 21.8 GiB (87%)
  20. Writing library        : x265 3.4+26-ga82c6c7a7:[Windows][MSVC 1927][64 bit] 10bit
  21. Encoding settings        : cpuid=1111039 / frame-threads=4 / numa-pools=24 / wpp / no-pmode / no-pme / no-psnr / no-ssim / log-level=2 / input-csp=1 / input-res=3840x2076 / interlace=0 / total-frames=184800 / level-idc=51 / high-tier=1 / uhd-bd=0 / ref=4 / no-allow-non-conformance / repeat-headers / annexb / aud / hrd / info / hash=0 / no-temporal-layers / no-open-gop / min-keyint=23 / keyint=250 / gop-lookahead=0 / bframes=4 / b-adapt=2 / b-pyramid / bframe-bias=0 / rc-lookahead=25 / lookahead-slices=4 / scenecut=40 / hist-scenecut=0 / radl=0 / no-splice / no-intra-refresh / ctu=64 / min-cu-size=8 / rect / no-amp / max-tu-size=32 / tu-inter-depth=1 / tu-intra-depth=1 / limit-tu=0 / rdoq-level=2 / dynamic-rd=0.00 / no-ssim-rd / signhide / no-tskip / nr-intra=0 / nr-inter=0 / no-constrained-intra / strong-intra-smoothing / max-merge=3 / limit-refs=3 / limit-modes / me=3 / subme=3 / merange=57 / temporal-mvp / no-frame-dup / no-hme / weightp / no-weightb / no-analyze-src-pics / deblock=-3:-3 / no-sao / no-sao-non-deblock / rd=4 / selective-sao=0 / no-early-skip / rskip / no-fast-intra / no-tskip-fast / no-cu-lossless / no-b-intra / no-splitrd-skip / rdpenalty=0 / psy-rd=2.00 / psy-rdoq=1.00 / no-rd-refine / no-lossless / cbqpoffs=0 / crqpoffs=0 / rc=crf / crf=13.0 / qcomp=0.60 / qpstep=4 / stats-write=0 / stats-read=0 / vbv-maxrate=160000 / vbv-bufsize=160000 / vbv-init=0.9 / min-vbv-fullness=50.0 / max-vbv-fullness=80.0 / crf-max=0.0 / crf-min=0.0 / ipratio=1.40 / pbratio=1.30 / aq-mode=4 / aq-strength=1.00 / cutree / zone-count=0 / no-strict-cbr / qg-size=32 / no-rc-grain / qpmax=69 / qpmin=0 / no-const-vbv / sar=1 / overscan=0 / videoformat=5 / range=0 / colorprim=9 / transfer=16 / colormatrix=9 / chromaloc=1 / chromaloc-top=2 / chromaloc-bottom=2 / display-window=0 / master-display=G(13250,34500)B(7500,3000)R(34000,16000)WP(15635,16450)L(10000000,50) / cll=1000,63 / min-luma=0 / max-luma=1023 / log2-max-poc-lsb=8 / vui-timing-info / vui-hrd-info / slices=1 / no-opt-qp-pps / no-opt-ref-list-length-pps / no-multi-pass-opt-rps / scenecut-bias=0.05 / hist-threshold=0.03 / no-opt-cu-delta-qp / no-aq-motion / hdr10 / hdr10-opt / no-dhdr10-opt / no-idr-recovery-sei / analysis-reuse-level=0 / analysis-save-reuse-level=0 / analysis-load-reuse-level=0 / scale-factor=0 / refine-intra=0 / refine-inter=0 / refine-mv=1 / refine-ctu-distortion=0 / no-limit-sao / ctu-info=0 / no-lowpass-dct / refine-analysis-type=0 / copy-pic=1 / max-ausize-factor=1.0 / no-dynamic-refine / no-single-sei / no-hevc-aq / no-svt / no-field / qp-adaptation-range=1.00 / no-scenecut-aware-qpconformance-window-offsets / right=0 / bottom=0 / decoder-max-rate=0 / no-vbv-live-multi-pass
  22. Default            : Yes
  23. Forced           : No
  24. Color range          : Limited
  25. Color primaries        : BT.2020
  26. Transfer characteristics     : PQ
  27. Matrix coefficients        : BT.2020 non-constant
  28. Mastering display color primaries  : Display P3
  29. Mastering display luminance    : min: 0.0050 cd/m2, max: 1000 cd/m2
  30. Maximum Content Light Level    : 1000 cd/m2
  31. Maximum Frame-Average Light Level  : 63 cd/m2
  32. Audio #1
  33. ID             : 2
  34. Format           : DTS XLL X
  35. Format/Info          : Digital Theater Systems
  36. Commercial name        : DTS-HD Master Audio
  37. Codec ID           : A_DTS
  38. Duration           : 2 h 8 min
  39. Bit rate mode          : Variable
  40. Bit rate           : 3 188 kb/s
  41. Channel(s)           : 8 channels
  42. Channel(s)_Original        : Object Based
  43. ChannelLayout_Original       : Object Based
  44. Sampling rate          : 48.0 kHz
  45. Frame rate           : 93.750 FPS (512 SPF)
  46. Bit depth          : 24 bits
  47. Stream size          : 2.86 GiB (11%)
  48. Title            : English DTS:X 3188 kbps
  49. Language           : English
  50. Default            : Yes
  51. Forced           : No
  52. Audio #2
  53. ID             : 3
  54. Format           : AAC LC
  55. Format/Info          : Advanced Audio Codec Low Complexity
  56. Codec ID           : A_AAC-2
  57. Duration           : 2 h 8 min
  58. Bit rate           : 86.0 kb/s
  59. Channel(s)           : 2 channels
  60. Channel layout         : L R
  61. Sampling rate          : 48.0 kHz
  62. Frame rate           : 46.875 FPS (1024 SPF)
  63. Compression mode         : Lossy
  64. Delay relative to video      : 9 ms
  65. Stream size          : 79.0 MiB (0%)
  66. Title            : English Commentary AAC-LC 86 kbps
  67. Language           : English
  68. Default            : No
  69. Forced           : No
  70. Text #1
  71. ID             : 4
  72. Format           : PGS
  73. Codec ID           : S_HDMV/PGS
  74. Codec ID/Info          : Picture based subtitle format used on BDs/HD-DVDs
  75. Duration           : 2 h 4 min
  76. Bit rate           : 33.8 kb/s
  77. Count of elements        : 2687
  78. Stream size          : 30.0 MiB (0%)
  79. Title            : English SDH
  80. Language           : English
  81. Default            : No
  82. Forced           : No
  83. Text #2
  84. ID             : 5
  85. Format           : PGS
  86. Codec ID           : S_HDMV/PGS
  87. Codec ID/Info          : Picture based subtitle format used on BDs/HD-DVDs
  88. Duration           : 2 h 7 min
  89. Bit rate           : 53.3 kb/s
  90. Count of elements        : 3439
  91. Stream size          : 48.7 MiB (0%)
  92. Title            : English Commentary
  93. Language           : English
  94. Default            : No
  95. Forced           : No
  96. Text #3
  97. ID             : 6
  98. Format           : PGS
  99. Codec ID           : S_HDMV/PGS
  100. Codec ID/Info          : Picture based subtitle format used on BDs/HD-DVDs
  101. Duration           : 2 h 3 min
  102. Bit rate           : 26.7 kb/s
  103. Count of elements        : 2261
  104. Stream size          : 23.7 MiB (0%)
  105. Title            : French
  106. Language           : French
  107. Default            : No
  108. Forced           : No
  109. Text #4
  110. ID             : 7
  111. Format           : PGS
  112. Codec ID           : S_HDMV/PGS
  113. Codec ID/Info          : Picture based subtitle format used on BDs/HD-DVDs
  114. Duration           : 2 h 3 min
  115. Bit rate           : 28.9 kb/s
  116. Count of elements        : 2268
  117. Stream size          : 25.6 MiB (0%)
  118. Title            : Dutch
  119. Language           : Dutch
  120. Default            : No
  121. Forced           : No
  122. Text #5
  123. ID             : 8
  124. Format           : PGS
  125. Codec ID           : S_HDMV/PGS
  126. Codec ID/Info          : Picture based subtitle format used on BDs/HD-DVDs
  127. Duration           : 2 h 3 min
  128. Bit rate           : 29.6 kb/s
  129. Count of elements        : 2292
  130. Stream size          : 26.3 MiB (0%)
  131. Title            : Danish
  132. Language           : Danish
  133. Default            : No
  134. Forced           : No
  135. Text #6
  136. ID             : 9
  137. Format           : PGS
  138. Codec ID           : S_HDMV/PGS
  139. Codec ID/Info          : Picture based subtitle format used on BDs/HD-DVDs
  140. Duration           : 2 h 3 min
  141. Bit rate           : 26.6 kb/s
  142. Count of elements        : 2277
  143. Stream size          : 23.6 MiB (0%)
  144. Title            : Finnish
  145. Language           : Finnish
  146. Default            : No
  147. Forced           : No
  148. Text #7
  149. ID             : 10
  150. Format           : PGS
  151. Codec ID           : S_HDMV/PGS
  152. Codec ID/Info          : Picture based subtitle format used on BDs/HD-DVDs
  153. Duration           : 2 h 3 min
  154. Bit rate           : 28.5 kb/s
  155. Count of elements        : 2274
  156. Stream size          : 25.3 MiB (0%)
  157. Title            : Norwegian
  158. Language           : Norwegian
  159. Default            : No
  160. Forced           : No
  161. Text #8
  162. ID             : 11
  163. Format           : PGS
  164. Codec ID           : S_HDMV/PGS
  165. Codec ID/Info          : Picture based subtitle format used on BDs/HD-DVDs
  166. Duration           : 2 h 3 min
  167. Bit rate           : 27.0 kb/s
  168. Count of elements        : 2250
  169. Stream size          : 23.9 MiB (0%)
  170. Title            : Swedish
  171. Language           : Swedish
  172. Default            : No
  173. Forced           : No
  174. Text #9
  175. ID             : 12
  176. Format           : PGS
  177. Codec ID           : S_HDMV/PGS
  178. Codec ID/Info          : Picture based subtitle format used on BDs/HD-DVDs
  179. Duration           : 2 h 3 min
  180. Bit rate           : 31.6 kb/s
  181. Count of elements        : 2590
  182. Stream size          : 28.0 MiB (0%)
  183. Title            : Russian
  184. Language           : Russian
  185. Default            : No
  186. Forced           : No
  187. Text #10
  188. ID             : 13
  189. Format           : PGS
  190. Codec ID           : S_HDMV/PGS
  191. Codec ID/Info          : Picture based subtitle format used on BDs/HD-DVDs
  192. Duration           : 2 h 3 min
  193. Bit rate           : 25.9 kb/s
  194. Count of elements        : 2270
  195. Stream size          : 23.0 MiB (0%)
  196. Title            : Czech
  197. Language           : Czech
  198. Default            : No
  199. Forced           : No
  200. Text #11
  201. ID             : 14
  202. Format           : PGS
  203. Codec ID           : S_HDMV/PGS
  204. Codec ID/Info          : Picture based subtitle format used on BDs/HD-DVDs
  205. Duration           : 2 h 3 min
  206. Bit rate           : 28.3 kb/s
  207. Count of elements        : 2280
  208. Stream size          : 25.1 MiB (0%)
  209. Title            : Polish
  210. Language           : Polish
  211. Default            : No
  212. Forced           : No
  213. Text #12
  214. ID             : 15
  215. Format           : PGS
  216. Codec ID           : S_HDMV/PGS
  217. Codec ID/Info          : Picture based subtitle format used on BDs/HD-DVDs
  218. Duration           : 2 h 7 min
  219. Bit rate           : 30.3 kb/s
  220. Count of elements        : 2676
  221. Stream size          : 27.5 MiB (0%)
  222. Title            : Hindi
  223. Language           : Hindi
  224. Default            : No
  225. Forced           : No
  226. Text #13
  227. ID             : 16
  228. Format           : PGS
  229. Codec ID           : S_HDMV/PGS
  230. Codec ID/Info          : Picture based subtitle format used on BDs/HD-DVDs
  231. Duration           : 2 h 8 min
  232. Bit rate           : 48.8 kb/s
  233. Count of elements        : 3447
  234. Stream size          : 44.8 MiB (0%)
  235. Title            : French Commentary
  236. Language           : French
  237. Default            : No
  238. Forced           : No
  239. Menu
  240. 00:00:00.000         : :
  241. 00:03:24.996         : :
  242. 00:05:00.258         : :
  243. 00:11:20.304         : :
  244. 00:16:53.303         : :
  245. 00:22:13.790         : :
  246. 00:25:42.499         : :
  247. 00:27:45.789         : :
  248. 00:33:52.822         : :
  249. 00:38:19.588         : :
  250. 00:40:18.374         : :
  251. 00:42:56.574         : :
  252. 00:43:56.008         : :
  253. 00:53:07.976         : :
  254. 00:58:23.625         : :
  255. 01:02:05.179         : :
  256. 01:05:31.302         : :
  257. 01:08:35.528         : :
  258. 01:12:30.637         : :
  259. 01:16:00.222         : :
  260. 01:18:17.234         : :
  261. 01:23:47.814         : :
  262. 01:25:26.412         : :
  263. 01:29:02.628         : :
  264. 01:31:39.160         : :
  265. 01:38:07.172         : :
  266. 01:42:22.761         : :
  267. 01:45:28.739         : :
  268. 01:49:15.340         : :
  269. 01:52:06.177         : :
  270. 01:57:30.501         : :
  271. 01:59:29.370         : :
  272. 02:02:06.068         : :
  273. 02:05:58.092         : :
复制代码









Vertigo.1958.2160p.UHD.BluRay.x265.10bit.HDR.DTS-X.7.1-FLAME.torrent (63.88 KB, 下载次数: 7)


回复

使用道具 举报

您需要登录后才可以回帖 登录 | 立即注册

本版积分规则

QQ|Archiver|手机版|小黑屋|蓝光电影网

GMT+8, 2024-6-26 06:36 , Processed in 0.072535 second(s), 24 queries .

Powered by Discuz! X3.4

Copyright © 2001-2020, Tencent Cloud.

快速回复 返回顶部 返回列表