找回密码
 立即注册

QQ登录

只需一步,快速开始

查看: 2548|回复: 0

[10bit.HDR] 霍比特人2:史矛革之战/哈比人:荒谷恶龙 The.Hobbit.Desolation.of.Smaug.2013.EXTENDED.2160p.UHD.BluRay.x265.10bit.HDR.TrueHD.7.1.Atmos-SMAHAWUG 40.68GB

[复制链接]

已抛锚 成长值: 310

0

精华

0

好友

0

听众

管理员

Rank: 9Rank: 9Rank: 9

蓝光币
7041
发表于 2020-12-8 22:23:38 | 显示全部楼层 |阅读模式


译  名 霍比特人2:史矛革之战 / The Hobbit: Part 2 / 哈比人:荒谷恶龙(台) / 哈比人:荒谷魔龙(港) / 指环王前传:霍比特人(中) / 霍比特人2:史矛革荒凉 / 霍比特人2:斯毛戈荒凉
片  名 The Hobbit: The Desolation of Smaug
年  代 2013
产  地 美国 / 新西兰
类  别 行动 / 奇异 / 冒险
语  言 英语
上映日期 2013-12-13(美国) / 2014-02-21(中国大陆)
IMDb评分7.8/10 from 592377 users
IMDb链接https://www.imdb.com/title/tt1170358
豆瓣评分 8.4/10 from 296064 users
豆瓣链接 https://movie.douban.com/subject/11606328/
片  长 161分钟
导  演 彼得·杰克逊 Peter Jackson
编  剧 J·R·R·托尔金 J.R.R. Tolkien / 弗兰·威尔士 Fran Walsh / 菲利帕·鲍恩斯 Philippa Boyens / 彼得·杰克逊 Peter Jackson / 吉尔莫·德尔·托罗 Guillermo del Toro
主  演 伊恩·麦克莱恩 Ian McKellen
     马丁·弗瑞曼 Martin Freeman
     理查德·阿米蒂奇 Richard Armitage
     本尼迪克特·康伯巴奇 Benedict Cumberbatch
     奥兰多·布鲁姆 Orlando Bloom
     伊万杰琳·莉莉 Evangeline Lilly
     李·佩斯 Lee Pace
     卢克·伊万斯 Luke Evans
     斯蒂芬·弗雷 Stephen Fry
     肯·斯托特 Ken Stott
     詹姆斯·内斯比特 James Nesbitt
     约翰·贝尔 John Bell
     马努·贝内特 Manu Bennett
     杰德·布罗菲 Jed Brophy
     亚当·布朗 Adam Brown
     约翰·凯伦 John Callen
     瑞安·盖奇 Ryan Gage
     马克·哈德洛 Mark Hadlow
     彼得·汉布尔顿 Peter Hambleton
     斯蒂芬·亨特 Stephen Hunter
     威廉·基尔舍 William Kircher
     西尔维斯特·迈可伊 Sylvester McCoy
     格拉汉姆·麦克泰维什 Graham McTavish
     迪恩·奥戈曼 Dean O'Gorman
     米卡埃尔·佩斯布兰特 Mikael Persbrandt
     艾丹·特纳 Aidan Turner
     劳伦斯·马克奥雷 Lawrence Makoare
     克里格·霍尔 Craig Hall
     达拉斯·巴内特 Dallas Barnett
     格雷格·埃利斯 Greg Ellis
     史蒂芬·寇贝尔 Stephen Colbert
     彼得·杰克逊 Peter Jackson
     姜广涛 Guangtao Jiang
     泰瑞·诺塔里 Terry Notary
     佩吉·内斯比特 Peggy Nesbitt
     玛丽·内斯比特 Mary Nesbitt
     伊利亚·伍德 Elijah Wood
     雨果·维文 Hugo Weaving
     凯特·布兰切特 Cate Blanchett
     Robin Kerr
     克里斯托弗·李 Christopher Lee

标  签 魔幻 | 魔戒 | 史诗 | 美国 | 奇异 | 美国电影 | 2013 | 冒险
简  介
  间隔孤山越来越近,矮人远征军的门路却变得异常艰险。他们躲过了苍白半兽人的不懈追杀,在阴暗密林前和甘道夫(伊恩·麦凯伦 Ian McKellen 饰)兵分两路,后者前往多尔哥多探访索伦的意向,而霍比特人比尔博·巴金斯(马丁·弗里曼 Martin John C. Freeman 饰)和矮人们先是遭到庞大蜘蛛的攻击,随后又被精灵王子莱戈拉斯(奥兰多·布鲁姆 Orlando Bloom 饰)及其木精灵同伴捕捉。比尔博情急智生,操纵魔戒救出伙伴,继而激发了木精灵、半兽人和矮人远征军之间出色纷呈的三方会战。借助巴德(卢克·伊万斯 Luke Evans 饰)的帮助,疲惫的矮人们临时落脚长湖镇。近在天涯的孤山城堡,沉睡在玉帛中的巨龙行将醒来……本片按照J.R.R·托尔金的同名原著改编。
获奖情况
  第86届奥斯卡金像奖(2014)
  最好视觉结果(提名) 大卫·克莱顿 / 埃里克·赛恩登 / 乔·莱特瑞 / 埃里克·雷诺兹
  最好混音(提名) 迈克·亨吉斯 / 托尼·约翰逊 / 克里斯托弗·博伊斯 / 迈克尔·斯曼外科
  最好音效剪辑(提名) 布伦特·布鲁格
  第42届动画安妮奖(2015)
  最好真人电影动画结果(提名) 阿雷托·埃切瓦里亚
  最好真人电影动画脚色(提名) 大卫·克莱顿 / 埃里克·雷诺兹
  第23届MTV电影奖(2014)
  MTV电影奖 年度电影(提名)
  MTV电影奖 最好打架(提名)
  MTV电影奖 最好银幕形象改变(提名) 奥兰多·布鲁姆
  MTV电影奖 最好豪杰形象(提名) 马丁·弗瑞曼
  第16届美国打扮设想工会奖(2014)
  科幻/奇异题材电影最好打扮设想(提名) 鲍勃·巴克 / 安·马斯克里 / 理查德·泰勒
  第61届美国音效剪辑协会奖(2014)
  金卷轴奖 最好电影音效剪辑(提名) 大卫·法默 / 克里斯·瓦尔德 / 海顿·科娄 / 克雷格·汤姆林森 / 贾斯汀·维布斯特 / 戴夫·怀特海德 / 梅兰妮·格拉汉姆 / 约翰·辛普森
  金卷轴奖 最好配乐剪辑(提名) 乔纳森·舒尔茨 / 史蒂夫·加拉格尔 / 尼杰尔·斯科特 / 马克·威尔舍尔 / 基尔斯蒂·瓦利
  第12届美国视觉结果协会奖(2014)
  最好殊效电影视觉结果(提名) 大卫·克莱顿 / 埃里克·赛恩登 / 乔·莱特瑞
  最好真人电影CG动画脚色 大卫·克莱顿 / 埃里克·雷诺兹
  最好电影虚拟摄影(提名) 克里斯蒂安·瑞沃斯 / 塞尔温·卡贝扎斯
  最好真人电影模拟动画结果(提名) 阿雷托·埃切瓦里亚
  最好电影视觉结果分解(提名) 朱塞佩·泰格利亚维尼 / 查尔斯·泰特 / 罗宾·霍兰德尔
  第19届美国批评家挑选电影奖(2014)
  行动片最好女配角(提名) 伊万杰琳·莉莉
  最好美术指导(提名) 丹·汉纳 / 拉·文森特
  最好打扮设想(提名) 鲍勃·巴克 / Lesley Burkes-Harding / 安·马斯克里 / 理查德·泰勒
  最好发型化装(提名)
  最好视觉结果(提名)
  第18届金卫星奖(2014)
  电影部分 最好原创歌曲(提名)
  第13届凤凰城影评人协会奖(2013)
  最好原创配乐(提名) 霍华德·肖
  第16届美国青少年挑选奖(2014)
  最好动画配音(提名) 本尼迪克特·康伯巴奇
  第1届豆瓣电影年度榜单(2014)
  2月最受关注电影(提名)
  1. Video
  2. ID             : 1
  3. Format           : HEVC
  4. Format/Info          : High Efficiency Video Coding
  5. Format profile         : Main [email]10@L5.1[/email]@High
  6. HDR format           : SMPTE ST 2086, HDR10 compatible
  7. Codec ID           : V_MPEGH/ISO/HEVC
  8. Duration           : 3 h 6 min
  9. Bit rate           : 27.4 Mb/s
  10. Width            : 3 840 pixels
  11. Height           : 1 610 pixels
  12. Display aspect ratio       : 2.40:1
  13. Frame rate mode        : Constant
  14. Frame rate           : 23.976 (24000/1001/45378) FPS
  15. Color space          : YUV
  16. Chroma subsampling       : 4:2:0 (Type 2)
  17. Bit depth          : 10 bits
  18. Bits/(Pixel*Frame)       : 0.185
  19. Stream size          : 35.6 GiB (88%)
  20. Writing library        : x265 3.4+12-g9103319fc:[Windows][MSVC 1900][64 bit] 10bit
  21. Encoding settings        : cpuid=1176575 / frame-threads=5 / numa-pools=36 / wpp / no-pmode / no-pme / no-psnr / no-ssim / log-level=2 / input-csp=1 / input-res=3840x1610 / interlace=0 / total-frames=268400 / level-idc=51 / high-tier=1 / uhd-bd=0 / ref=4 / no-allow-non-conformance / repeat-headers / annexb / aud / hrd / info / hash=0 / no-temporal-layers / no-open-gop / min-keyint=23 / keyint=250 / gop-lookahead=0 / bframes=4 / b-adapt=2 / b-pyramid / bframe-bias=0 / rc-lookahead=25 / lookahead-slices=4 / scenecut=40 / hist-scenecut=0 / radl=0 / no-splice / no-intra-refresh / ctu=64 / min-cu-size=8 / rect / no-amp / max-tu-size=32 / tu-inter-depth=1 / tu-intra-depth=1 / limit-tu=0 / rdoq-level=2 / dynamic-rd=0.00 / no-ssim-rd / signhide / no-tskip / nr-intra=0 / nr-inter=0 / no-constrained-intra / no-strong-intra-smoothing / max-merge=3 / limit-refs=3 / limit-modes / me=3 / subme=3 / merange=57 / temporal-mvp / no-frame-dup / no-hme / weightp / no-weightb / no-analyze-src-pics / deblock=-3:-3 / no-sao / no-sao-non-deblock / rd=4 / selective-sao=0 / no-early-skip / rskip / no-fast-intra / no-tskip-fast / no-cu-lossless / no-b-intra / no-splitrd-skip / rdpenalty=0 / psy-rd=2.00 / psy-rdoq=1.00 / no-rd-refine / no-lossless / cbqpoffs=0 / crqpoffs=0 / rc=crf / crf=12.5 / qcomp=0.60 / qpstep=4 / stats-write=0 / stats-read=0 / vbv-maxrate=160000 / vbv-bufsize=160000 / vbv-init=0.9 / crf-max=0.0 / crf-min=0.0 / ipratio=1.40 / pbratio=1.30 / aq-mode=2 / aq-strength=0.80 / cutree / zone-count=0 / no-strict-cbr / qg-size=32 / no-rc-grain / qpmax=69 / qpmin=0 / no-const-vbv / sar=1 / overscan=0 / videoformat=5 / range=0 / colorprim=9 / transfer=16 / colormatrix=9 / chromaloc=1 / chromaloc-top=2 / chromaloc-bottom=2 / display-window=0 / master-display=G(13250,34500)B(7500,3000)R(34000,16000)WP(15635,16450)L(40000000,50) / cll=1122,216 / min-luma=0 / max-luma=1023 / log2-max-poc-lsb=8 / vui-timing-info / vui-hrd-info / slices=1 / no-opt-qp-pps / no-opt-ref-list-length-pps / no-multi-pass-opt-rps / scenecut-bias=0.05 / hist-threshold=0.01 / no-opt-cu-delta-qp / no-aq-motion / hdr10 / hdr10-opt / no-dhdr10-opt / no-idr-recovery-sei / analysis-reuse-level=0 / analysis-save-reuse-level=0 / analysis-load-reuse-level=0 / scale-factor=0 / refine-intra=0 / refine-inter=0 / refine-mv=1 / refine-ctu-distortion=0 / no-limit-sao / ctu-info=0 / no-lowpass-dct / refine-analysis-type=0 / copy-pic=1 / max-ausize-factor=1.0 / no-dynamic-refine / no-single-sei / no-hevc-aq / no-svt / no-field / qp-adaptation-range=1.00 / no-scenecut-aware-qpconformance-window-offsets / right=0 / bottom=0 / decoder-max-rate=0
  22. Default            : Yes
  23. Forced           : No
  24. Color range          : Limited
  25. Color primaries        : BT.2020
  26. Transfer characteristics     : PQ
  27. Matrix coefficients        : BT.2020 non-constant
  28. Mastering display color primaries  : Display P3
  29. Mastering display luminance    : min: 0.0050 cd/m2, max: 4000 cd/m2
  30. Maximum Content Light Level    : 1122 cd/m2
  31. Maximum Frame-Average Light Level  : 216 cd/m2

  32. Audio #1
  33. ID             : 2
  34. Format           : MLP FBA 16-ch
  35. Format/Info          : Meridian Lossless Packing FBA with 16-channel presentation
  36. Commercial name        : Dolby TrueHD with Dolby Atmos
  37. Codec ID           : A_TRUEHD
  38. Duration           : 3 h 6 min
  39. Bit rate mode          : Variable
  40. Bit rate           : 3 200 kb/s
  41. Maximum bit rate         : 5 031 kb/s
  42. Channel(s)           : 8 channels
  43. Channel layout         : L R C LFE Ls Rs Lb Rb
  44. Sampling rate          : 48.0 kHz
  45. Frame rate           : 1 200.000 FPS (40 SPF)
  46. Compression mode         : Lossless
  47. Stream size          : 4.17 GiB (10%)
  48. Title            : Atmos 7.1
  49. Language           : English
  50. Default            : Yes
  51. Forced           : No
  52. Number of dynamic objects      : 11
  53. Bed channel count        : 1 channel
  54. Bed channel configuration      : LFE

  55. Audio #2
  56. ID             : 3
  57. Format           : AC-3
  58. Format/Info          : Audio Coding 3
  59. Commercial name        : Dolby Digital
  60. Codec ID           : A_AC3
  61. Duration           : 3 h 6 min
  62. Bit rate mode          : Constant
  63. Bit rate           : 448 kb/s
  64. Channel(s)           : 6 channels
  65. Channel layout         : L R C LFE Ls Rs
  66. Sampling rate          : 48.0 kHz
  67. Frame rate           : 31.250 FPS (1536 SPF)
  68. Compression mode         : Lossy
  69. Stream size          : 598 MiB (1%)
  70. Title            : AC-3 5.1
  71. Language           : English
  72. Service kind         : Complete Main
  73. Default            : No
  74. Forced           : No

  75. Text #1
  76. ID             : 4
  77. Format           : PGS
  78. Muxing mode          : zlib
  79. Codec ID           : S_HDMV/PGS
  80. Codec ID/Info          : Picture based subtitle format used on BDs/HD-DVDs
  81. Duration           : 2 h 54 min
  82. Bit rate           : 25.2 kb/s
  83. Count of elements        : 4558
  84. Stream size          : 31.6 MiB (0%)
  85. Title            : SDH
  86. Language           : English
  87. Default            : No
  88. Forced           : No

  89. Text #2
  90. ID             : 5
  91. Format           : PGS
  92. Muxing mode          : zlib
  93. Codec ID           : S_HDMV/PGS
  94. Codec ID/Info          : Picture based subtitle format used on BDs/HD-DVDs
  95. Duration           : 3 h 5 min
  96. Bit rate           : 21.3 kb/s
  97. Count of elements        : 4178
  98. Stream size          : 28.3 MiB (0%)
  99. Title            : Spanish
  100. Language           : Spanish
  101. Default            : No
  102. Forced           : No

  103. Text #3
  104. ID             : 6
  105. Format           : PGS
  106. Muxing mode          : zlib
  107. Codec ID           : S_HDMV/PGS
  108. Codec ID/Info          : Picture based subtitle format used on BDs/HD-DVDs
  109. Duration           : 3 h 5 min
  110. Bit rate           : 25.4 kb/s
  111. Count of elements        : 4706
  112. Stream size          : 33.8 MiB (0%)
  113. Title            : Italian
  114. Language           : Italian
  115. Default            : No
  116. Forced           : No

  117. Text #4
  118. ID             : 7
  119. Format           : PGS
  120. Muxing mode          : zlib
  121. Codec ID           : S_HDMV/PGS
  122. Codec ID/Info          : Picture based subtitle format used on BDs/HD-DVDs
  123. Duration           : 3 h 5 min
  124. Bit rate           : 20.5 kb/s
  125. Count of elements        : 4142
  126. Stream size          : 27.2 MiB (0%)
  127. Title            : Swedish
  128. Language           : Swedish
  129. Default            : No
  130. Forced           : No

  131. Text #5
  132. ID             : 8
  133. Format           : PGS
  134. Muxing mode          : zlib
  135. Codec ID           : S_HDMV/PGS
  136. Codec ID/Info          : Picture based subtitle format used on BDs/HD-DVDs
  137. Duration           : 3 h 5 min
  138. Bit rate           : 20.2 kb/s
  139. Count of elements        : 4208
  140. Stream size          : 26.8 MiB (0%)
  141. Title            : Norwegian
  142. Language           : Norwegian
  143. Default            : No
  144. Forced           : No

  145. Text #6
  146. ID             : 9
  147. Format           : PGS
  148. Muxing mode          : zlib
  149. Codec ID           : S_HDMV/PGS
  150. Codec ID/Info          : Picture based subtitle format used on BDs/HD-DVDs
  151. Duration           : 3 h 5 min
  152. Bit rate           : 19.4 kb/s
  153. Count of elements        : 4246
  154. Stream size          : 25.8 MiB (0%)
  155. Title            : Danish
  156. Language           : Danish
  157. Default            : No
  158. Forced           : No

  159. Text #7
  160. ID             : 10
  161. Format           : PGS
  162. Muxing mode          : zlib
  163. Codec ID           : S_HDMV/PGS
  164. Codec ID/Info          : Picture based subtitle format used on BDs/HD-DVDs
  165. Duration           : 3 h 5 min
  166. Bit rate           : 19.7 kb/s
  167. Count of elements        : 4070
  168. Stream size          : 26.2 MiB (0%)
  169. Title            : Finnish
  170. Language           : Finnish
  171. Default            : No
  172. Forced           : No

  173. Text #8
  174. ID             : 11
  175. Format           : PGS
  176. Muxing mode          : zlib
  177. Codec ID           : S_HDMV/PGS
  178. Codec ID/Info          : Picture based subtitle format used on BDs/HD-DVDs
  179. Duration           : 3 h 5 min
  180. Bit rate           : 18.4 kb/s
  181. Count of elements        : 4240
  182. Stream size          : 24.4 MiB (0%)
  183. Title            : Czech
  184. Language           : Czech
  185. Default            : No
  186. Forced           : No

  187. Text #9
  188. ID             : 12
  189. Format           : PGS
  190. Muxing mode          : zlib
  191. Codec ID           : S_HDMV/PGS
  192. Codec ID/Info          : Picture based subtitle format used on BDs/HD-DVDs
  193. Duration           : 3 h 5 min
  194. Bit rate           : 19.1 kb/s
  195. Count of elements        : 4210
  196. Stream size          : 25.4 MiB (0%)
  197. Title            : Polish
  198. Language           : Polish
  199. Default            : No
  200. Forced           : No

  201. Text #10
  202. ID             : 13
  203. Format           : PGS
  204. Muxing mode          : zlib
  205. Codec ID           : S_HDMV/PGS
  206. Codec ID/Info          : Picture based subtitle format used on BDs/HD-DVDs
  207. Duration           : 3 h 5 min
  208. Bit rate           : 19.7 kb/s
  209. Count of elements        : 4224
  210. Stream size          : 26.1 MiB (0%)
  211. Title            : Chinese
  212. Language           : Chinese
  213. Default            : No
  214. Forced           : No

  215. Text #11
  216. ID             : 14
  217. Format           : PGS
  218. Muxing mode          : zlib
  219. Codec ID           : S_HDMV/PGS
  220. Codec ID/Info          : Picture based subtitle format used on BDs/HD-DVDs
  221. Duration           : 3 h 5 min
  222. Bit rate           : 16.8 kb/s
  223. Count of elements        : 4068
  224. Stream size          : 22.2 MiB (0%)
  225. Title            : Korean
  226. Language           : Korean
  227. Default            : No
  228. Forced           : No

  229. Text #12
  230. ID             : 15
  231. Format           : PGS
  232. Muxing mode          : zlib
  233. Codec ID           : S_HDMV/PGS
  234. Codec ID/Info          : Picture based subtitle format used on BDs/HD-DVDs
  235. Duration           : 2 h 55 min
  236. Bit rate           : 21.1 kb/s
  237. Count of elements        : 4244
  238. Stream size          : 26.4 MiB (0%)
  239. Title            : Thai
  240. Language           : Thai
  241. Default            : No
  242. Forced           : No

  243. Menu
  244. 00:00:00.000         : en:Chapter 01
  245. 00:07:33.036         : en:Chapter 02
  246. 00:11:59.928         : en:Chapter 03
  247. 00:12:59.070         : en:Chapter 04
  248. 00:15:54.996         : en:Chapter 05
  249. 00:20:56.547         : en:Chapter 06
  250. 00:23:15.060         : en:Chapter 07
  251. 00:25:52.301         : en:Chapter 08
  252. 00:29:58.880         : en:Chapter 09
  253. 00:38:13.666         : en:Chapter 10
  254. 00:46:43.467         : en:Chapter 11
  255. 00:49:45.941         : en:Chapter 12
  256. 00:53:19.154         : en:Chapter 13
  257. 00:55:09.848         : en:Chapter 14
  258. 00:58:07.484         : en:Chapter 15
  259. 01:08:41.951         : en:Chapter 16
  260. 01:12:21.963         : en:Chapter 17
  261. 01:15:45.332         : en:Chapter 18
  262. 01:19:09.787         : en:Chapter 19
  263. 01:22:46.461         : en:Chapter 20
  264. 01:25:09.313         : en:Chapter 21
  265. 01:28:07.365         : en:Chapter 22
  266. 01:31:15.178         : en:Chapter 23
  267. 01:36:02.382         : en:Chapter 24
  268. 01:37:35.516         : en:Chapter 25
  269. 01:40:35.029         : en:Chapter 26
  270. 01:45:16.143         : en:Chapter 27
  271. 01:48:44.101         : en:Chapter 28
  272. 01:50:31.375         : en:Chapter 29
  273. 01:52:36.166         : en:Chapter 30
  274. 01:53:08.073         : en:Chapter 31
  275. 01:59:15.982         : en:Chapter 32
  276. 02:07:11.457         : en:Chapter 33
  277. 02:07:38.734         : en:Chapter 34
  278. 02:09:22.296         : en:Chapter 35
  279. 02:12:48.210         : en:Chapter 36
  280. 02:22:00.470         : en:Chapter 37
  281. 02:22:43.054         : en:Chapter 38
  282. 02:23:17.547         : en:Chapter 39
  283. 02:24:56.021         : en:Chapter 40
  284. 02:26:44.713         : en:Chapter 41
  285. 02:29:18.449         : en:Chapter 42
  286. 02:33:12.600         : en:Chapter 43
  287. 02:34:57.246         : en:Chapter 44
  288. 02:36:12.780         : en:Chapter 45
  289. 02:37:45.581         : en:Chapter 46
  290. 02:39:08.456         : en:Chapter 47
  291. 02:41:39.565         : en:Chapter 48
  292. 02:44:05.627         : en:Chapter 49
  293. 02:51:16.308         : en:Chapter 50
  294. 02:56:05.180         : en:Chapter 51
复制代码











  

The.Hobbit.Desolation.of.Smaug.2013.EXTENDED.2160p.UHD.BluRay.x265.10bit.HDR.Tru.torrent (102.5 KB, 下载次数: 85)

回复

使用道具 举报

您需要登录后才可以回帖 登录 | 立即注册

本版积分规则

QQ|Archiver|手机版|小黑屋|蓝光电影网

GMT+8, 2024-6-26 05:32 , Processed in 0.073580 second(s), 24 queries .

Powered by Discuz! X3.4

Copyright © 2001-2020, Tencent Cloud.

快速回复 返回顶部 返回列表