找回密码
 立即注册

QQ登录

只需一步,快速开始

查看: 2865|回复: 0

[10bit.HDR] 霍比特人1:意外之旅/哈比人:不思议之旅 The.Hobbit.An.Unexpected.Journey.2012.EXTENDED.2160p.UHD.BluRay.x265.10bit.HDR.TrueHD.7.1.Atmos-SMAHAWUG 44.24GB

[复制链接]

已抛锚 成长值: 310

0

精华

0

好友

0

听众

管理员

Rank: 9Rank: 9Rank: 9

蓝光币
7041
发表于 2020-12-8 22:21:50 | 显示全部楼层 |阅读模式


译  名 霍比特人1:意外之旅 / The Hobbit: Part 1 / 哈比人:不思议之旅(港) / 哈比人:意外旅程(台) / 指环王前传:霍比特人(上)
片  名 The Hobbit: An Unexpected Journey
年  代 2012
产  地 美国 / 新西兰
类  别 行动 / 奇异 / 冒险
语  言 英语
上映日期 2012-11-28(新西兰首映) / 2012-12-14(美国) / 2013-02-22(中国大陆)
IMDb评分7.8/10 from 743551 users
IMDb链接https://www.imdb.com/title/tt0903624
豆瓣评分 8.3/10 from 323839 users
豆瓣链接 https://movie.douban.com/subject/1966182/
片  长 169分钟
导  演 彼得·杰克逊 Peter Jackson
编  剧 弗兰·威尔士 Fran Walsh / 菲利帕·鲍恩斯 Philippa Boyens / 彼得·杰克逊 Peter Jackson / 吉尔莫·德尔·托罗 Guillermo del Toro / 托尔金 J.R.R. Tolkien
主  演 伊恩·麦克莱恩 Ian McKellen
     马丁·弗瑞曼 Martin Freeman
     理查德·阿米蒂奇 Richard Armitage
     肯·斯托特 Ken Stott
     格拉汉姆·麦克泰维什 Graham McTavish
     詹姆斯·内斯比特 James Nesbitt
     迪恩·奥戈曼 Dean O'Gorman
     艾丹·特纳 Aidan Turner
     雨果·维文 Hugo Weaving
     凯特·布兰切特 Cate Blanchett
     安迪·瑟金斯 Andy Serkis
     西尔维斯特·迈可伊 Sylvester McCoy
     克里斯托弗·李 Christopher Lee
     伊利亚·伍德 Elijah Wood
     伊安·霍姆 Ian Holm
     李·佩斯 Lee Pace

标  签 魔幻 | 魔戒 | 美国 | 奇异 | 史诗 | 冒险 | 指环王 | 典范
简  介
  中土最初一座矮人王国埃尔波尔,巍峨绚丽,庄重宏伟。老国王索尔积聚大量财富,却引来恶龙史茅革的觊觎和苛虐,终极致使这座城池沦陷。很多年后,灰袍巫师甘道夫(伊恩·麦凯伦 Ian McKellen 饰)找到弗罗多的舅舅——霍比特人比尔博·巴金斯(马丁·弗里曼 Martin John C. Freeman 饰),约请他加入由13名矮人组成的远征队伍。本来史茅革已多年不见声息,背负家国冤仇的矮人王子索林(理查德·阿米蒂奇 Richard Armitage 饰)希望借此机遇收复故乡。经过一番斟酌,巴金斯决议加入。令他想不到的是,远征旅途多难多难,与索林结下深仇大恨的苍白半兽人及其爪牙阴魂不散,更有食人鬼和石人制造的无数艰险。而在旅途中,巴金斯也意外获得了往后影响全部中土的重要宝贝……
  本片按照J.R.R·托尔金的同名原著改编。
获奖情况
  第85届奥斯卡金像奖(2013)
  最好视觉结果(提名) 大卫·克莱顿 / 埃里克·赛恩登 / R·克里斯托弗·怀特 / 乔·莱特瑞
  最好艺术指导(提名) 西蒙·布赖特 / 丹·汉纳 / 拉·文森特
  最好化装与发型设想(提名) 彼得·金 / 塔米·莱恩 / 里克·芬勒特
  第41届动画安妮奖(2014)
  最好真人电影动画脚色
  第22届MTV电影奖(2013)
  MTV电影奖 最好惊骇戏表演(提名) 马丁·弗瑞曼
  MTV电影奖 最好豪杰形象 马丁·弗瑞曼
  第18届美国批评家挑选电影奖(2013)
  最好美术指导(提名) 西蒙·布赖特 / 丹·汉纳 / 拉·文森特
  最好打扮设想(提名) 鲍勃·巴克 / 安·马斯克里 / 理查德·泰勒
  最好发型化装(提名)
  最好视觉结果(提名)
  第11届华盛顿影评人协会奖(2012)
  最好配乐(提名) 霍华德·肖
  第12届凤凰城影评人协会奖(2012)
  最好打扮设想(提名) 鲍勃·巴克 / 安·马斯克里 / 理查德·泰勒
  最好艺术指导(提名) 丹·汉纳
  最好视觉结果(提名)
  第3届豆瓣电影鑫像奖(2013)
  鑫豆单元 最好视觉结果(提名)
  鑫豆单元 最好歌曲(提名)
  鑫豆单元 最好落选影片(提名)
  1. Video
  2. ID             : 1
  3. Format           : HEVC
  4. Format/Info          : High Efficiency Video Coding
  5. Format profile         : Main [email]10@L5.1[/email]@High
  6. HDR format           : SMPTE ST 2086, HDR10 compatible
  7. Codec ID           : V_MPEGH/ISO/HEVC
  8. Duration           : 3 h 2 min
  9. Bit rate           : 30.6 Mb/s
  10. Width            : 3 840 pixels
  11. Height           : 1 610 pixels
  12. Display aspect ratio       : 2.40:1
  13. Frame rate mode        : Constant
  14. Frame rate           : 23.976 (24000/1001/45378) FPS
  15. Color space          : YUV
  16. Chroma subsampling       : 4:2:0 (Type 2)
  17. Bit depth          : 10 bits
  18. Bits/(Pixel*Frame)       : 0.206
  19. Stream size          : 39.0 GiB (88%)
  20. Writing library        : x265 3.4+12-g9103319fc:[Windows][MSVC 1900][64 bit] 10bit
  21. Encoding settings        : cpuid=1176575 / frame-threads=5 / numa-pools=32 / wpp / no-pmode / no-pme / no-psnr / no-ssim / log-level=2 / input-csp=1 / input-res=3840x1610 / interlace=0 / total-frames=262524 / level-idc=51 / high-tier=1 / uhd-bd=0 / ref=4 / no-allow-non-conformance / repeat-headers / annexb / aud / hrd / info / hash=0 / no-temporal-layers / no-open-gop / min-keyint=23 / keyint=250 / gop-lookahead=0 / bframes=4 / b-adapt=2 / b-pyramid / bframe-bias=0 / rc-lookahead=25 / lookahead-slices=4 / scenecut=40 / hist-scenecut=0 / radl=0 / no-splice / no-intra-refresh / ctu=64 / min-cu-size=8 / rect / no-amp / max-tu-size=32 / tu-inter-depth=1 / tu-intra-depth=1 / limit-tu=0 / rdoq-level=2 / dynamic-rd=0.00 / no-ssim-rd / signhide / no-tskip / nr-intra=0 / nr-inter=0 / no-constrained-intra / no-strong-intra-smoothing / max-merge=3 / limit-refs=3 / limit-modes / me=3 / subme=3 / merange=57 / temporal-mvp / no-frame-dup / no-hme / weightp / no-weightb / no-analyze-src-pics / deblock=-3:-3 / no-sao / no-sao-non-deblock / rd=4 / selective-sao=0 / no-early-skip / rskip / no-fast-intra / no-tskip-fast / no-cu-lossless / no-b-intra / no-splitrd-skip / rdpenalty=0 / psy-rd=2.00 / psy-rdoq=1.00 / no-rd-refine / no-lossless / cbqpoffs=0 / crqpoffs=0 / rc=crf / crf=12.5 / qcomp=0.60 / qpstep=4 / stats-write=0 / stats-read=0 / vbv-maxrate=160000 / vbv-bufsize=160000 / vbv-init=0.9 / crf-max=0.0 / crf-min=0.0 / ipratio=1.40 / pbratio=1.30 / aq-mode=2 / aq-strength=0.80 / cutree / zone-count=0 / no-strict-cbr / qg-size=32 / no-rc-grain / qpmax=69 / qpmin=0 / no-const-vbv / sar=1 / overscan=0 / videoformat=5 / range=0 / colorprim=9 / transfer=16 / colormatrix=9 / chromaloc=1 / chromaloc-top=2 / chromaloc-bottom=2 / display-window=0 / master-display=G(13250,34500)B(7500,3000)R(34000,16000)WP(15635,16450)L(40000000,50) / cll=801,188 / min-luma=0 / max-luma=1023 / log2-max-poc-lsb=8 / vui-timing-info / vui-hrd-info / slices=1 / no-opt-qp-pps / no-opt-ref-list-length-pps / no-multi-pass-opt-rps / scenecut-bias=0.05 / hist-threshold=0.01 / no-opt-cu-delta-qp / no-aq-motion / hdr10 / hdr10-opt / no-dhdr10-opt / no-idr-recovery-sei / analysis-reuse-level=0 / analysis-save-reuse-level=0 / analysis-load-reuse-level=0 / scale-factor=0 / refine-intra=0 / refine-inter=0 / refine-mv=1 / refine-ctu-distortion=0 / no-limit-sao / ctu-info=0 / no-lowpass-dct / refine-analysis-type=0 / copy-pic=1 / max-ausize-factor=1.0 / no-dynamic-refine / no-single-sei / no-hevc-aq / no-svt / no-field / qp-adaptation-range=1.00 / no-scenecut-aware-qpconformance-window-offsets / right=0 / bottom=0 / decoder-max-rate=0
  22. Default            : Yes
  23. Forced           : No
  24. Color range          : Limited
  25. Color primaries        : BT.2020
  26. Transfer characteristics     : PQ
  27. Matrix coefficients        : BT.2020 non-constant
  28. Mastering display color primaries  : Display P3
  29. Mastering display luminance    : min: 0.0050 cd/m2, max: 4000 cd/m2
  30. Maximum Content Light Level    : 801 cd/m2
  31. Maximum Frame-Average Light Level  : 188 cd/m2

  32. Audio #1
  33. ID             : 2
  34. Format           : MLP FBA 16-ch
  35. Format/Info          : Meridian Lossless Packing FBA with 16-channel presentation
  36. Commercial name        : Dolby TrueHD with Dolby Atmos
  37. Codec ID           : A_TRUEHD
  38. Duration           : 3 h 2 min
  39. Bit rate mode          : Variable
  40. Bit rate           : 3 403 kb/s
  41. Maximum bit rate         : 5 616 kb/s
  42. Channel(s)           : 8 channels
  43. Channel layout         : L R C LFE Ls Rs Lb Rb
  44. Sampling rate          : 48.0 kHz
  45. Frame rate           : 1 200.000 FPS (40 SPF)
  46. Compression mode         : Lossless
  47. Stream size          : 4.34 GiB (10%)
  48. Title            : Atmos 7.1
  49. Language           : English
  50. Default            : Yes
  51. Forced           : No
  52. Number of dynamic objects      : 11
  53. Bed channel count        : 1 channel
  54. Bed channel configuration      : LFE

  55. Audio #2
  56. ID             : 3
  57. Format           : AC-3
  58. Format/Info          : Audio Coding 3
  59. Commercial name        : Dolby Digital
  60. Codec ID           : A_AC3
  61. Duration           : 3 h 2 min
  62. Bit rate mode          : Constant
  63. Bit rate           : 448 kb/s
  64. Channel(s)           : 6 channels
  65. Channel layout         : L R C LFE Ls Rs
  66. Sampling rate          : 48.0 kHz
  67. Frame rate           : 31.250 FPS (1536 SPF)
  68. Compression mode         : Lossy
  69. Stream size          : 585 MiB (1%)
  70. Title            : AC-3 5.1
  71. Language           : English
  72. Service kind         : Complete Main
  73. Default            : No
  74. Forced           : No

  75. Text #1
  76. ID             : 4
  77. Format           : PGS
  78. Muxing mode          : zlib
  79. Codec ID           : S_HDMV/PGS
  80. Codec ID/Info          : Picture based subtitle format used on BDs/HD-DVDs
  81. Duration           : 2 h 55 min
  82. Bit rate           : 29.5 kb/s
  83. Count of elements        : 4950
  84. Stream size          : 37.2 MiB (0%)
  85. Title            : SDH
  86. Language           : English
  87. Default            : No
  88. Forced           : No

  89. Text #2
  90. ID             : 5
  91. Format           : PGS
  92. Muxing mode          : zlib
  93. Codec ID           : S_HDMV/PGS
  94. Codec ID/Info          : Picture based subtitle format used on BDs/HD-DVDs
  95. Duration           : 3 h 1 min
  96. Bit rate           : 22.0 kb/s
  97. Count of elements        : 4012
  98. Stream size          : 28.5 MiB (0%)
  99. Title            : French
  100. Language           : French
  101. Default            : No
  102. Forced           : No

  103. Text #3
  104. ID             : 6
  105. Format           : PGS
  106. Muxing mode          : zlib
  107. Codec ID           : S_HDMV/PGS
  108. Codec ID/Info          : Picture based subtitle format used on BDs/HD-DVDs
  109. Duration           : 3 h 1 min
  110. Bit rate           : 24.4 kb/s
  111. Count of elements        : 4196
  112. Stream size          : 31.7 MiB (0%)
  113. Title            : Spanish
  114. Language           : Spanish
  115. Default            : No
  116. Forced           : No

  117. Text #4
  118. ID             : 7
  119. Format           : PGS
  120. Muxing mode          : zlib
  121. Codec ID           : S_HDMV/PGS
  122. Codec ID/Info          : Picture based subtitle format used on BDs/HD-DVDs
  123. Duration           : 3 h 1 min
  124. Bit rate           : 25.9 kb/s
  125. Count of elements        : 4406
  126. Stream size          : 33.6 MiB (0%)
  127. Title            : Spanish
  128. Language           : Spanish
  129. Default            : No
  130. Forced           : No

  131. Text #5
  132. ID             : 8
  133. Format           : PGS
  134. Muxing mode          : zlib
  135. Codec ID           : S_HDMV/PGS
  136. Codec ID/Info          : Picture based subtitle format used on BDs/HD-DVDs
  137. Duration           : 3 h 1 min
  138. Bit rate           : 27.9 kb/s
  139. Count of elements        : 4920
  140. Stream size          : 36.3 MiB (0%)
  141. Title            : Italian
  142. Language           : Italian
  143. Default            : No
  144. Forced           : No

  145. Text #6
  146. ID             : 9
  147. Format           : PGS
  148. Muxing mode          : zlib
  149. Codec ID           : S_HDMV/PGS
  150. Codec ID/Info          : Picture based subtitle format used on BDs/HD-DVDs
  151. Duration           : 2 h 50 min
  152. Bit rate           : 24.1 kb/s
  153. Count of elements        : 4164
  154. Stream size          : 29.3 MiB (0%)
  155. Title            : Dutch
  156. Language           : Dutch
  157. Default            : No
  158. Forced           : No

  159. Text #7
  160. ID             : 10
  161. Format           : PGS
  162. Muxing mode          : zlib
  163. Codec ID           : S_HDMV/PGS
  164. Codec ID/Info          : Picture based subtitle format used on BDs/HD-DVDs
  165. Duration           : 3 h 1 min
  166. Bit rate           : 23.8 kb/s
  167. Count of elements        : 4174
  168. Stream size          : 30.9 MiB (0%)
  169. Title            : Swedish
  170. Language           : Swedish
  171. Default            : No
  172. Forced           : No

  173. Text #8
  174. ID             : 11
  175. Format           : PGS
  176. Muxing mode          : zlib
  177. Codec ID           : S_HDMV/PGS
  178. Codec ID/Info          : Picture based subtitle format used on BDs/HD-DVDs
  179. Duration           : 3 h 1 min
  180. Bit rate           : 23.3 kb/s
  181. Count of elements        : 4292
  182. Stream size          : 30.3 MiB (0%)
  183. Title            : Norwegian
  184. Language           : Norwegian
  185. Default            : No
  186. Forced           : No

  187. Text #9
  188. ID             : 12
  189. Format           : PGS
  190. Muxing mode          : zlib
  191. Codec ID           : S_HDMV/PGS
  192. Codec ID/Info          : Picture based subtitle format used on BDs/HD-DVDs
  193. Duration           : 3 h 1 min
  194. Bit rate           : 21.4 kb/s
  195. Count of elements        : 4116
  196. Stream size          : 27.8 MiB (0%)
  197. Title            : Danish
  198. Language           : Danish
  199. Default            : No
  200. Forced           : No

  201. Text #10
  202. ID             : 13
  203. Format           : PGS
  204. Muxing mode          : zlib
  205. Codec ID           : S_HDMV/PGS
  206. Codec ID/Info          : Picture based subtitle format used on BDs/HD-DVDs
  207. Duration           : 3 h 1 min
  208. Bit rate           : 21.9 kb/s
  209. Count of elements        : 4156
  210. Stream size          : 28.4 MiB (0%)
  211. Title            : Finnish
  212. Language           : Finnish
  213. Default            : No
  214. Forced           : No

  215. Text #11
  216. ID             : 14
  217. Format           : PGS
  218. Muxing mode          : zlib
  219. Codec ID           : S_HDMV/PGS
  220. Codec ID/Info          : Picture based subtitle format used on BDs/HD-DVDs
  221. Duration           : 3 h 0 min
  222. Bit rate           : 23.4 kb/s
  223. Count of elements        : 4378
  224. Stream size          : 30.3 MiB (0%)
  225. Title            : Czech
  226. Language           : Czech
  227. Default            : No
  228. Forced           : No

  229. Text #12
  230. ID             : 15
  231. Format           : PGS
  232. Muxing mode          : zlib
  233. Codec ID           : S_HDMV/PGS
  234. Codec ID/Info          : Picture based subtitle format used on BDs/HD-DVDs
  235. Duration           : 3 h 1 min
  236. Bit rate           : 21.7 kb/s
  237. Count of elements        : 4138
  238. Stream size          : 28.1 MiB (0%)
  239. Title            : Polish
  240. Language           : Polish
  241. Default            : No
  242. Forced           : No

  243. Text #13
  244. ID             : 16
  245. Format           : PGS
  246. Muxing mode          : zlib
  247. Codec ID           : S_HDMV/PGS
  248. Codec ID/Info          : Picture based subtitle format used on BDs/HD-DVDs
  249. Duration           : 2 h 55 min
  250. Bit rate           : 20.2 kb/s
  251. Count of elements        : 3546
  252. Stream size          : 25.4 MiB (0%)
  253. Title            : Japanese
  254. Language           : Japanese
  255. Default            : No
  256. Forced           : No

  257. Text #14
  258. ID             : 17
  259. Format           : PGS
  260. Muxing mode          : zlib
  261. Codec ID           : S_HDMV/PGS
  262. Codec ID/Info          : Picture based subtitle format used on BDs/HD-DVDs
  263. Duration           : 3 h 0 min
  264. Bit rate           : 21.0 kb/s
  265. Count of elements        : 4350
  266. Stream size          : 27.1 MiB (0%)
  267. Title            : Chinese
  268. Language           : Chinese
  269. Default            : No
  270. Forced           : No

  271. Text #15
  272. ID             : 18
  273. Format           : PGS
  274. Muxing mode          : zlib
  275. Codec ID           : S_HDMV/PGS
  276. Codec ID/Info          : Picture based subtitle format used on BDs/HD-DVDs
  277. Duration           : 3 h 0 min
  278. Bit rate           : 18.3 kb/s
  279. Count of elements        : 4366
  280. Stream size          : 23.7 MiB (0%)
  281. Title            : Korean
  282. Language           : Korean
  283. Default            : No
  284. Forced           : No

  285. Text #16
  286. ID             : 19
  287. Format           : PGS
  288. Muxing mode          : zlib
  289. Codec ID           : S_HDMV/PGS
  290. Codec ID/Info          : Picture based subtitle format used on BDs/HD-DVDs
  291. Duration           : 3 h 1 min
  292. Bit rate           : 23.5 kb/s
  293. Count of elements        : 4398
  294. Stream size          : 30.6 MiB (0%)
  295. Title            : Thai
  296. Language           : Thai
  297. Default            : No
  298. Forced           : No

  299. Menu
  300. 00:00:00.000         : en:Chapter 01
  301. 00:10:11.569         : en:Chapter 02
  302. 00:14:08.347         : en:Chapter 03
  303. 00:17:26.921         : en:Chapter 04
  304. 00:18:44.290         : en:Chapter 05
  305. 00:23:16.270         : en:Chapter 06
  306. 00:27:59.136         : en:Chapter 07
  307. 00:36:04.537         : en:Chapter 08
  308. 00:41:16.933         : en:Chapter 09
  309. 00:46:30.496         : en:Chapter 10
  310. 00:53:03.847         : en:Chapter 11
  311. 00:58:07.317         : en:Chapter 12
  312. 00:59:54.966         : en:Chapter 13
  313. 01:10:42.071         : en:Chapter 14
  314. 01:15:01.497         : en:Chapter 15
  315. 01:18:52.478         : en:Chapter 16
  316. 01:24:56.591         : en:Chapter 17
  317. 01:30:34.095         : en:Chapter 18
  318. 01:34:10.270         : en:Chapter 19
  319. 01:37:24.130         : en:Chapter 20
  320. 01:39:03.146         : en:Chapter 21
  321. 01:41:40.469         : en:Chapter 22
  322. 01:50:22.199         : en:Chapter 23
  323. 01:52:59.439         : en:Chapter 24
  324. 01:59:06.014         : en:Chapter 25
  325. 02:03:57.180         : en:Chapter 26
  326. 02:09:51.242         : en:Chapter 27
  327. 02:23:21.092         : en:Chapter 28
  328. 02:25:18.543         : en:Chapter 29
  329. 02:26:30.865         : en:Chapter 30
  330. 02:30:52.585         : en:Chapter 31
  331. 02:33:00.213         : en:Chapter 32
  332. 02:35:52.260         : en:Chapter 33
  333. 02:46:50.876         : en:Chapter 34
  334. 02:52:21.039         : en:Chapter 35
复制代码











  

The.Hobbit.An.Unexpected.Journey.2012.EXTENDED.2160p.UHD.BluRay.x265.10bit.HDR.T.torrent (111.43 KB, 下载次数: 111)

回复

使用道具 举报

您需要登录后才可以回帖 登录 | 立即注册

本版积分规则

QQ|Archiver|手机版|小黑屋|蓝光电影网

GMT+8, 2024-6-26 05:10 , Processed in 0.144346 second(s), 24 queries .

Powered by Discuz! X3.4

Copyright © 2001-2020, Tencent Cloud.

快速回复 返回顶部 返回列表