找回密码
 立即注册

QQ登录

只需一步,快速开始

查看: 1381|回复: 0

[10bit.HDR] 比佛利山超级警探/妙探出差 Beverly.Hills.Cop.1984.2160p.UHD.BluRay.x265.10bit.HDR.DTS-HD.MA.5.1-B0MBARDiERS 32.51GB

[复制链接]

已抛锚 成长值: 310

0

精华

0

好友

0

听众

管理员

Rank: 9Rank: 9Rank: 9

蓝光币
7041
发表于 2020-12-8 22:03:04 | 显示全部楼层 |阅读模式


译  名 比佛利山超级警探 / 妙探出差(港) / 妙探出更 / 比佛利山警探 / 轰天雷 / 轰隆炮
片  名 Beverly Hills Cop
年  代 1984
产  地 美国
类  别 剧情 / 笑剧 / 行动 / 惊悚 / 犯罪
语  言 英语
上映日期 1984-12-05
IMDb评分7.3/10 from 161027 users
IMDb链接https://www.imdb.com/title/tt0086960
豆瓣评分 6.9/10 from 1961 users
豆瓣链接 https://movie.douban.com/subject/1301782/
片  长 105 分钟
导  演 马丁·布莱斯特 Martin Brest
编  剧 小丹尼尔·皮特里 Daniel Petrie Jr. / 达尼洛·巴赫 Danilo Bach
主  演 艾迪·墨菲 Eddie Murphy
     祖德·莱茵霍尔德 Judge Reinhold
     约翰·阿什顿 John Ashton
     莉莎·埃尔巴赫 Lisa Eilbacher
     罗尼·考克斯 Ronny Cox
     米娜·苏瓦丽 Mena Suvari
     迈克尔切姆平 Michael Champion
     乔纳森·班克斯 Jonathan Banks
     詹姆斯·拉索 James Russo

标  签 笑剧 | 美国 | 行动 | 犯罪 | 1984 | 美国电影 | 警匪 | EddieMurphy
简  介
  艾索(艾迪?墨菲 Eddie Murphy 饰)是底特律黑白两道的台甫人,身为警探,却也不时干些偷鸡摸狗的活动,而且他侦办案件时经常不按法式处事,下属对他非常头痛。此日,艾索由于敲诈烟贩而差点被解雇进来,幸亏好命运才免遭于难。艾索偶遇了一位刚出狱的好友,这人带着巨额的德国债券来到了底特律。两人重逢后未几,艾索的这位朋友就被谋杀了。深谙此事不简单,艾索起头了观察。他单独一人追踪怀疑人维克多来到了好莱坞的比佛利山,正当他预备上前盘问时,却被当地差人带回了警局。当艾索观察得知维多克简直在贩毒时,当地的警长赞成介入观察,却将艾索打发回故乡。艾索只好劝说当地的一位警察比利(祖德?莱茵霍尔德 Judge Reinhold 饰)和他合作,两人起头了擅自观察。
获奖情况
  第57届奥斯卡金像奖(1985)
  最好原创剧本(提名) 小丹尼尔·皮特里 / 达尼洛·巴赫
  1. Video
  2. ID             : 1
  3. Format           : HEVC
  4. Format/Info          : High Efficiency Video Coding
  5. Format profile         : Main [email]10@L5.1[/email]@High
  6. HDR format           : SMPTE ST 2086, HDR10 compatible
  7. Codec ID           : V_MPEGH/ISO/HEVC
  8. Duration           : 1 h 45 min
  9. Bit rate           : 39.7 Mb/s
  10. Width            : 3 840 pixels
  11. Height           : 2 160 pixels
  12. Display aspect ratio       : 16:9
  13. Frame rate mode        : Constant
  14. Frame rate           : 23.976 (24000/1001/45378) FPS
  15. Color space          : YUV
  16. Chroma subsampling       : 4:2:0 (Type 2)
  17. Bit depth          : 10 bits
  18. Bits/(Pixel*Frame)       : 0.200
  19. Stream size          : 29.1 GiB (90%)
  20. Writing library        : x265 3.4+26-ga82c6c7a7:[Windows][GCC 10.2.1][64 bit] 10bit
  21. Encoding settings        : cpuid=1176575 / frame-threads=6 / numa-pools=36 / wpp / no-pmode / no-pme / no-psnr / no-ssim / log-level=2 / input-csp=1 / input-res=3840x2160 / interlace=0 / total-frames=151166 / level-idc=51 / high-tier=1 / uhd-bd=0 / ref=4 / no-allow-non-conformance / repeat-headers / annexb / aud / hrd / info / hash=0 / no-temporal-layers / open-gop / min-keyint=23 / keyint=250 / gop-lookahead=0 / bframes=4 / b-adapt=2 / b-pyramid / bframe-bias=0 / rc-lookahead=25 / lookahead-slices=4 / scenecut=40 / hist-scenecut=0 / radl=0 / no-splice / no-intra-refresh / ctu=64 / min-cu-size=8 / rect / no-amp / max-tu-size=32 / tu-inter-depth=1 / tu-intra-depth=1 / limit-tu=0 / rdoq-level=2 / dynamic-rd=0.00 / no-ssim-rd / signhide / no-tskip / nr-intra=0 / nr-inter=0 / no-constrained-intra / strong-intra-smoothing / max-merge=3 / limit-refs=3 / limit-modes / me=3 / subme=3 / merange=57 / temporal-mvp / no-frame-dup / no-hme / weightp / no-weightb / no-analyze-src-pics / deblock=-3:-3 / no-sao / no-sao-non-deblock / rd=4 / selective-sao=0 / no-early-skip / rskip / no-fast-intra / no-tskip-fast / no-cu-lossless / no-b-intra / no-splitrd-skip / rdpenalty=0 / psy-rd=2.00 / psy-rdoq=1.00 / no-rd-refine / no-lossless / cbqpoffs=0 / crqpoffs=0 / rc=crf / crf=18.7 / qcomp=0.60 / qpstep=4 / stats-write=0 / stats-read=0 / vbv-maxrate=160000 / vbv-bufsize=160000 / vbv-init=0.9 / min-vbv-fullness=50.0 / max-vbv-fullness=80.0 / crf-max=0.0 / crf-min=0.0 / ipratio=1.40 / pbratio=1.30 / aq-mode=2 / aq-strength=1.00 / cutree / zone-count=0 / no-strict-cbr / qg-size=32 / no-rc-grain / qpmax=69 / qpmin=0 / no-const-vbv / sar=1 / overscan=0 / videoformat=5 / range=0 / colorprim=9 / transfer=16 / colormatrix=9 / chromaloc=1 / chromaloc-top=2 / chromaloc-bottom=2 / display-window=0 / master-display=G(13250,34500)B(7500,3000)R(34000,16000)WP(15635,16450)L(10000000,1) / cll=0,0 / min-luma=0 / max-luma=1023 / log2-max-poc-lsb=8 / vui-timing-info / vui-hrd-info / slices=1 / no-opt-qp-pps / no-opt-ref-list-length-pps / no-multi-pass-opt-rps / scenecut-bias=0.05 / hist-threshold=0.03 / no-opt-cu-delta-qp / no-aq-motion / hdr10 / hdr10-opt / no-dhdr10-opt / no-idr-recovery-sei / analysis-reuse-level=0 / analysis-save-reuse-level=0 / analysis-load-reuse-level=0 / scale-factor=0 / refine-intra=0 / refine-inter=0 / refine-mv=1 / refine-ctu-distortion=0 / no-limit-sao / ctu-info=0 / no-lowpass-dct / refine-analysis-type=0 / copy-pic=1 / max-ausize-factor=1.0 / no-dynamic-refine / no-single-sei / no-hevc-aq / no-svt / no-field / qp-adaptation-range=1.00 / no-scenecut-aware-qpconformance-window-offsets / right=0 / bottom=0 / decoder-max-rate=0 / no-vbv-live-multi-pass
  22. Default            : Yes
  23. Forced           : No
  24. Color range          : Limited
  25. Color primaries        : BT.2020
  26. Transfer characteristics     : PQ
  27. Matrix coefficients        : BT.2020 non-constant
  28. Mastering display color primaries  : Display P3
  29. Mastering display luminance    : min: 0.0001 cd/m2, max: 1000 cd/m2

  30. Audio #1
  31. ID             : 2
  32. Format           : DTS XLL
  33. Format/Info          : Digital Theater Systems
  34. Commercial name        : DTS-HD Master Audio
  35. Codec ID           : A_DTS
  36. Duration           : 1 h 45 min
  37. Bit rate mode          : Variable
  38. Bit rate           : 3 965 kb/s
  39. Channel(s)           : 6 channels
  40. Channel layout         : C L R Ls Rs LFE
  41. Sampling rate          : 48.0 kHz
  42. Frame rate           : 93.750 FPS (512 SPF)
  43. Bit depth          : 24 bits
  44. Compression mode         : Lossless
  45. Stream size          : 2.91 GiB (9%)
  46. Language           : English
  47. Default            : Yes
  48. Forced           : No

  49. Audio #2
  50. ID             : 3
  51. Format           : AAC LC
  52. Format/Info          : Advanced Audio Codec Low Complexity
  53. Codec ID           : A_AAC-2
  54. Duration           : 1 h 45 min
  55. Bit rate           : 108 kb/s
  56. Channel(s)           : 2 channels
  57. Channel layout         : L R
  58. Sampling rate          : 48.0 kHz
  59. Frame rate           : 46.875 FPS (1024 SPF)
  60. Compression mode         : Lossy
  61. Delay relative to video      : 9 ms
  62. Stream size          : 80.9 MiB (0%)
  63. Title            : Commentary
  64. Language           : English
  65. Default            : No
  66. Forced           : No

  67. Text #1
  68. ID             : 4
  69. Format           : PGS
  70. Muxing mode          : zlib
  71. Codec ID           : S_HDMV/PGS
  72. Codec ID/Info          : Picture based subtitle format used on BDs/HD-DVDs
  73. Duration           : 1 h 38 min
  74. Bit rate           : 58.2 kb/s
  75. Count of elements        : 2642
  76. Stream size          : 40.9 MiB (0%)
  77. Title            : English
  78. Language           : English
  79. Default            : No
  80. Forced           : No

  81. Text #2
  82. ID             : 5
  83. Format           : PGS
  84. Muxing mode          : zlib
  85. Codec ID           : S_HDMV/PGS
  86. Codec ID/Info          : Picture based subtitle format used on BDs/HD-DVDs
  87. Duration           : 1 h 40 min
  88. Bit rate           : 59.8 kb/s
  89. Count of elements        : 2816
  90. Stream size          : 42.8 MiB (0%)
  91. Title            : English SDH
  92. Language           : English
  93. Default            : No
  94. Forced           : No

  95. Text #3
  96. ID             : 6
  97. Format           : PGS
  98. Muxing mode          : zlib
  99. Codec ID           : S_HDMV/PGS
  100. Codec ID/Info          : Picture based subtitle format used on BDs/HD-DVDs
  101. Duration           : 1 h 42 min
  102. Bit rate           : 55.3 kb/s
  103. Count of elements        : 2656
  104. Stream size          : 40.5 MiB (0%)
  105. Title            : German
  106. Language           : German
  107. Default            : No
  108. Forced           : No

  109. Text #4
  110. ID             : 7
  111. Format           : PGS
  112. Muxing mode          : zlib
  113. Codec ID           : S_HDMV/PGS
  114. Codec ID/Info          : Picture based subtitle format used on BDs/HD-DVDs
  115. Duration           : 1 h 44 min
  116. Bit rate           : 46.6 kb/s
  117. Count of elements        : 2558
  118. Stream size          : 34.7 MiB (0%)
  119. Title            : French
  120. Language           : French
  121. Default            : No
  122. Forced           : No

  123. Text #5
  124. ID             : 8
  125. Format           : PGS
  126. Muxing mode          : zlib
  127. Codec ID           : S_HDMV/PGS
  128. Codec ID/Info          : Picture based subtitle format used on BDs/HD-DVDs
  129. Duration           : 1 h 44 min
  130. Bit rate           : 51.5 kb/s
  131. Count of elements        : 1890
  132. Stream size          : 38.6 MiB (0%)
  133. Title            : English Commentary
  134. Language           : English
  135. Default            : No
  136. Forced           : No

  137. Text #6
  138. ID             : 9
  139. Format           : PGS
  140. Muxing mode          : zlib
  141. Codec ID           : S_HDMV/PGS
  142. Codec ID/Info          : Picture based subtitle format used on BDs/HD-DVDs
  143. Duration           : 1 h 44 min
  144. Bit rate           : 44.5 kb/s
  145. Count of elements        : 1886
  146. Stream size          : 33.4 MiB (0%)
  147. Title            : German
  148. Language           : German
  149. Default            : No
  150. Forced           : No

  151. Text #7
  152. ID             : 10
  153. Format           : PGS
  154. Muxing mode          : zlib
  155. Codec ID           : S_HDMV/PGS
  156. Codec ID/Info          : Picture based subtitle format used on BDs/HD-DVDs
  157. Duration           : 1 h 44 min
  158. Bit rate           : 43.4 kb/s
  159. Count of elements        : 1878
  160. Stream size          : 32.5 MiB (0%)
  161. Title            : French
  162. Language           : French
  163. Default            : No
  164. Forced           : No

  165. Menu
  166. 00:00:00.000         : en:Chapter 01
  167. 00:10:58.491         : en:Chapter 02
  168. 00:19:31.670         : en:Chapter 03
  169. 00:36:03.578         : en:Chapter 04
  170. 00:45:07.163         : en:Chapter 05
  171. 00:49:28.841         : en:Chapter 06
  172. 00:58:39.599         : en:Chapter 07
  173. 01:13:16.100         : en:Chapter 08
  174. 01:23:22.664         : en:Chapter 09
  175. 01:38:28.277         : en:Chapter 10
  176. 01:41:04.433         : en:Chapter 11
  177. 01:45:04.632         : en:Chapter 12
复制代码











  
Beverly.Hills.Cop.1984.2160p.UHD.BluRay.x265.10bit.HDR.DTS-HD.MA.5.1-B0MBARDiERS.torrent (82.01 KB, 下载次数: 6)


回复

使用道具 举报

您需要登录后才可以回帖 登录 | 立即注册

本版积分规则

QQ|Archiver|手机版|小黑屋|蓝光电影网

GMT+8, 2024-6-26 05:25 , Processed in 0.066825 second(s), 24 queries .

Powered by Discuz! X3.4

Copyright © 2001-2020, Tencent Cloud.

快速回复 返回顶部 返回列表