找回密码
 立即注册

QQ登录

只需一步,快速开始

查看: 1937|回复: 0

[10bit.HDR] 刀锋战士/刀锋 Blade.1998.2160p.UHD.BluRay.x265.10bit.HDR.TrueHD.7.1.Atmos-B0MBARDiERS 32.44GB

[复制链接]

已抛锚 成长值: 310

0

精华

0

好友

0

听众

管理员

Rank: 9Rank: 9Rank: 9

蓝光币
7041
发表于 2020-12-8 22:01:42 | 显示全部楼层 |阅读模式


译  名 刀锋战士 / 刀锋 / 鬼魂刺客
片  名 Blade
年  代 1998
产  地 美国
类  别 行动 / 惊悚 / 可骇 / 奇异 / 冒险
语  言 英语 / 俄语
上映日期 1998-08-21
IMDb评分7.1/10 from 240502 users
IMDb链接https://www.imdb.com/title/tt0120611
豆瓣评分 7.0/10 from 53053 users
豆瓣链接 https://movie.douban.com/subject/1298120/
片  长 120 分钟
导  演 斯蒂芬·诺林顿 Stephen Norrington
编  剧 大卫·S·高耶 David S. Goyer
主  演 韦斯利·斯奈普斯 Wesley Snipes
     斯蒂芬·多尔夫 Stephen Dorff
     克里斯·克里斯托佛森 Kris Kristofferson
     恩布希·赖特 N'Bushe Wright
     唐纳尔·罗格 Donal Logue
     Andray Johnson
     西德尼·S·柳法 Sidney S. Liufau
     简雅·拉诺 Jenya Lano
     马特·斯查尔兹 Matt Schulze
     Richard 'Dr.' Baily
     斯蒂芬·诺林顿 Stephen Norrington
     Stephen R. Peluso
     李香凝 Shannon Lee
     雅丽·乔维尔 Arly Jover
     杰夫·伊马达 Jeff Imada
     泰德·金 Ted King
     Carmen Thomas
     Ryan Glorioso
     桑娜·莱瑟 Sanaa Lathan
     Judson Earney Scott
     列万·乌恰尼什维利 Levan Uchaneishvili
     约翰·伊诺斯三世 John Enos III
     奇希·劳尔兹 Traci Lords
     蒂姆·金尼 Tim Guinee
     Lyle Conway
     Lennox Brown
     D·V·德文森蒂斯 D.V. DeVincentis
     埃里克·爱德华兹 Eric Edwards
     乌多·基尔 Udo Kier
     肯尼·约翰逊 Kenny Johnson
     Keith Leon Williams

标  签 吸血鬼 | 行动 | 美国 | 科幻 | 刀锋战士 | 美国电影 | 魔幻 | 1998
简  介
  刀锋战士布莱德的母亲怀孕时被吸血鬼咬伤了,生下他后就归天了,由此布莱德(韦斯利?斯奈普斯 Wesley Snipes 饰)带上了一半吸血鬼的血。布莱德自幼在兵器专家阿伯拉罕家长大,阿伯拉罕(克里斯?克里斯托佛森 Kris Kristofferson 饰)为他打造能力最强大的对于吸血鬼的兵器和为他注射药物免得他变成吸血鬼。布莱德一向是人类庇护神,吸血鬼的克星。当他一次次破坏吸血鬼的好事,猎杀无数吸血鬼后,吸血鬼王佛斯特(斯蒂芬?多尔夫 Stephen Dorff 饰)立誓要撤除这个心头大患。他先是劝说布莱德加入他们的行列,这样的话他们就全国无敌。然后设想弄到布莱德的血,由于这样他就能用他的血实施血祭,唤出血潮,这样一切的人就城市变成吸血鬼。布莱德终极能克服这个强敌吗?
  1. Video
  2. ID             : 1
  3. Format           : HEVC
  4. Format/Info          : High Efficiency Video Coding
  5. Format profile         : Main [email]10@L5.1[/email]@High
  6. HDR format           : SMPTE ST 2086, HDR10 compatible
  7. Codec ID           : V_MPEGH/ISO/HEVC
  8. Duration           : 2 h 0 min
  9. Bit rate           : 33.8 Mb/s
  10. Width            : 3 840 pixels
  11. Height           : 1 608 pixels
  12. Display aspect ratio       : 2.40:1
  13. Frame rate mode        : Constant
  14. Frame rate           : 23.976 (24000/1001/45378) FPS
  15. Color space          : YUV
  16. Chroma subsampling       : 4:2:0 (Type 2)
  17. Bit depth          : 10 bits
  18. Bits/(Pixel*Frame)       : 0.229
  19. Stream size          : 28.4 GiB (88%)
  20. Writing library        : x265 3.4+26-ga82c6c7a7:[Windows][GCC 10.2.1][64 bit] 10bit
  21. Encoding settings        : cpuid=1176575 / frame-threads=4 / numa-pools=24 / wpp / no-pmode / no-pme / no-psnr / no-ssim / log-level=2 / input-csp=1 / input-res=3840x1608 / interlace=0 / total-frames=172991 / level-idc=51 / high-tier=1 / uhd-bd=0 / ref=4 / no-allow-non-conformance / repeat-headers / annexb / aud / hrd / info / hash=0 / no-temporal-layers / open-gop / min-keyint=23 / keyint=250 / gop-lookahead=0 / bframes=4 / b-adapt=2 / b-pyramid / bframe-bias=0 / rc-lookahead=25 / lookahead-slices=4 / scenecut=40 / hist-scenecut=0 / radl=0 / no-splice / no-intra-refresh / ctu=64 / min-cu-size=8 / rect / no-amp / max-tu-size=32 / tu-inter-depth=1 / tu-intra-depth=1 / limit-tu=0 / rdoq-level=2 / dynamic-rd=0.00 / no-ssim-rd / signhide / no-tskip / nr-intra=0 / nr-inter=0 / no-constrained-intra / strong-intra-smoothing / max-merge=3 / limit-refs=3 / limit-modes / me=3 / subme=3 / merange=57 / temporal-mvp / no-frame-dup / no-hme / weightp / no-weightb / no-analyze-src-pics / deblock=-3:-3 / no-sao / no-sao-non-deblock / rd=4 / selective-sao=0 / no-early-skip / rskip / no-fast-intra / no-tskip-fast / no-cu-lossless / no-b-intra / no-splitrd-skip / rdpenalty=0 / psy-rd=2.00 / psy-rdoq=1.00 / no-rd-refine / no-lossless / cbqpoffs=0 / crqpoffs=0 / rc=crf / crf=15.0 / qcomp=0.60 / qpstep=4 / stats-write=0 / stats-read=0 / vbv-maxrate=160000 / vbv-bufsize=160000 / vbv-init=0.9 / min-vbv-fullness=50.0 / max-vbv-fullness=80.0 / crf-max=0.0 / crf-min=0.0 / ipratio=1.40 / pbratio=1.30 / aq-mode=2 / aq-strength=1.00 / cutree / zone-count=0 / no-strict-cbr / qg-size=32 / no-rc-grain / qpmax=69 / qpmin=0 / no-const-vbv / sar=1 / overscan=0 / videoformat=5 / range=0 / colorprim=9 / transfer=16 / colormatrix=9 / chromaloc=1 / chromaloc-top=2 / chromaloc-bottom=2 / display-window=0 / master-display=G(13250,34500)B(7500,3000)R(34000,16000)WP(15635,16450)L(10000000,1) / cll=996,329 / min-luma=0 / max-luma=1023 / log2-max-poc-lsb=8 / vui-timing-info / vui-hrd-info / slices=1 / no-opt-qp-pps / no-opt-ref-list-length-pps / no-multi-pass-opt-rps / scenecut-bias=0.05 / hist-threshold=0.03 / no-opt-cu-delta-qp / no-aq-motion / hdr10 / hdr10-opt / no-dhdr10-opt / no-idr-recovery-sei / analysis-reuse-level=0 / analysis-save-reuse-level=0 / analysis-load-reuse-level=0 / scale-factor=0 / refine-intra=0 / refine-inter=0 / refine-mv=1 / refine-ctu-distortion=0 / no-limit-sao / ctu-info=0 / no-lowpass-dct / refine-analysis-type=0 / copy-pic=1 / max-ausize-factor=1.0 / no-dynamic-refine / no-single-sei / no-hevc-aq / no-svt / no-field / qp-adaptation-range=1.00 / no-scenecut-aware-qpconformance-window-offsets / right=0 / bottom=0 / decoder-max-rate=0 / no-vbv-live-multi-pass
  22. Default            : Yes
  23. Forced           : No
  24. Color range          : Limited
  25. Color primaries        : BT.2020
  26. Transfer characteristics     : PQ
  27. Matrix coefficients        : BT.2020 non-constant
  28. Mastering display color primaries  : Display P3
  29. Mastering display luminance    : min: 0.0001 cd/m2, max: 1000 cd/m2
  30. Maximum Content Light Level    : 996 cd/m2
  31. Maximum Frame-Average Light Level  : 329 cd/m2

  32. Audio #1
  33. ID             : 2
  34. Format           : MLP FBA 16-ch
  35. Format/Info          : Meridian Lossless Packing FBA with 16-channel presentation
  36. Commercial name        : Dolby TrueHD with Dolby Atmos
  37. Codec ID           : A_TRUEHD
  38. Duration           : 2 h 0 min
  39. Bit rate mode          : Variable
  40. Bit rate           : 3 575 kb/s
  41. Maximum bit rate         : 6 582 kb/s
  42. Channel(s)           : 8 channels
  43. Channel layout         : L R C LFE Ls Rs Lb Rb
  44. Sampling rate          : 48.0 kHz
  45. Frame rate           : 1 200.000 FPS (40 SPF)
  46. Compression mode         : Lossless
  47. Stream size          : 3.00 GiB (9%)
  48. Language           : English
  49. Default            : Yes
  50. Forced           : No
  51. Number of dynamic objects      : 11
  52. Bed channel count        : 1 channel
  53. Bed channel configuration      : LFE

  54. Audio #2
  55. ID             : 3
  56. Format           : AC-3
  57. Format/Info          : Audio Coding 3
  58. Commercial name        : Dolby Digital
  59. Codec ID           : A_AC3
  60. Duration           : 2 h 0 min
  61. Bit rate mode          : Constant
  62. Bit rate           : 448 kb/s
  63. Channel(s)           : 6 channels
  64. Channel layout         : L R C LFE Ls Rs
  65. Sampling rate          : 48.0 kHz
  66. Frame rate           : 31.250 FPS (1536 SPF)
  67. Compression mode         : Lossy
  68. Stream size          : 385 MiB (1%)
  69. Language           : English
  70. Service kind         : Complete Main
  71. Default            : No
  72. Forced           : No

  73. Audio #3
  74. ID             : 4
  75. Format           : AAC LC
  76. Format/Info          : Advanced Audio Codec Low Complexity
  77. Codec ID           : A_AAC-2
  78. Duration           : 2 h 0 min
  79. Bit rate           : 104 kb/s
  80. Channel(s)           : 2 channels
  81. Channel layout         : L R
  82. Sampling rate          : 48.0 kHz
  83. Frame rate           : 46.875 FPS (1024 SPF)
  84. Compression mode         : Lossy
  85. Delay relative to video      : 9 ms
  86. Stream size          : 89.1 MiB (0%)
  87. Title            : Commentary 1
  88. Language           : English
  89. Default            : No
  90. Forced           : No

  91. Audio #4
  92. ID             : 5
  93. Format           : AAC LC
  94. Format/Info          : Advanced Audio Codec Low Complexity
  95. Codec ID           : A_AAC-2
  96. Duration           : 2 h 0 min
  97. Bit rate           : 107 kb/s
  98. Channel(s)           : 2 channels
  99. Channel layout         : L R
  100. Sampling rate          : 48.0 kHz
  101. Frame rate           : 46.875 FPS (1024 SPF)
  102. Compression mode         : Lossy
  103. Delay relative to video      : 9 ms
  104. Stream size          : 91.9 MiB (0%)
  105. Title            : Commentary 2
  106. Language           : English
  107. Default            : No
  108. Forced           : No

  109. Text #1
  110. ID             : 6
  111. Format           : PGS
  112. Muxing mode          : zlib
  113. Codec ID           : S_HDMV/PGS
  114. Codec ID/Info          : Picture based subtitle format used on BDs/HD-DVDs
  115. Duration           : 1 h 53 min
  116. Bit rate           : 21.8 kb/s
  117. Count of elements        : 1948
  118. Stream size          : 17.8 MiB (0%)
  119. Title            : English SDH
  120. Language           : English
  121. Default            : No
  122. Forced           : No

  123. Text #2
  124. ID             : 7
  125. Format           : PGS
  126. Muxing mode          : zlib
  127. Codec ID           : S_HDMV/PGS
  128. Codec ID/Info          : Picture based subtitle format used on BDs/HD-DVDs
  129. Duration           : 1 h 59 min
  130. Bit rate           : 17.3 kb/s
  131. Count of elements        : 1810
  132. Stream size          : 14.7 MiB (0%)
  133. Title            : French
  134. Language           : French
  135. Default            : No
  136. Forced           : No

  137. Text #3
  138. ID             : 8
  139. Format           : PGS
  140. Muxing mode          : zlib
  141. Codec ID           : S_HDMV/PGS
  142. Codec ID/Info          : Picture based subtitle format used on BDs/HD-DVDs
  143. Duration           : 1 h 59 min
  144. Bit rate           : 23.8 kb/s
  145. Count of elements        : 1996
  146. Stream size          : 20.3 MiB (0%)
  147. Title            : German
  148. Language           : German
  149. Default            : No
  150. Forced           : No

  151. Text #4
  152. ID             : 9
  153. Format           : PGS
  154. Muxing mode          : zlib
  155. Codec ID           : S_HDMV/PGS
  156. Codec ID/Info          : Picture based subtitle format used on BDs/HD-DVDs
  157. Duration           : 1 h 59 min
  158. Bit rate           : 21.3 kb/s
  159. Count of elements        : 2004
  160. Stream size          : 18.2 MiB (0%)
  161. Title            : Italian
  162. Language           : Italian
  163. Default            : No
  164. Forced           : No

  165. Text #5
  166. ID             : 10
  167. Format           : PGS
  168. Muxing mode          : zlib
  169. Codec ID           : S_HDMV/PGS
  170. Codec ID/Info          : Picture based subtitle format used on BDs/HD-DVDs
  171. Duration           : 1 h 54 min
  172. Bit rate           : 18.8 kb/s
  173. Count of elements        : 1996
  174. Stream size          : 15.4 MiB (0%)
  175. Title            : Spanish
  176. Language           : Spanish
  177. Default            : No
  178. Forced           : No

  179. Text #6
  180. ID             : 11
  181. Format           : PGS
  182. Muxing mode          : zlib
  183. Codec ID           : S_HDMV/PGS
  184. Codec ID/Info          : Picture based subtitle format used on BDs/HD-DVDs
  185. Duration           : 1 h 53 min
  186. Bit rate           : 563 b/s
  187. Count of elements        : 62
  188. Stream size          : 469 KiB (0%)
  189. Title            : French
  190. Language           : French
  191. Default            : No
  192. Forced           : No

  193. Text #7
  194. ID             : 12
  195. Format           : PGS
  196. Muxing mode          : zlib
  197. Codec ID           : S_HDMV/PGS
  198. Codec ID/Info          : Picture based subtitle format used on BDs/HD-DVDs
  199. Duration           : 1 h 48 min
  200. Bit rate           : 134 b/s
  201. Count of elements        : 16
  202. Stream size          : 107 KiB (0%)
  203. Title            : Spanish
  204. Language           : Spanish
  205. Default            : No
  206. Forced           : No

  207. Text #8
  208. ID             : 13
  209. Format           : PGS
  210. Muxing mode          : zlib
  211. Codec ID           : S_HDMV/PGS
  212. Codec ID/Info          : Picture based subtitle format used on BDs/HD-DVDs
  213. Duration           : 1 h 52 min
  214. Bit rate           : 341 b/s
  215. Count of elements        : 44
  216. Stream size          : 282 KiB (0%)
  217. Title            : Czech
  218. Language           : Czech
  219. Default            : No
  220. Forced           : No

  221. Text #9
  222. ID             : 14
  223. Format           : PGS
  224. Muxing mode          : zlib
  225. Codec ID           : S_HDMV/PGS
  226. Codec ID/Info          : Picture based subtitle format used on BDs/HD-DVDs
  227. Duration           : 1 h 54 min
  228. Bit rate           : 15.7 kb/s
  229. Count of elements        : 1714
  230. Stream size          : 12.8 MiB (0%)
  231. Title            : Czech
  232. Language           : Czech
  233. Default            : No
  234. Forced           : No

  235. Text #10
  236. ID             : 15
  237. Format           : PGS
  238. Muxing mode          : zlib
  239. Codec ID           : S_HDMV/PGS
  240. Codec ID/Info          : Picture based subtitle format used on BDs/HD-DVDs
  241. Duration           : 1 h 54 min
  242. Bit rate           : 16.9 kb/s
  243. Count of elements        : 1794
  244. Stream size          : 13.8 MiB (0%)
  245. Title            : Polish
  246. Language           : Polish
  247. Default            : No
  248. Forced           : No

  249. Text #11
  250. ID             : 16
  251. Format           : PGS
  252. Muxing mode          : zlib
  253. Codec ID           : S_HDMV/PGS
  254. Codec ID/Info          : Picture based subtitle format used on BDs/HD-DVDs
  255. Duration           : 1 h 54 min
  256. Bit rate           : 15.1 kb/s
  257. Count of elements        : 1830
  258. Stream size          : 12.3 MiB (0%)
  259. Title            : Japanese
  260. Language           : Japanese
  261. Default            : No
  262. Forced           : No

  263. Text #12
  264. ID             : 17
  265. Format           : PGS
  266. Muxing mode          : zlib
  267. Codec ID           : S_HDMV/PGS
  268. Codec ID/Info          : Picture based subtitle format used on BDs/HD-DVDs
  269. Duration           : 1 h 53 min
  270. Bit rate           : 620 b/s
  271. Count of elements        : 62
  272. Stream size          : 517 KiB (0%)
  273. Title            : Italian
  274. Language           : Italian
  275. Default            : No
  276. Forced           : No

  277. Text #13
  278. ID             : 18
  279. Format           : PGS
  280. Muxing mode          : zlib
  281. Codec ID           : S_HDMV/PGS
  282. Codec ID/Info          : Picture based subtitle format used on BDs/HD-DVDs
  283. Duration           : 1 h 59 min
  284. Bit rate           : 41.8 kb/s
  285. Count of elements        : 3490
  286. Stream size          : 35.9 MiB (0%)
  287. Title            : Japanese
  288. Language           : Japanese
  289. Default            : No
  290. Forced           : No

  291. Text #14
  292. ID             : 19
  293. Format           : PGS
  294. Muxing mode          : zlib
  295. Codec ID           : S_HDMV/PGS
  296. Codec ID/Info          : Picture based subtitle format used on BDs/HD-DVDs
  297. Duration           : 1 h 53 min
  298. Bit rate           : 79 b/s
  299. Count of elements        : 16
  300. Stream size          : 66.1 KiB (0%)
  301. Title            : Japanese
  302. Language           : Japanese
  303. Default            : No
  304. Forced           : No

  305. Text #15
  306. ID             : 20
  307. Format           : PGS
  308. Muxing mode          : zlib
  309. Codec ID           : S_HDMV/PGS
  310. Codec ID/Info          : Picture based subtitle format used on BDs/HD-DVDs
  311. Duration           : 1 h 58 min
  312. Bit rate           : 23.8 kb/s
  313. Count of elements        : 1856
  314. Stream size          : 20.1 MiB (0%)
  315. Title            : Japanese
  316. Language           : Japanese
  317. Default            : No
  318. Forced           : No

  319. Menu
  320. 00:00:00.000         : en:Chapter 01
  321. 00:02:03.999         : en:Chapter 02
  322. 00:03:05.852         : en:Chapter 03
  323. 00:06:49.159         : en:Chapter 04
  324. 00:09:49.130         : en:Chapter 05
  325. 00:11:00.243         : en:Chapter 06
  326. 00:13:46.826         : en:Chapter 07
  327. 00:16:57.683         : en:Chapter 08
  328. 00:19:32.963         : en:Chapter 09
  329. 00:22:50.077         : en:Chapter 10
  330. 00:23:44.423         : en:Chapter 11
  331. 00:27:27.688         : en:Chapter 12
  332. 00:31:04.029         : en:Chapter 13
  333. 00:33:02.439         : en:Chapter 14
  334. 00:35:01.224         : en:Chapter 15
  335. 00:39:19.607         : en:Chapter 16
  336. 00:41:46.879         : en:Chapter 17
  337. 00:44:31.252         : en:Chapter 18
  338. 00:47:34.769         : en:Chapter 19
  339. 00:50:10.591         : en:Chapter 20
  340. 00:54:00.988         : en:Chapter 21
  341. 00:57:09.718         : en:Chapter 22
  342. 00:58:08.151         : en:Chapter 23
  343. 01:01:32.689         : en:Chapter 24
  344. 01:05:21.251         : en:Chapter 25
  345. 01:08:59.177         : en:Chapter 26
  346. 01:12:45.278         : en:Chapter 27
  347. 01:14:50.403         : en:Chapter 28
  348. 01:19:15.084         : en:Chapter 29
  349. 01:22:38.620         : en:Chapter 30
  350. 01:25:00.012         : en:Chapter 31
  351. 01:27:56.605         : en:Chapter 32
  352. 01:31:32.570         : en:Chapter 33
  353. 01:34:34.502         : en:Chapter 34
  354. 01:37:00.064         : en:Chapter 35
  355. 01:40:33.069         : en:Chapter 36
  356. 01:54:02.836         : en:Chapter 37
  357. 01:55:13.115         : en:Chapter 38
  358. 02:00:14.916         : en:Chapter 39
复制代码











  


Blade.1998.2160p.UHD.BluRay.x265.10bit.HDR.TrueHD.7.1.Atmos-B0MBARDiERS.torrent (81.79 KB, 下载次数: 14)


回复

使用道具 举报

您需要登录后才可以回帖 登录 | 立即注册

本版积分规则

QQ|Archiver|手机版|小黑屋|蓝光电影网

GMT+8, 2024-6-26 06:42 , Processed in 0.150571 second(s), 24 queries .

Powered by Discuz! X3.4

Copyright © 2001-2020, Tencent Cloud.

快速回复 返回顶部 返回列表