找回密码
 立即注册

QQ登录

只需一步,快速开始

查看: 1287|回复: 1

[10bit.HDR] 借刀杀人/同行杀机 Collateral.2004.2160p.UHD.BluRay.x265.10bit.HDR.DTS-HD.MA.5.1-SWTYBLZ 32.46GB

[复制链接]

已抛锚 成长值: 310

0

精华

0

好友

0

听众

管理员

Rank: 9Rank: 9Rank: 9

蓝光币
7041
发表于 2020-12-3 15:09:07 | 显示全部楼层 |阅读模式


译  名 借刀杀人 / 同业杀机(港) / 夕照杀神(台) / 间接危险
片  名 Collateral
年  代 2004
产  地 美国
类  别 剧情 / 惊悚 / 犯罪
语  言 英语 / 西班牙语
上映日期 2004-08-06(美国)
IMDb评分7.5/10 from 351472 users
IMDb链接https://www.imdb.com/title/tt0369339
豆瓣评分 7.4/10 from 50524 users
豆瓣链接 https://movie.douban.com/subject/1308762/
片  长 120 分钟
导  演 迈克尔·曼 Michael Mann
编  剧 斯图尔特·贝亚蒂耶 Stuart Beattie
主  演 汤姆·克鲁斯 Tom Cruise
     杰米·福克斯 Jamie Foxx
     贾达·萍克·史姑娘 Jada Pinkett Smith
     马克·鲁弗洛 Mark Ruffalo
     彼得·博格 Peter Berg
     布鲁斯·麦克吉尔 Bruce McGill
     哈维尔·巴登 Javier Bardem
     杰森·斯坦森 Jason Statham
     艾尔玛·霍尔 Irma P. Hall
     巴里·沙巴卡·亨利 Barry Shabaka Henley
     理查德·琼斯 Richard T. Jones
     博德希·埃夫曼 Bodhi Elfman
     黛比·玛扎 Debi Mazar
     埃米里奥·瑞弗拉 Emilio Rivera
     杰米·麦克布莱德 Jamie McBride

标  签 犯罪 | 美国 | 行动 | 剧情 | Tomcruise | 美国电影 | 2004 | Tom_Cruise
简  介
  夜幕低垂,麦克斯(杰米·福克斯 Jamie Foxx 饰)接了一位必定要改变他人生的客人――文森特(汤姆·克鲁斯 Tom Cruise 饰)。
  文森特受雇于一家跨国贩毒团体,这晚来到洛杉矶要干掉五名重要证人。他与我们经常看到的杀手大纷歧样,他天生喜好絮聒,在他挟持 麦克斯去帮他完成杀野生作时,还理直气壮――“我又不是卢旺达大屠杀,我杀人原本就不是好人,可以说是替天行道,你有什么可以指责我的?”麦克斯也一时语塞。
  这晚要杀的最初一小我是助理检查官,她曾是麦克斯的顾客。麦克斯决心庇护她……
获奖情况
  第77届奥斯卡金像奖(2005)
  最好男配角(提名) 杰米·福克斯
  最好剪辑(提名) 吉姆·米勒 / 保罗·鲁贝尔
  第61届威尼斯电影节(2004)
  未来数字电影奖
  第62届金球奖(2005)
  电影类 最好男配角(提名) 杰米·福克斯
  第58届英国电影学院奖(2005)
  电影奖 最好导演(提名) 迈克尔·曼
  电影奖 最好男配角(提名) 杰米·福克斯
  电影奖 最好原创剧本(提名) 斯图尔特·贝亚蒂耶
  电影奖 最好摄影 迪昂·毕比 / 保罗·卡梅隆
  电影奖 最好剪辑(提名) 吉姆·米勒 / 保罗·鲁贝尔
  电影奖 最好音效(提名) 李·奥尔洛夫 / 迈克尔·明克勒 / 迈隆·内廷加 / 艾里奥特·科雷兹
  第14届MTV电影奖(2005)
  MTV电影奖 最好反派(提名) 汤姆·克鲁斯
  第5届美国电影学会奖(2004)
  年度佳片
  1. Video
  2. ID             : 1
  3. Format           : HEVC
  4. Format/Info          : High Efficiency Video Coding
  5. Format profile         : Main [email]10@L5.1[/email]@High
  6. HDR format           : SMPTE ST 2086, HDR10 compatible
  7. Codec ID           : V_MPEGH/ISO/HEVC
  8. Duration           : 1 h 59 min
  9. Bit rate           : 34.0 Mb/s
  10. Width            : 3 840 pixels
  11. Height           : 1 600 pixels
  12. Display aspect ratio       : 2.40:1
  13. Frame rate mode        : Constant
  14. Frame rate           : 23.976 (24000/1001/45378) FPS
  15. Color space          : YUV
  16. Chroma subsampling       : 4:2:0 (Type 2)
  17. Bit depth          : 10 bits
  18. Bits/(Pixel*Frame)       : 0.231
  19. Stream size          : 28.5 GiB (88%)
  20. Title            : Collateral.2004.2160p.UHD.BluRay.x265.10bit.HDR.DTS-HD.MA.5.1-SWTYBLZ
  21. Writing library        : x265 3.0_Au+10-74a8672ea4f7:[Windows][GCC 8.2.1][64 bit] 10bit
  22. Encoding settings        : cpuid=1111039 / frame-threads=6 / numa-pools=24,24,24,24 / wpp / no-pmode / no-pme / no-psnr / no-ssim / log-level=2 / input-csp=1 / input-res=3840x1600 / interlace=0 / total-frames=0 / level-idc=51 / high-tier=1 / uhd-bd=0 / ref=3 / no-allow-non-conformance / repeat-headers / annexb / aud / hrd / info / hash=0 / no-temporal-layers / no-open-gop / min-keyint=1 / keyint=24 / gop-lookahead=0 / bframes=4 / b-adapt=2 / b-pyramid / bframe-bias=0 / rc-lookahead=25 / lookahead-slices=4 / scenecut=40 / radl=0 / no-splice / no-intra-refresh / ctu=64 / min-cu-size=8 / no-rect / no-amp / max-tu-size=32 / tu-inter-depth=1 / tu-intra-depth=1 / limit-tu=0 / rdoq-level=0 / dynamic-rd=0.00 / no-ssim-rd / signhide / no-tskip / nr-intra=0 / nr-inter=0 / no-constrained-intra / strong-intra-smoothing / max-merge=2 / limit-refs=3 / no-limit-modes / me=1 / subme=2 / merange=57 / temporal-mvp / weightp / no-weightb / no-analyze-src-pics / deblock=0:0 / no-sao / no-sao-non-deblock / rd=3 / no-early-skip / rskip / no-fast-intra / no-tskip-fast / no-cu-lossless / no-b-intra / no-splitrd-skip / rdpenalty=0 / psy-rd=2.00 / psy-rdoq=0.00 / no-rd-refine / no-lossless / cbqpoffs=0 / crqpoffs=0 / rc=crf / crf=16.0 / qcomp=0.60 / qpstep=4 / stats-write=0 / stats-read=0 / vbv-maxrate=160000 / vbv-bufsize=160000 / vbv-init=0.9 / crf-max=0.0 / crf-min=0.0 / ipratio=1.40 / pbratio=1.30 / aq-mode=1 / aq-strength=1.00 / cutree / zone-count=0 / no-strict-cbr / qg-size=32 / no-rc-grain / qpmax=69 / qpmin=0 / no-const-vbv / sar=1 / overscan=0 / videoformat=5 / range=0 / colorprim=9 / transfer=16 / colormatrix=9 / chromaloc=1 / chromaloc-top=2 / chromaloc-bottom=2 / display-window=0 / master-display=G(13250,34500)B(7500,3000)R(34000,16000)WP(15635,16450)L(40000000,50) / max-cll=401,66 / min-luma=0 / max-luma=1023 / log2-max-poc-lsb=8 / vui-timing-info / vui-hrd-info / slices=1 / opt-qp-pps / opt-ref-list-length-pps / no-multi-pass-opt-rps / scenecut-bias=0.05 / no-opt-cu-delta-qp / no-aq-motion / hdr / hdr-opt / no-dhdr10-opt / no-idr-recovery-sei / analysis-reuse-level=5 / scale-factor=0 / refine-intra=0 / refine-inter=0 / refine-mv=0 / refine-ctu-distortion=0 / no-limit-sao / ctu-info=0 / no-lowpass-dct / refine-analysis-type=0 / copy-pic=1 / max-ausize-factor=1.0 / no-dynamic-refine / no-single-sei / no-hevc-aq / no-svt / qp-adaptation-range=1.00
  23. Language           : English
  24. Default            : Yes
  25. Forced           : No
  26. Color range          : Limited
  27. Color primaries        : BT.2020
  28. Transfer characteristics     : PQ
  29. Matrix coefficients        : BT.2020 non-constant
  30. Mastering display color primaries  : Display P3
  31. Mastering display luminance    : min: 0.0050 cd/m2, max: 4000 cd/m2
  32. Maximum Content Light Level    : 401 cd/m2
  33. Maximum Frame-Average Light Level  : 66 cd/m2

  34. Audio #1
  35. ID             : 2
  36. ID in the original source medium   : 4352 (0x1100)
  37. Format           : DTS XLL
  38. Format/Info          : Digital Theater Systems
  39. Commercial name        : DTS-HD Master Audio
  40. Codec ID           : A_DTS
  41. Duration           : 1 h 59 min
  42. Bit rate mode          : Variable
  43. Bit rate           : 3 868 kb/s
  44. Channel(s)           : 6 channels
  45. Channel layout         : C L R Ls Rs LFE
  46. Sampling rate          : 48.0 kHz
  47. Frame rate           : 93.750 FPS (512 SPF)
  48. Bit depth          : 24 bits
  49. Compression mode         : Lossless
  50. Stream size          : 3.24 GiB (10%)
  51. Title            : Collateral.2004.2160p.UHD.BluRay.x265.10bit.HDR.DTS-HD.MA.5.1-SWTYBLZ
  52. Language           : English
  53. Default            : Yes
  54. Forced           : No
  55. Original source medium       : Blu-ray

  56. Audio #2
  57. ID             : 3
  58. Format           : AC-3
  59. Format/Info          : Audio Coding 3
  60. Commercial name        : Dolby Digital
  61. Codec ID           : A_AC3
  62. Duration           : 1 h 59 min
  63. Bit rate mode          : Constant
  64. Bit rate           : 640 kb/s
  65. Channel(s)           : 6 channels
  66. Channel layout         : L R C LFE Ls Rs
  67. Sampling rate          : 48.0 kHz
  68. Frame rate           : 31.250 FPS (1536 SPF)
  69. Compression mode         : Lossy
  70. Stream size          : 549 MiB (2%)
  71. Title            : Collateral.2004.2160p.UHD.BluRay.x265.10bit.HDR.DTS-HD.MA.5.1-SWTYBLZ
  72. Language           : English
  73. Service kind         : Complete Main
  74. Default            : No
  75. Forced           : No

  76. Text #1
  77. ID             : 4
  78. Format           : UTF-8
  79. Codec ID           : S_TEXT/UTF8
  80. Codec ID/Info          : UTF-8 Plain Text
  81. Duration           : 1 h 50 min
  82. Bit rate           : 52 b/s
  83. Count of elements        : 1161
  84. Stream size          : 42.9 KiB (0%)
  85. Title            : English-SRT
  86. Language           : English
  87. Default            : Yes
  88. Forced           : No

  89. Text #2
  90. ID             : 5
  91. ID in the original source medium   : 4768 (0x12A0)
  92. Format           : PGS
  93. Muxing mode          : zlib
  94. Codec ID           : S_HDMV/PGS
  95. Codec ID/Info          : Picture based subtitle format used on BDs/HD-DVDs
  96. Duration           : 1 h 50 min
  97. Bit rate           : 36.1 kb/s
  98. Count of elements        : 2332
  99. Stream size          : 28.6 MiB (0%)
  100. Title            : English-PGS
  101. Language           : English
  102. Default            : No
  103. Forced           : No
  104. Original source medium       : Blu-ray

  105. Text #3
  106. ID             : 6
  107. ID in the original source medium   : 4769 (0x12A1)
  108. Format           : PGS
  109. Muxing mode          : zlib
  110. Codec ID           : S_HDMV/PGS
  111. Codec ID/Info          : Picture based subtitle format used on BDs/HD-DVDs
  112. Duration           : 1 h 59 min
  113. Bit rate           : 38.6 kb/s
  114. Count of elements        : 2828
  115. Stream size          : 32.9 MiB (0%)
  116. Title            : English-SDH-PGS
  117. Language           : English
  118. Default            : No
  119. Forced           : No
  120. Original source medium       : Blu-ray

  121. Text #4
  122. ID             : 7
  123. ID in the original source medium   : 4770 (0x12A2)
  124. Format           : PGS
  125. Muxing mode          : zlib
  126. Codec ID           : S_HDMV/PGS
  127. Codec ID/Info          : Picture based subtitle format used on BDs/HD-DVDs
  128. Duration           : 1 h 58 min
  129. Bit rate           : 30.1 kb/s
  130. Count of elements        : 2213
  131. Stream size          : 25.5 MiB (0%)
  132. Title            : French-PGS
  133. Language           : French
  134. Default            : No
  135. Forced           : No
  136. Original source medium       : Blu-ray

  137. Text #5
  138. ID             : 8
  139. ID in the original source medium   : 4771 (0x12A3)
  140. Format           : PGS
  141. Muxing mode          : zlib
  142. Codec ID           : S_HDMV/PGS
  143. Codec ID/Info          : Picture based subtitle format used on BDs/HD-DVDs
  144. Duration           : 1 h 58 min
  145. Bit rate           : 36.3 kb/s
  146. Count of elements        : 2278
  147. Stream size          : 30.8 MiB (0%)
  148. Title            : German-PGS
  149. Language           : German
  150. Default            : No
  151. Forced           : No
  152. Original source medium       : Blu-ray

  153. Menu
  154. 00:00:00.000         : en:Chapter 01
  155. 00:13:16.712         : en:Chapter 02
  156. 00:17:52.196         : en:Chapter 03
  157. 00:24:19.124         : en:Chapter 04
  158. 00:27:16.843         : en:Chapter 05
  159. 00:29:54.417         : en:Chapter 06
  160. 00:33:46.858         : en:Chapter 07
  161. 00:37:02.845         : en:Chapter 08
  162. 00:39:26.072         : en:Chapter 09
  163. 00:47:55.080         : en:Chapter 10
  164. 00:54:07.452         : en:Chapter 11
  165. 00:56:09.240         : en:Chapter 12
  166. 00:58:58.451         : en:Chapter 13
  167. 01:12:16.290         : en:Chapter 14
  168. 01:16:16.113         : en:Chapter 15
  169. 01:18:37.504         : en:Chapter 16
  170. 01:25:32.210         : en:Chapter 17
  171. 01:34:43.719         : en:Chapter 18
  172. 01:45:04.089         : en:Chapter 19
  173. 01:53:03.777         : en:Chapter 20
复制代码




















Collateral.2004.2160p.UHD.BluRay.x265.10bit.HDR.DTS-HD.MA.5.1-SWTYBLZ.torrent (81.79 KB, 下载次数: 15)


回复

使用道具 举报

0

精华

0

好友

4

听众

新手上路

Rank: 1

蓝光币
0
发表于 2023-8-6 10:07:59 | 显示全部楼层
辛苦楼主分享
回复

使用道具 举报

您需要登录后才可以回帖 登录 | 立即注册

本版积分规则

QQ|Archiver|手机版|小黑屋|蓝光电影网

GMT+8, 2024-6-26 06:19 , Processed in 0.064028 second(s), 24 queries .

Powered by Discuz! X3.4

Copyright © 2001-2020, Tencent Cloud.

快速回复 返回顶部 返回列表