找回密码
 立即注册

QQ登录

只需一步,快速开始

查看: 1493|回复: 0

[10bit.HDR] 指环王2:双塔奇兵/指环王II:双塔 The.Lord.of.the.Rings.The.Two.Towers.2002.EXTENDED.2160p.UHD.BluRay.x265.10bit.HDR.TrueHD.7.1.Atmos-BOREDOR 36.84GB

[复制链接]

已抛锚 成长值: 310

0

精华

0

好友

0

听众

管理员

Rank: 9Rank: 9Rank: 9

蓝光币
7041
发表于 2020-12-3 14:50:54 | 显示全部楼层 |阅读模式


译  名 指环王2:双塔奇兵 / 指环王II:双塔 / 魔戒2:双塔奇谋 / 魔戒二部曲:双城奇谋
片  名 The Lord of the Rings: The Two Towers
年  代 2002
产  地 美国 / 新西兰
类  别 剧情 / 行动 / 奇异 / 冒险
语  言 英语 / 辛达林语 / 现代英语
上映日期 2002-12-05(纽约首映) / 2002-12-18(美国) / 2003-04-25(中国大陆)
IMDb评分8.7/10 from 1430066 users
IMDb链接https://www.imdb.com/title/tt0167261
豆瓣评分 9.1/10 from 490105 users
豆瓣链接 https://movie.douban.com/subject/1291572/
片  长 179分钟
导  演 彼得·杰克逊 Peter Jackson
编  剧 弗兰·威尔士 Fran Walsh / Philippa Boyens / Stephen Sinclair / 彼得·杰克逊 Peter Jackson / 托尔金 J.R.R. Tolkien
主  演 伊利亚·伍德 Elijah Wood
     西恩·奥斯汀 Sean Astin
     多米尼克·莫纳汉 Dominic Monaghan
     奥兰多·布鲁姆 Orlando Bloom
     维果·莫腾森 Viggo Mortensen
     伊恩·麦克莱恩 Ian McKellen
     凯特·布兰切特 Cate Blanchett
     比利·博伊德 Billy Boyd
     杰德·布罗菲 Jed Brophy
     丽芙·泰勒 Liv Tyler
     安迪·瑟金斯 Andy Serkis
     米兰达·奥图 Miranda Otto
     雨果·维文 Hugo Weaving
     布拉德·道里夫 Brad Dourif
     卡卢姆·吉廷斯 Calum Gittins
     伯纳德·希尔 Bernard Hill
     布鲁斯·霍普金斯 Bruce Hopkins
     克里斯托弗·李 Christopher Lee
     纳撒尼尔·利斯 Nathaniel Lees
     罗宾·马尔科姆 Robyn Malcolm
     约翰·贝西 John Bach
     萨拉·贝克 Sala Baker
     克雷格·帕克 Craig Parker
     布鲁斯·菲利普斯 Bruce Phillips
     Robert Pollock
     约翰·瑞斯-戴维斯 John Rhys-Davies
     奥利维亚·田內 Olivia Tennet
     卡尔·厄本 Karl Urban
     史蒂芬·乌瑞 Stephen Ure
     大卫·文翰 David Wenham
     菲利普·格里夫 Philip Grieve
     肖恩·宾 Sean Bean
     约翰·诺贝尔 John Noble
     Jarl Benzon
     J?rn Benzon
     Ben Britton
     阿利斯泰尔·布朗宁 Alistair Browning
     Sean Button
     Robert Catto
     罗德尼·库克 Rodney Cook
     卡尔洛斯德林克沃特 Karlos Drinkwater
     西奥沙福瓦 Siosa Fonua
     本·弗兰舍姆 Ben Fransham
     Jonathan Harding
     Lucas Hayward
     丹·汉纳 Dan Hennah
     Paul Holmes
     杰森霍德 Jason Hood
     彼得·杰克逊 Peter Jackson
     Sam Kelly
     Sandro Kopp

标  签 魔幻 | 史诗 | 典范 | 美国 | 战争 | 大片 | 新西兰 | 2002
简  介
  第二部在延续第一部气概的同时,故事显现出多线成长的格式,情节有了更高的观赏性。
  第一部结尾,博罗米尔被强兽人杀死以后,两个哈比族人皮和蔼梅利也被强兽人绑架,阿拉贡、精灵莱戈拉斯(奥兰多?布鲁姆 饰)、侏儒金利一路追踪强兽人,救援皮和蔼梅利,碰到了“新生”的白袍巫师甘道夫(伊恩?麦凯伦 饰)。此时,投诚索伦的白袍巫师萨鲁曼控制了人类洛汉王国的国王,并派出大量的强兽人军队,预备消灭人类。阿拉贡、莱戈拉斯和金利在甘道夫的率领下,帮助洛汉王国匹敌邪恶气力的入侵。
  荣幸的皮和蔼梅利被会措辞的树精救了出来,而且碰到“新生”的甘道夫,在甘道夫的授意下,树精庇护了两人的平安,而且带他们加入树精大会,大会上,树精们会商看待中土大战的态度:是继续傍边立者,唾面自干,还是奋起抵挡?
  身负重任的佛罗多(伊莱贾?伍德 饰)和山姆继续向末日山脉进步,一路上被咕噜跟踪,弗罗多依靠至尊魔戒的气力,成为了咕噜的仆人,在咕噜的率领下,他们到了末日山脉的进口,黑门。就在他们预备进入之时,博罗米尔的弟弟法莫尔出现,将他们带回了刚铎。弗罗多又遇上了新的危机:法莫尔想操纵至尊魔戒的气力匹敌萨鲁曼的进犯……
获奖情况
  第75届奥斯卡金像奖(2003)
  最好影片(提名) 巴里·M·奥斯本 / 彼得·杰克逊 / 弗兰·威尔士
  最好剪辑(提名) 迈克·霍顿
  最好视觉结果 吉姆·瑞吉尔 / 兰德尔·威廉·库克 / 乔·莱特瑞 / Alex Funke
  最好音效剪辑 迈克·霍普金斯 / 伊桑·范德莱恩
  最好声响(提名) 迈克·亨吉斯 / 哈蒙德·匹克 / 克里斯托弗·博伊斯 / 迈克尔·斯曼外科
  最好艺术指导(提名) 格兰特·梅杰 / 丹·汉纳 / 艾伦·李
  第60届金球奖(2003)
  电影类 最好剧情片(提名)
  电影类 最好导演(提名) 彼得·杰克逊
  第56届英国电影学院奖(2003)
  电影奖 最好影片(提名) 巴里·M·奥斯本 / 彼得·杰克逊 / 弗兰·威尔士
  电影奖 最好导演(提名) 彼得·杰克逊
  电影奖 最好摄影(提名) 安德鲁·莱斯尼
  电影奖 最好剪辑(提名) 迈克·霍顿 / Jabez Olssen
  电影奖 最好化装/发型(提名) Peter Owen / 彼得·金 / 理查德·泰勒
  电影奖 最好打扮设想 恩吉拉·迪克森 / 理查德·泰勒
  电影奖 最好艺术指导(提名) 格兰特·梅杰
  电影奖 最好特别视觉结果 吉姆·瑞吉尔 / 兰德尔·威廉·库克 / 乔·莱特瑞 / Alex Funke
  电影奖 最好音效(提名) 迈克·亨吉斯 / 迈克·霍普金斯 / 迈克尔·斯曼外科 / 克里斯托弗·博伊斯 / 哈蒙德·匹克 / David Farmer / 伊桑·范德莱恩
  电影奖 观众挑选奖
  第27届日本电影学院奖(2004)
  最好外语片(提名)
  第3届美国电影学会奖(2002)
  年度佳片
  1. Video
  2. ID             : 1
  3. Format           : HEVC
  4. Format/Info          : High Efficiency Video Coding
  5. Format profile         : Main [email]10@L5.1[/email]@High
  6. HDR format           : SMPTE ST 2086, HDR10 compatible
  7. Codec ID           : V_MPEGH/ISO/HEVC
  8. Duration           : 3 h 55 min
  9. Bit rate           : 18.6 Mb/s
  10. Width            : 3 840 pixels
  11. Height           : 1 610 pixels
  12. Display aspect ratio       : 2.40:1
  13. Frame rate mode        : Constant
  14. Frame rate           : 23.976 (24000/1001/45378) FPS
  15. Color space          : YUV
  16. Chroma subsampling       : 4:2:0 (Type 2)
  17. Bit depth          : 10 bits
  18. Bits/(Pixel*Frame)       : 0.125
  19. Stream size          : 30.6 GiB (83%)
  20. Writing library        : x265 3.4+12-g9103319fc:[Windows][MSVC 1900][64 bit] 10bit
  21. Encoding settings        : cpuid=1176575 / frame-threads=5 / numa-pools=36 / wpp / no-pmode / no-pme / no-psnr / no-ssim / log-level=2 / input-csp=1 / input-res=3840x1610 / interlace=0 / total-frames=338832 / level-idc=51 / high-tier=1 / uhd-bd=0 / ref=4 / no-allow-non-conformance / repeat-headers / annexb / aud / hrd / info / hash=0 / no-temporal-layers / no-open-gop / min-keyint=23 / keyint=250 / gop-lookahead=0 / bframes=4 / b-adapt=2 / b-pyramid / bframe-bias=0 / rc-lookahead=25 / lookahead-slices=4 / scenecut=40 / hist-scenecut=0 / radl=0 / no-splice / no-intra-refresh / ctu=64 / min-cu-size=8 / rect / no-amp / max-tu-size=32 / tu-inter-depth=1 / tu-intra-depth=1 / limit-tu=0 / rdoq-level=2 / dynamic-rd=0.00 / no-ssim-rd / signhide / no-tskip / nr-intra=0 / nr-inter=0 / no-constrained-intra / no-strong-intra-smoothing / max-merge=3 / limit-refs=3 / limit-modes / me=3 / subme=3 / merange=57 / temporal-mvp / no-frame-dup / no-hme / weightp / no-weightb / no-analyze-src-pics / deblock=-3:-3 / no-sao / no-sao-non-deblock / rd=4 / selective-sao=0 / no-early-skip / rskip / no-fast-intra / no-tskip-fast / no-cu-lossless / no-b-intra / no-splitrd-skip / rdpenalty=0 / psy-rd=2.00 / psy-rdoq=1.00 / no-rd-refine / no-lossless / cbqpoffs=0 / crqpoffs=0 / rc=crf / crf=12.5 / qcomp=0.60 / qpstep=4 / stats-write=0 / stats-read=0 / vbv-maxrate=160000 / vbv-bufsize=160000 / vbv-init=0.9 / crf-max=0.0 / crf-min=0.0 / ipratio=1.40 / pbratio=1.30 / aq-mode=2 / aq-strength=0.80 / cutree / zone-count=0 / no-strict-cbr / qg-size=32 / no-rc-grain / qpmax=69 / qpmin=0 / no-const-vbv / sar=1 / overscan=0 / videoformat=5 / range=0 / colorprim=9 / transfer=16 / colormatrix=9 / chromaloc=1 / chromaloc-top=2 / chromaloc-bottom=2 / display-window=0 / master-display=G(13250,34500)B(7500,3000)R(34000,16000)WP(15635,16450)L(40000000,50) / cll=827,329 / min-luma=0 / max-luma=1023 / log2-max-poc-lsb=8 / vui-timing-info / vui-hrd-info / slices=1 / no-opt-qp-pps / no-opt-ref-list-length-pps / no-multi-pass-opt-rps / scenecut-bias=0.05 / hist-threshold=0.01 / no-opt-cu-delta-qp / no-aq-motion / hdr10 / hdr10-opt / no-dhdr10-opt / no-idr-recovery-sei / analysis-reuse-level=0 / analysis-save-reuse-level=0 / analysis-load-reuse-level=0 / scale-factor=0 / refine-intra=0 / refine-inter=0 / refine-mv=1 / refine-ctu-distortion=0 / no-limit-sao / ctu-info=0 / no-lowpass-dct / refine-analysis-type=0 / copy-pic=1 / max-ausize-factor=1.0 / no-dynamic-refine / no-single-sei / no-hevc-aq / no-svt / no-field / qp-adaptation-range=1.00 / no-scenecut-aware-qpconformance-window-offsets / right=0 / bottom=0 / decoder-max-rate=0
  22. Default            : Yes
  23. Forced           : No
  24. Color range          : Limited
  25. Color primaries        : BT.2020
  26. Transfer characteristics     : PQ
  27. Matrix coefficients        : BT.2020 non-constant
  28. Mastering display color primaries  : Display P3
  29. Mastering display luminance    : min: 0.0050 cd/m2, max: 4000 cd/m2
  30. Maximum Content Light Level    : 827 cd/m2
  31. Maximum Frame-Average Light Level  : 329 cd/m2

  32. Audio #1
  33. ID             : 2
  34. Format           : MLP FBA 16-ch
  35. Format/Info          : Meridian Lossless Packing FBA with 16-channel presentation
  36. Commercial name        : Dolby TrueHD with Dolby Atmos
  37. Codec ID           : A_TRUEHD
  38. Duration           : 3 h 55 min
  39. Bit rate mode          : Variable
  40. Bit rate           : 3 057 kb/s
  41. Maximum bit rate         : 4 668 kb/s
  42. Channel(s)           : 8 channels
  43. Channel layout         : L R C LFE Ls Rs Lb Rb
  44. Sampling rate          : 48.0 kHz
  45. Frame rate           : 1 200.000 FPS (40 SPF)
  46. Compression mode         : Lossless
  47. Stream size          : 5.03 GiB (14%)
  48. Title            : Atmos 7.1
  49. Language           : English
  50. Default            : Yes
  51. Forced           : No
  52. Number of dynamic objects      : 11
  53. Bed channel count        : 1 channel
  54. Bed channel configuration      : LFE

  55. Audio #2
  56. ID             : 3
  57. Format           : AC-3
  58. Format/Info          : Audio Coding 3
  59. Commercial name        : Dolby Digital
  60. Codec ID           : A_AC3
  61. Duration           : 3 h 55 min
  62. Bit rate mode          : Constant
  63. Bit rate           : 448 kb/s
  64. Channel(s)           : 6 channels
  65. Channel layout         : L R C LFE Ls Rs
  66. Sampling rate          : 48.0 kHz
  67. Frame rate           : 31.250 FPS (1536 SPF)
  68. Compression mode         : Lossy
  69. Stream size          : 755 MiB (2%)
  70. Title            : AC-3 5.1
  71. Language           : English
  72. Service kind         : Complete Main
  73. Default            : No
  74. Forced           : No

  75. Text #1
  76. ID             : 4
  77. Format           : PGS
  78. Muxing mode          : zlib
  79. Codec ID           : S_HDMV/PGS
  80. Codec ID/Info          : Picture based subtitle format used on BDs/HD-DVDs
  81. Duration           : 3 h 33 min
  82. Bit rate           : 23.0 kb/s
  83. Count of elements        : 4324
  84. Stream size          : 35.2 MiB (0%)
  85. Title            : SDH
  86. Language           : English
  87. Default            : No
  88. Forced           : No

  89. Text #2
  90. ID             : 5
  91. Format           : PGS
  92. Muxing mode          : zlib
  93. Codec ID           : S_HDMV/PGS
  94. Codec ID/Info          : Picture based subtitle format used on BDs/HD-DVDs
  95. Duration           : 3 h 54 min
  96. Bit rate           : 19.1 kb/s
  97. Count of elements        : 4246
  98. Stream size          : 32.0 MiB (0%)
  99. Title            : fre
  100. Language           : French
  101. Default            : No
  102. Forced           : No

  103. Text #3
  104. ID             : 6
  105. Format           : PGS
  106. Muxing mode          : zlib
  107. Codec ID           : S_HDMV/PGS
  108. Codec ID/Info          : Picture based subtitle format used on BDs/HD-DVDs
  109. Duration           : 3 h 54 min
  110. Bit rate           : 19.6 kb/s
  111. Count of elements        : 4072
  112. Stream size          : 32.9 MiB (0%)
  113. Title            : spa
  114. Language           : Spanish
  115. Default            : No
  116. Forced           : No

  117. Text #4
  118. ID             : 7
  119. Format           : PGS
  120. Muxing mode          : zlib
  121. Codec ID           : S_HDMV/PGS
  122. Codec ID/Info          : Picture based subtitle format used on BDs/HD-DVDs
  123. Duration           : 3 h 54 min
  124. Bit rate           : 20.2 kb/s
  125. Count of elements        : 4066
  126. Stream size          : 33.9 MiB (0%)
  127. Title            : spa
  128. Language           : Spanish
  129. Default            : No
  130. Forced           : No

  131. Text #5
  132. ID             : 8
  133. Format           : PGS
  134. Muxing mode          : zlib
  135. Codec ID           : S_HDMV/PGS
  136. Codec ID/Info          : Picture based subtitle format used on BDs/HD-DVDs
  137. Duration           : 3 h 33 min
  138. Bit rate           : 23.7 kb/s
  139. Count of elements        : 4384
  140. Stream size          : 36.3 MiB (0%)
  141. Title            : ita
  142. Language           : Italian
  143. Default            : No
  144. Forced           : No

  145. Text #6
  146. ID             : 9
  147. Format           : PGS
  148. Muxing mode          : zlib
  149. Codec ID           : S_HDMV/PGS
  150. Codec ID/Info          : Picture based subtitle format used on BDs/HD-DVDs
  151. Duration           : 3 h 42 min
  152. Bit rate           : 26.9 kb/s
  153. Count of elements        : 4274
  154. Stream size          : 42.7 MiB (0%)
  155. Title            : ger
  156. Language           : German
  157. Default            : No
  158. Forced           : No

  159. Text #7
  160. ID             : 10
  161. Format           : PGS
  162. Muxing mode          : zlib
  163. Codec ID           : S_HDMV/PGS
  164. Codec ID/Info          : Picture based subtitle format used on BDs/HD-DVDs
  165. Duration           : 3 h 54 min
  166. Bit rate           : 20.1 kb/s
  167. Count of elements        : 3434
  168. Stream size          : 33.6 MiB (0%)
  169. Title            : dut
  170. Language           : Dutch
  171. Default            : No
  172. Forced           : No

  173. Text #8
  174. ID             : 11
  175. Format           : PGS
  176. Muxing mode          : zlib
  177. Codec ID           : S_HDMV/PGS
  178. Codec ID/Info          : Picture based subtitle format used on BDs/HD-DVDs
  179. Duration           : 3 h 54 min
  180. Bit rate           : 18.8 kb/s
  181. Count of elements        : 3062
  182. Stream size          : 31.5 MiB (0%)
  183. Title            : swe
  184. Language           : Swedish
  185. Default            : No
  186. Forced           : No

  187. Text #9
  188. ID             : 12
  189. Format           : PGS
  190. Muxing mode          : zlib
  191. Codec ID           : S_HDMV/PGS
  192. Codec ID/Info          : Picture based subtitle format used on BDs/HD-DVDs
  193. Duration           : 3 h 54 min
  194. Bit rate           : 17.7 kb/s
  195. Count of elements        : 3092
  196. Stream size          : 29.7 MiB (0%)
  197. Title            : nor
  198. Language           : Norwegian
  199. Default            : No
  200. Forced           : No

  201. Text #10
  202. ID             : 13
  203. Format           : PGS
  204. Muxing mode          : zlib
  205. Codec ID           : S_HDMV/PGS
  206. Codec ID/Info          : Picture based subtitle format used on BDs/HD-DVDs
  207. Duration           : 3 h 54 min
  208. Bit rate           : 17.7 kb/s
  209. Count of elements        : 3166
  210. Stream size          : 29.7 MiB (0%)
  211. Title            : dan
  212. Language           : Danish
  213. Default            : No
  214. Forced           : No

  215. Text #11
  216. ID             : 14
  217. Format           : PGS
  218. Muxing mode          : zlib
  219. Codec ID           : S_HDMV/PGS
  220. Codec ID/Info          : Picture based subtitle format used on BDs/HD-DVDs
  221. Duration           : 3 h 54 min
  222. Bit rate           : 18.4 kb/s
  223. Count of elements        : 3430
  224. Stream size          : 30.9 MiB (0%)
  225. Title            : fin
  226. Language           : Finnish
  227. Default            : No
  228. Forced           : No

  229. Text #12
  230. ID             : 15
  231. Format           : PGS
  232. Muxing mode          : zlib
  233. Codec ID           : S_HDMV/PGS
  234. Codec ID/Info          : Picture based subtitle format used on BDs/HD-DVDs
  235. Duration           : 3 h 42 min
  236. Bit rate           : 18.6 kb/s
  237. Count of elements        : 4012
  238. Stream size          : 29.6 MiB (0%)
  239. Title            : cze
  240. Language           : Czech
  241. Default            : No
  242. Forced           : No

  243. Text #13
  244. ID             : 16
  245. Format           : PGS
  246. Muxing mode          : zlib
  247. Codec ID           : S_HDMV/PGS
  248. Codec ID/Info          : Picture based subtitle format used on BDs/HD-DVDs
  249. Duration           : 3 h 42 min
  250. Bit rate           : 18.2 kb/s
  251. Count of elements        : 4068
  252. Stream size          : 29.0 MiB (0%)
  253. Title            : pol
  254. Language           : Polish
  255. Default            : No
  256. Forced           : No

  257. Text #14
  258. ID             : 17
  259. Format           : PGS
  260. Muxing mode          : zlib
  261. Codec ID           : S_HDMV/PGS
  262. Codec ID/Info          : Picture based subtitle format used on BDs/HD-DVDs
  263. Duration           : 3 h 33 min
  264. Bit rate           : 23.5 kb/s
  265. Count of elements        : 4050
  266. Stream size          : 36.0 MiB (0%)
  267. Title            : gre
  268. Language           : Greek
  269. Default            : No
  270. Forced           : No

  271. Text #15
  272. ID             : 18
  273. Format           : PGS
  274. Muxing mode          : zlib
  275. Codec ID           : S_HDMV/PGS
  276. Codec ID/Info          : Picture based subtitle format used on BDs/HD-DVDs
  277. Duration           : 3 h 36 min
  278. Bit rate           : 19.6 kb/s
  279. Count of elements        : 4810
  280. Stream size          : 30.4 MiB (0%)
  281. Title            : jpn
  282. Language           : Japanese
  283. Default            : No
  284. Forced           : No

  285. Text #16
  286. ID             : 19
  287. Format           : PGS
  288. Muxing mode          : zlib
  289. Codec ID           : S_HDMV/PGS
  290. Codec ID/Info          : Picture based subtitle format used on BDs/HD-DVDs
  291. Duration           : 3 h 42 min
  292. Bit rate           : 18.0 kb/s
  293. Count of elements        : 4068
  294. Stream size          : 28.7 MiB (0%)
  295. Title            : chi
  296. Language           : Chinese
  297. Default            : No
  298. Forced           : No

  299. Text #17
  300. ID             : 20
  301. Format           : PGS
  302. Muxing mode          : zlib
  303. Codec ID           : S_HDMV/PGS
  304. Codec ID/Info          : Picture based subtitle format used on BDs/HD-DVDs
  305. Duration           : 3 h 54 min
  306. Bit rate           : 16.0 kb/s
  307. Count of elements        : 4070
  308. Stream size          : 26.9 MiB (0%)
  309. Title            : chi
  310. Language           : Chinese
  311. Default            : No
  312. Forced           : No

  313. Text #18
  314. ID             : 21
  315. Format           : PGS
  316. Muxing mode          : zlib
  317. Codec ID           : S_HDMV/PGS
  318. Codec ID/Info          : Picture based subtitle format used on BDs/HD-DVDs
  319. Duration           : 3 h 42 min
  320. Bit rate           : 16.9 kb/s
  321. Count of elements        : 4066
  322. Stream size          : 26.9 MiB (0%)
  323. Title            : kor
  324. Language           : Korean
  325. Default            : No
  326. Forced           : No

  327. Text #19
  328. ID             : 22
  329. Format           : PGS
  330. Muxing mode          : zlib
  331. Codec ID           : S_HDMV/PGS
  332. Codec ID/Info          : Picture based subtitle format used on BDs/HD-DVDs
  333. Duration           : 3 h 42 min
  334. Bit rate           : 18.9 kb/s
  335. Count of elements        : 4068
  336. Stream size          : 30.1 MiB (0%)
  337. Title            : tha
  338. Language           : Thai
  339. Default            : No
  340. Forced           : No

  341. Menu
  342. 00:00:00.000         : en:Chapter 01
  343. 00:04:08.373         : en:Chapter 02
  344. 00:06:10.703         : en:Chapter 03
  345. 00:14:44.925         : en:Chapter 04
  346. 00:17:06.567         : en:Chapter 05
  347. 00:19:17.823         : en:Chapter 06
  348. 00:23:03.715         : en:Chapter 07
  349. 00:23:58.186         : en:Chapter 08
  350. 00:27:09.002         : en:Chapter 09
  351. 00:28:02.972         : en:Chapter 10
  352. 00:31:38.062         : en:Chapter 11
  353. 00:35:45.351         : en:Chapter 12
  354. 00:38:17.545         : en:Chapter 13
  355. 00:41:47.171         : en:Chapter 14
  356. 00:50:49.296         : en:Chapter 15
  357. 00:58:19.370         : en:Chapter 16
  358. 01:00:40.136         : en:Chapter 17
  359. 01:02:48.264         : en:Chapter 18
  360. 01:08:05.956         : en:Chapter 19
  361. 01:12:41.315         : en:Chapter 20
  362. 01:24:17.302         : en:Chapter 21
  363. 01:25:42.053         : en:Chapter 22
  364. 01:27:34.290         : en:Chapter 23
  365. 01:30:44.772         : en:Chapter 24
  366. 01:32:30.545         : en:Chapter 25
  367. 01:34:30.790         : en:Chapter 26
  368. 01:35:56.751         : en:Chapter 27
  369. 01:37:01.232         : en:Chapter 28
  370. 01:38:43.918         : en:Chapter 29
  371. 01:41:15.235         : en:Chapter 30
  372. 01:46:39.200         : en:Chapter 01
  373. 01:47:22.952         : en:Chapter 02
  374. 01:49:52.434         : en:Chapter 03
  375. 01:54:59.366         : en:Chapter 04
  376. 02:01:37.555         : en:Chapter 05
  377. 02:04:18.091         : en:Chapter 06
  378. 02:06:54.122         : en:Chapter 07
  379. 02:08:31.802         : en:Chapter 08
  380. 02:12:14.442         : en:Chapter 09
  381. 02:14:40.421         : en:Chapter 10
  382. 02:18:30.526         : en:Chapter 11
  383. 02:23:09.596         : en:Chapter 12
  384. 02:30:31.162         : en:Chapter 13
  385. 02:36:04.537         : en:Chapter 14
  386. 02:37:24.408         : en:Chapter 15
  387. 02:40:32.680         : en:Chapter 16
  388. 02:42:17.409         : en:Chapter 17
  389. 02:43:07.876         : en:Chapter 18
  390. 02:46:40.506         : en:Chapter 19
  391. 02:53:04.556         : en:Chapter 20
  392. 02:54:41.611         : en:Chapter 21
  393. 02:58:06.399         : en:Chapter 22
  394. 02:59:51.879         : en:Chapter 23
  395. 03:05:54.367         : en:Chapter 24
  396. 03:07:19.452         : en:Chapter 25
  397. 03:07:54.153         : en:Chapter 26
  398. 03:10:23.719         : en:Chapter 27
  399. 03:12:55.704         : en:Chapter 28
  400. 03:17:33.815         : en:Chapter 29
  401. 03:20:00.253         : en:Chapter 30
  402. 03:24:45.830         : en:Chapter 31
  403. 03:25:38.341         : en:Chapter 32
  404. 03:26:18.631         : en:Chapter 33
  405. 03:28:22.714         : en:Chapter 34
  406. 03:30:52.572         : en:Chapter 35
  407. 03:32:32.255         : en:Chapter 36
  408. 03:34:56.774         : en:Chapter 37
  409. 03:43:52.684         : en:Chapter 38
复制代码











  

The.Lord.of.the.Rings.The.Two.Towers.2002.EXTENDED.2160p.UHD.BluRay.x265.10bit.H.torrent (92.89 KB, 下载次数: 96)


回复

使用道具 举报

您需要登录后才可以回帖 登录 | 立即注册

本版积分规则

QQ|Archiver|手机版|小黑屋|蓝光电影网

GMT+8, 2024-6-26 05:43 , Processed in 0.053989 second(s), 24 queries .

Powered by Discuz! X3.4

Copyright © 2001-2020, Tencent Cloud.

快速回复 返回顶部 返回列表