找回密码
 立即注册

QQ登录

只需一步,快速开始

查看: 1971|回复: 1

[10bit.HDR] 疯狂的麦克斯/冲锋追魂手 Mad.Max.1979.2160p.UHD.BluRay.x265.10bit.HDR.DTS-HD.MA.5.1-B0MBARDiERS 36.24GB

[复制链接]

已抛锚 成长值: 310

0

精华

0

好友

0

听众

管理员

Rank: 9Rank: 9Rank: 9

蓝光币
7041
发表于 2020-11-29 11:15:05 | 显示全部楼层 |阅读模式


译  名 疯狂的麦克斯 / 冲锋追魂手 / 冲锋飞车队 / 疯狂麦克斯 / 迷雾追魂手(台) / 轰隆神探怒扫飞车党(港)
片  名 Mad Max
年  代 1979
产  地 澳大利亚
类  别 行动 / 科幻 / 惊悚 / 冒险
语  言 英语
上映日期 1979-04-12(澳大利亚)
IMDb评分6.9/10 from 189433 users
IMDb链接https://www.imdb.com/title/tt0079501
豆瓣评分 6.3/10 from 15572 users
豆瓣链接 https://movie.douban.com/subject/1295670/
片  长 93分钟
导  演 乔治·米勒 George Miller
编  剧 乔治·米勒 George Miller / 拜伦·肯尼迪 Byron Kennedy / 詹姆斯·麦考斯兰 James McCausland
主  演 梅尔·吉布森 Mel Gibson
     休·基斯-拜恩 Hugh Keays-Byrne
     雷格·埃文斯 Reg Evans
     史提夫·比斯利 Steve Bisley
     贝特朗·卡达尔 Bertrand Cadart
     希拉·弗洛兰斯 Sheila Florance
     乔纳森·哈迪 Jonathan Hardy
     尼克·拉图里 Nick Lathouris
     史蒂夫·米利息普 Steve Millichamp
     吉尔·塔克 Gil Tucker
     琼妮·萨缪尔 Joanne Samuel

标  签 行动 | 澳大利亚 | 公路 | 科幻 | 公路电影 | 梅尔·吉布森 | 1979 | 犯罪
简  介
  在不远的未来,公路骑士们在门路上肆虐,所过之处留下疯狂破坏的痕迹。为了追逐窃取了警用车的“黑暗骑士”,警方支出了严廉价格,幸有比骑士加倍疯狂的麦克斯(梅尔·吉布森 Mel Gibson 饰)进场,迫使黑暗骑士车祸身亡。黑暗骑士的朋友们立誓报仇,他们来临小镇,要接回黑暗骑士的尸身,而且肆意凌虐弱者,麦克斯和同伴古斯(Steve Bisley 饰)抓获凶手后,却由于无人敢指认,只得容忍他们继续清闲法外。古斯被公路骑士们抓到,身负重伤,而麦克斯的妻子杰西(琼妮·萨缪尔 Joanne Samuel 饰)也被他们恐吓骚扰,有“疯狂”之称的麦克斯不再哑忍,向骑士们展开回手……
  1. Video
  2. ID             : 1
  3. Format           : HEVC
  4. Format/Info          : High Efficiency Video Coding
  5. Format profile         : Main [email]10@L5.1[/email]@High
  6. HDR format           : SMPTE ST 2086, HDR10 compatible
  7. Codec ID           : V_MPEGH/ISO/HEVC
  8. Duration           : 1 h 33 min
  9. Bit rate           : 51.2 Mb/s
  10. Width            : 3 840 pixels
  11. Height           : 1 632 pixels
  12. Display aspect ratio       : 2.35:1
  13. Frame rate mode        : Constant
  14. Frame rate           : 23.976 (24000/1001/45378) FPS
  15. Color space          : YUV
  16. Chroma subsampling       : 4:2:0 (Type 2)
  17. Bit depth          : 10 bits
  18. Bits/(Pixel*Frame)       : 0.341
  19. Stream size          : 33.3 GiB (93%)
  20. Writing library        : x265 3.4+26-ga82c6c7a7:[Windows][GCC 10.2.1][64 bit] 10bit
  21. Encoding settings        : cpuid=1176575 / frame-threads=4 / numa-pools=24 / wpp / no-pmode / no-pme / no-psnr / no-ssim / log-level=2 / input-csp=1 / input-res=3840x1632 / interlace=0 / total-frames=134038 / level-idc=51 / high-tier=1 / uhd-bd=0 / ref=4 / no-allow-non-conformance / repeat-headers / annexb / aud / hrd / info / hash=0 / no-temporal-layers / open-gop / min-keyint=23 / keyint=250 / gop-lookahead=0 / bframes=4 / b-adapt=2 / b-pyramid / bframe-bias=0 / rc-lookahead=25 / lookahead-slices=4 / scenecut=40 / hist-scenecut=0 / radl=0 / no-splice / no-intra-refresh / ctu=64 / min-cu-size=8 / rect / no-amp / max-tu-size=32 / tu-inter-depth=1 / tu-intra-depth=1 / limit-tu=0 / rdoq-level=2 / dynamic-rd=0.00 / no-ssim-rd / signhide / no-tskip / nr-intra=0 / nr-inter=0 / no-constrained-intra / strong-intra-smoothing / max-merge=3 / limit-refs=3 / limit-modes / me=3 / subme=3 / merange=57 / temporal-mvp / no-frame-dup / no-hme / weightp / no-weightb / no-analyze-src-pics / deblock=-3:-3 / no-sao / no-sao-non-deblock / rd=4 / selective-sao=0 / no-early-skip / rskip / no-fast-intra / no-tskip-fast / no-cu-lossless / no-b-intra / no-splitrd-skip / rdpenalty=0 / psy-rd=2.00 / psy-rdoq=1.00 / no-rd-refine / no-lossless / cbqpoffs=0 / crqpoffs=0 / rc=crf / crf=18.7 / qcomp=0.60 / qpstep=4 / stats-write=0 / stats-read=0 / vbv-maxrate=160000 / vbv-bufsize=160000 / vbv-init=0.9 / min-vbv-fullness=50.0 / max-vbv-fullness=80.0 / crf-max=0.0 / crf-min=0.0 / ipratio=1.40 / pbratio=1.30 / aq-mode=2 / aq-strength=1.00 / cutree / zone-count=0 / no-strict-cbr / qg-size=32 / no-rc-grain / qpmax=69 / qpmin=0 / no-const-vbv / sar=1 / overscan=0 / videoformat=5 / range=0 / colorprim=9 / transfer=16 / colormatrix=9 / chromaloc=1 / chromaloc-top=2 / chromaloc-bottom=2 / display-window=0 / master-display=G(13250,34500)B(7500,3000)R(34000,16000)WP(15635,16450)L(10000000,1) / cll=0,0 / min-luma=0 / max-luma=1023 / log2-max-poc-lsb=8 / vui-timing-info / vui-hrd-info / slices=1 / no-opt-qp-pps / no-opt-ref-list-length-pps / no-multi-pass-opt-rps / scenecut-bias=0.05 / hist-threshold=0.03 / no-opt-cu-delta-qp / no-aq-motion / hdr10 / hdr10-opt / no-dhdr10-opt / no-idr-recovery-sei / analysis-reuse-level=0 / analysis-save-reuse-level=0 / analysis-load-reuse-level=0 / scale-factor=0 / refine-intra=0 / refine-inter=0 / refine-mv=1 / refine-ctu-distortion=0 / no-limit-sao / ctu-info=0 / no-lowpass-dct / refine-analysis-type=0 / copy-pic=1 / max-ausize-factor=1.0 / no-dynamic-refine / no-single-sei / no-hevc-aq / no-svt / no-field / qp-adaptation-range=1.00 / no-scenecut-aware-qpconformance-window-offsets / right=0 / bottom=0 / decoder-max-rate=0 / no-vbv-live-multi-pass
  22. Default            : Yes
  23. Forced           : No
  24. Color range          : Limited
  25. Color primaries        : BT.2020
  26. Transfer characteristics     : PQ
  27. Matrix coefficients        : BT.2020 non-constant
  28. Mastering display color primaries  : Display P3
  29. Mastering display luminance    : min: 0.0001 cd/m2, max: 1000 cd/m2
  30. Audio #1
  31. ID             : 2
  32. Format           : DTS XLL
  33. Format/Info          : Digital Theater Systems
  34. Commercial name        : DTS-HD Master Audio
  35. Codec ID           : A_DTS
  36. Duration           : 1 h 33 min
  37. Bit rate mode          : Variable
  38. Bit rate           : 4 000 kb/s
  39. Channel(s)           : 6 channels
  40. Channel layout         : C L R Ls Rs LFE
  41. Sampling rate          : 48.0 kHz
  42. Frame rate           : 93.750 FPS (512 SPF)
  43. Bit depth          : 24 bits
  44. Compression mode         : Lossless
  45. Stream size          : 2.60 GiB (7%)
  46. Language           : English
  47. Default            : Yes
  48. Forced           : No
  49. Audio #2
  50. ID             : 3
  51. Format           : AAC LC
  52. Format/Info          : Advanced Audio Codec Low Complexity
  53. Codec ID           : A_AAC-2
  54. Duration           : 1 h 33 min
  55. Bit rate           : 103 kb/s
  56. Channel(s)           : 2 channels
  57. Channel layout         : L R
  58. Sampling rate          : 48.0 kHz
  59. Frame rate           : 46.875 FPS (1024 SPF)
  60. Compression mode         : Lossy
  61. Delay relative to video      : 9 ms
  62. Stream size          : 68.7 MiB (0%)
  63. Title            : Commentary
  64. Language           : English
  65. Default            : No
  66. Forced           : No
  67. Text
  68. ID             : 4
  69. Format           : PGS
  70. Muxing mode          : zlib
  71. Codec ID           : S_HDMV/PGS
  72. Codec ID/Info          : Picture based subtitle format used on BDs/HD-DVDs
  73. Duration           : 1 h 29 min
  74. Bit rate           : 21.1 kb/s
  75. Count of elements        : 1710
  76. Stream size          : 13.5 MiB (0%)
  77. Title            : English
  78. Language           : English
  79. Default            : No
  80. Forced           : No
  81. Menu
  82. 00:00:00.000         : en:Chapter 01
  83. 00:07:00.337         : en:Chapter 02
  84. 00:15:39.480         : en:Chapter 03
  85. 00:23:36.832         : en:Chapter 04
  86. 00:31:49.282         : en:Chapter 05
  87. 00:39:00.213         : en:Chapter 06
  88. 00:47:02.403         : en:Chapter 07
  89. 00:55:43.549         : en:Chapter 08
  90. 01:02:12.854         : en:Chapter 09
  91. 01:15:32.611         : en:Chapter 10
  92. 01:30:48.443         : en:Chapter 11
  93. 01:33:09.751         : en:Chapter 12
复制代码











  

Mad.Max.1979.2160p.UHD.BluRay.x265.10bit.HDR.DTS-HD.MA.5.1-B0MBARDiERS.torrent (91.31 KB, 下载次数: 16)


回复

使用道具 举报

0

精华

0

好友

0

听众

新手上路

Rank: 1

蓝光币
0
发表于 2021-6-19 16:05:19 | 显示全部楼层
谢谢楼主分享
回复

使用道具 举报

您需要登录后才可以回帖 登录 | 立即注册

本版积分规则

QQ|Archiver|手机版|小黑屋|蓝光电影网

GMT+8, 2024-6-26 06:13 , Processed in 0.052738 second(s), 24 queries .

Powered by Discuz! X3.4

Copyright © 2001-2020, Tencent Cloud.

快速回复 返回顶部 返回列表