找回密码
 立即注册

QQ登录

只需一步,快速开始

查看: 1459|回复: 0

[10bit.HDR] 纽约王/黑道皇帝 King.of.New.York.1990.2160p.UHD.BluRay.x265.10bit.HDR.DTS-HD.MA.5.1-SWTYBLZ 32.92GB

[复制链接]

已抛锚 成长值: 310

0

精华

0

好友

0

听众

管理员

Rank: 9Rank: 9Rank: 9

蓝光币
7041
发表于 2020-11-29 11:12:13 | 显示全部楼层 |阅读模式


译  名 纽约王 / 黑道天子
片  名 King of New York
年  代 1990
产  地 意大利 / 美国 / 英国
类  别 剧情 / 惊悚 / 犯罪
语  言 西班牙语 / 英语
上映日期 1991-10-16
IMDb评分7.0/10 from 31025 users
IMDb链接https://www.imdb.com/title/tt0099939
豆瓣评分 6.9/10 from 1346 users
豆瓣链接 https://movie.douban.com/subject/1301768/
片  长 103 分钟
导  演 阿贝尔·费拉拉 Abel Ferrara
编  剧 尼古拉斯·圣约翰 Nicholas St. John
主  演 克里斯托弗·沃肯 Christopher Walken
     大卫·卡罗素 David Caruso
     劳伦斯·菲什伯恩 Laurence Fishburne
     韦斯利·斯奈普斯 Wesley Snipes
     史蒂夫·布西密 Steve Buscemi
     Timothy Stickney
     罗杰·格午埃文·史姑娘 Roger Guenveur Smith
     伦纳德·L·托马斯 Leonard L. Thomas
     拉斯洛·克利马 Laszlo Klima
     菲尔·尼尔森 Phil Neilson
     安丽妮·科祖米 Ariane Koizumi
     Freddie Jackson
     阿隆娜·肖 Alonna Shaw
     Sari Chang
     John Reidy
     Anthony Padilla
     哈罗德·佩里诺 Harold Perrineau
     吉安卡罗·埃斯波西托 Giancarlo Esposito
     Carlos Lauchu
     维克多·阿尔果 Victor Argo
     弗兰克·阿多尼斯 Frank Adonis
     瓦妮萨·安吉尔 Vanessa Angel
     特里萨·兰德尔 Theresa Randle
     Mark Monto
     詹姆斯·洛林兹 James Lorinz
     Janet Julian
     罗伯特·拉萨多 Robert LaSardo
     George G. Colucci
     艾瑞卡·吉姆佩尔 Erica Gimpel
     Lia Chang
     Ernest Abuba
     彼得·哈米尔 Pete Hamill

标  签 黑帮 | 美国 | 犯罪 | 美国电影 | ChristopherWalken | 1990 | 意大利 | Abel_Ferrara
简  介
  工于心计的克里斯托弗·沃尔肯饰演恶名昭彰的纽约大地痞韦佛兰,他在出狱以后要发出他在座牢时落空的毒品市场,跟哥伦比亚帮、意大利帮和华青帮等合作对手展开宣战,逐步建立起比之前更庞大的犯罪王国。但因其不成一世的猖狂态度,也激起了另一帮气派目标不满,因此展开一场黑道大火拼……
  1. Video
  2. ID             : 1
  3. Format           : HEVC
  4. Format/Info          : High Efficiency Video Coding
  5. Format profile         : Main [email]10@L5.1[/email]@High
  6. HDR format           : SMPTE ST 2086, HDR10 compatible
  7. Codec ID           : V_MPEGH/ISO/HEVC
  8. Duration           : 1 h 43 min
  9. Bit rate           : 40.7 Mb/s
  10. Width            : 3 840 pixels
  11. Height           : 2 076 pixels
  12. Display aspect ratio       : 1.85:1
  13. Frame rate mode        : Constant
  14. Frame rate           : 23.976 (24000/1001/45378) FPS
  15. Color space          : YUV
  16. Chroma subsampling       : 4:2:0 (Type 2)
  17. Bit depth          : 10 bits
  18. Bits/(Pixel*Frame)       : 0.213
  19. Stream size          : 29.3 GiB (90%)
  20. Title            : King.of.New.York.1990.2160p.UHD.BluRay.x265.10bit.HDR.DTS-HD.MA.5.1-SWTYBLZ
  21. Writing library        : x265 3.0_Au+10-74a8672ea4f7:[Windows][GCC 8.2.1][64 bit] 10bit
  22. Encoding settings        : cpuid=1111039 / frame-threads=6 / numa-pools=40 / wpp / no-pmode / no-pme / no-psnr / no-ssim / log-level=2 / input-csp=1 / input-res=3840x2076 / interlace=0 / total-frames=0 / level-idc=51 / high-tier=1 / uhd-bd=0 / ref=3 / no-allow-non-conformance / repeat-headers / annexb / aud / hrd / info / hash=0 / no-temporal-layers / no-open-gop / min-keyint=1 / keyint=24 / gop-lookahead=0 / bframes=4 / b-adapt=2 / b-pyramid / bframe-bias=0 / rc-lookahead=25 / lookahead-slices=4 / scenecut=40 / radl=0 / no-splice / no-intra-refresh / ctu=64 / min-cu-size=8 / no-rect / no-amp / max-tu-size=32 / tu-inter-depth=1 / tu-intra-depth=1 / limit-tu=0 / rdoq-level=0 / dynamic-rd=0.00 / no-ssim-rd / signhide / no-tskip / nr-intra=0 / nr-inter=0 / no-constrained-intra / strong-intra-smoothing / max-merge=2 / limit-refs=3 / no-limit-modes / me=1 / subme=2 / merange=57 / temporal-mvp / weightp / no-weightb / no-analyze-src-pics / deblock=0:0 / no-sao / no-sao-non-deblock / rd=3 / no-early-skip / rskip / no-fast-intra / no-tskip-fast / no-cu-lossless / no-b-intra / no-splitrd-skip / rdpenalty=0 / psy-rd=2.00 / psy-rdoq=0.00 / no-rd-refine / no-lossless / cbqpoffs=0 / crqpoffs=0 / rc=crf / crf=16.0 / qcomp=0.60 / qpstep=4 / stats-write=0 / stats-read=0 / vbv-maxrate=160000 / vbv-bufsize=160000 / vbv-init=0.9 / crf-max=0.0 / crf-min=0.0 / ipratio=1.40 / pbratio=1.30 / aq-mode=1 / aq-strength=1.00 / cutree / zone-count=0 / no-strict-cbr / qg-size=32 / no-rc-grain / qpmax=69 / qpmin=0 / no-const-vbv / sar=1 / overscan=0 / videoformat=5 / range=0 / colorprim=9 / transfer=16 / colormatrix=9 / chromaloc=1 / chromaloc-top=2 / chromaloc-bottom=2 / display-window=0 / master-display=G(8500,39850)B(6550,2300)R(35400,14600)WP(15635,16450)L(10000000,01) / max-cll=0,0 / min-luma=0 / max-luma=1023 / log2-max-poc-lsb=8 / vui-timing-info / vui-hrd-info / slices=1 / opt-qp-pps / opt-ref-list-length-pps / no-multi-pass-opt-rps / scenecut-bias=0.05 / no-opt-cu-delta-qp / no-aq-motion / hdr / hdr-opt / no-dhdr10-opt / no-idr-recovery-sei / analysis-reuse-level=5 / scale-factor=0 / refine-intra=0 / refine-inter=0 / refine-mv=0 / refine-ctu-distortion=0 / no-limit-sao / ctu-info=0 / no-lowpass-dct / refine-analysis-type=160 / copy-pic=1 / max-ausize-factor=1.0 / no-dynamic-refine / no-single-sei / no-hevc-aq / no-svt / qp-adaptation-range=1.00
  23. Default            : Yes
  24. Forced           : No
  25. Color range          : Limited
  26. Color primaries        : BT.2020
  27. Transfer characteristics     : PQ
  28. Matrix coefficients        : BT.2020 non-constant
  29. Mastering display color primaries  : BT.2020
  30. Mastering display luminance    : min: 0.0001 cd/m2, max: 1000 cd/m2

  31. Audio #1
  32. ID             : 2
  33. Format           : DTS XLL
  34. Format/Info          : Digital Theater Systems
  35. Commercial name        : DTS-HD Master Audio
  36. Codec ID           : A_DTS
  37. Duration           : 1 h 43 min
  38. Bit rate mode          : Variable
  39. Bit rate           : 4 071 kb/s
  40. Channel(s)           : 6 channels
  41. Channel layout         : C L R Ls Rs LFE
  42. Sampling rate          : 48.0 kHz
  43. Frame rate           : 93.750 FPS (512 SPF)
  44. Bit depth          : 24 bits
  45. Compression mode         : Lossless
  46. Stream size          : 2.93 GiB (9%)
  47. Title            : King.of.New.York.1990.2160p.UHD.BluRay.x265.10bit.HDR.DTS-HD.MA.5.1-SWTYBLZ
  48. Language           : English
  49. Default            : Yes
  50. Forced           : No

  51. Audio #2
  52. ID             : 3
  53. Format           : AC-3
  54. Format/Info          : Audio Coding 3
  55. Commercial name        : Dolby Digital
  56. Codec ID           : A_AC3
  57. Duration           : 1 h 43 min
  58. Bit rate mode          : Constant
  59. Bit rate           : 640 kb/s
  60. Channel(s)           : 6 channels
  61. Channel layout         : L R C LFE Ls Rs
  62. Sampling rate          : 48.0 kHz
  63. Frame rate           : 31.250 FPS (1536 SPF)
  64. Compression mode         : Lossy
  65. Stream size          : 472 MiB (1%)
  66. Title            : King.of.New.York.1990.2160p.UHD.BluRay.x265.10bit.HDR.DTS-HD.MA.5.1-SWTYBLZ
  67. Language           : English
  68. Service kind         : Complete Main
  69. Default            : No
  70. Forced           : No

  71. Text #1
  72. ID             : 4
  73. Format           : UTF-8
  74. Codec ID           : S_TEXT/UTF8
  75. Codec ID/Info          : UTF-8 Plain Text
  76. Duration           : 1 h 41 min
  77. Bit rate           : 47 b/s
  78. Count of elements        : 1017
  79. Stream size          : 35.6 KiB (0%)
  80. Title            : English-SRT
  81. Language           : English
  82. Default            : Yes
  83. Forced           : No

  84. Text #2
  85. ID             : 5
  86. Format           : PGS
  87. Muxing mode          : zlib
  88. Codec ID           : S_HDMV/PGS
  89. Codec ID/Info          : Picture based subtitle format used on BDs/HD-DVDs
  90. Duration           : 1 h 42 min
  91. Bit rate           : 32.5 kb/s
  92. Count of elements        : 2186
  93. Stream size          : 23.8 MiB (0%)
  94. Title            : English-PGS
  95. Language           : English
  96. Default            : No
  97. Forced           : No

  98. Menu
  99. 00:00:00.000         : en:King of New York
  100. 00:02:48.559         : en:Assassination
  101. 00:04:35.585         : en:Main Titles
  102. 00:08:22.595         : en:Business Transaction
  103. 00:12:02.903         : en:Welcome Home Gathering
  104. 00:18:27.087         : en:Business Partners
  105. 00:23:30.512         : en:Message from Frank White
  106. 00:25:56.913         : en:New Employees
  107. 00:27:55.571         : en:Mob Boss
  108. 00:30:40.406         : en:Funding for the Hospital
  109. 00:34:39.949         : en:Crooked Cops
  110. 00:36:59.949         : en:An Irish Wedding
  111. 00:40:35.700         : en:Meeting with Another Mob Boss
  112. 00:42:57.825         : en:Arrested at Lunch
  113. 00:45:56.851         : en:Touring the Hospital
  114. 00:48:08.784         : en:Posting Bail
  115. 00:51:27.660         : en:Gang War
  116. 00:58:56.062         : en:"Just One Year"
  117. 01:02:15.361         : en:A Buyer for the Goods
  118. 01:07:00.653         : en:A Rival Gang
  119. 01:10:45.130         : en:The Rival Gang Revealed
  120. 01:13:38.901         : en:Officer Down
  121. 01:20:29.656         : en:Funeral Services
  122. 01:22:55.690         : en:A Rat in the Midst
  123. 01:30:08.975         : en:Subway Showdown
  124. 01:35:13.868         : en:Trapped and Wounded
  125. 01:39:50.386         : en:End Credits
复制代码





















King.of.New.York.1990.2160p.UHD.BluRay.x265.10bit.HDR.DTS-HD.MA.5.1-SWTYBLZ.torrent (82.93 KB, 下载次数: 4)


回复

使用道具 举报

您需要登录后才可以回帖 登录 | 立即注册

本版积分规则

QQ|Archiver|手机版|小黑屋|蓝光电影网

GMT+8, 2024-6-26 07:17 , Processed in 0.052545 second(s), 24 queries .

Powered by Discuz! X3.4

Copyright © 2001-2020, Tencent Cloud.

快速回复 返回顶部 返回列表