找回密码
 立即注册

QQ登录

只需一步,快速开始

查看: 1833|回复: 1

[10bit.HDR] 花木兰/木兰传说 Mulan.2020.2160p.UHD.BluRay.x265.10bit.HDR.TrueHD.7.1.Atmos-B0MBARDiERS 14.37GB

[复制链接]

已抛锚 成长值: 310

0

精华

0

好友

0

听众

管理员

Rank: 9Rank: 9Rank: 9

蓝光币
7041
发表于 2020-11-29 00:13:10 | 显示全部楼层 |阅读模式


译  名 花木兰 / 木兰传闻 / 花木兰真人版 / 迪士尼真人版花木兰
片  名 Mulan
年  代 2020
产  地 美国 / 中国大陆
类  别 剧情 / 行动 / 冒险
语  言 英语 / 汉语普通话
上映日期 2020-08-21(美国)
IMDb链接https://www.imdb.com/title/tt4566758
豆瓣评分 0/10 from 0 users
豆瓣链接 https://movie.douban.com/subject/26357307/
片  长 115分钟
导  演 妮琪·卡罗 Niki Caro
编  剧 劳伦·希内克 Lauren Hynek / 里克·杰法 Rick Jaffa / 伊丽莎白·马丁 Elizabeth Martin / 阿曼达·斯尔沃 Amanda Silver
主  演 刘亦菲 Yifei Liu
     安佑森 Yoson An
     甄子丹 Donnie Yen
     巩俐 Li Gong
     唐莎娜 Xana Tang
     李连杰 Jet Li
     袁文忠 Ron Yuan
     乌特卡什·安邦德卡尔 Utkarsh Ambudkar
     钱姆·艾希勒珀拉 Chum Ehelepola
     李截 Jason Scott Lee
     马志 Tzi Ma
     赵家玲 Rosalind Chao
     郑佩佩 Pei-pei Cheng
     尼尔森·李 Nelson Lee
     袁之正 Roger Yuan
     黄谷悦 Jimmy Wong
     道阿·茂阿 Doua Moua
     唐辰瀛 Chen Tang

标  签 刘亦菲 | 花木兰 | 迪士尼 | 真人版 | Disney | 电影 | 古装 | 美国
简  介
  在现代中国,一位年轻的女子为了救她的父亲假扮成男装代父从军。在穿越中国广袤地盘的绚丽征程中,她从严重的练习和战争中存活下来,发现自己心里的战士,而且终极从异族侵犯者手中救回了天子和她的祖国。。
  刘亦菲饰演花木兰,Yoson An饰演花木兰情人,李连杰饰演天子,巩俐饰演反派女巫,越南华裔女Xana Tang饰演花木兰的姐妹,甄子丹饰演花木兰的导师tung。
获奖情况
  第6届豆瓣电影年度榜单(2019)
  最值得期待的外语电影(提名)
  1. Video
  2. ID             : 1
  3. Format           : HEVC
  4. Format/Info          : High Efficiency Video Coding
  5. Format profile         : Main [email]10@L5.1[/email]@High
  6. HDR format           : SMPTE ST 2086, HDR10 compatible
  7. Codec ID           : V_MPEGH/ISO/HEVC
  8. Duration           : 1 h 55 min
  9. Bit rate           : 12.3 Mb/s
  10. Width            : 3 840 pixels
  11. Height           : 1 608 pixels
  12. Display aspect ratio       : 2.40:1
  13. Frame rate mode        : Constant
  14. Frame rate           : 23.976 (24000/1001/45378) FPS
  15. Color space          : YUV
  16. Chroma subsampling       : 4:2:0 (Type 2)
  17. Bit depth          : 10 bits
  18. Bits/(Pixel*Frame)       : 0.083
  19. Stream size          : 9.91 GiB (70%)
  20. Writing library        : x265 3.4+26-ga82c6c7a7:[Windows][GCC 10.2.1][64 bit] 10bit
  21. Encoding settings        : cpuid=1176575 / frame-threads=4 / numa-pools=24 / wpp / no-pmode / no-pme / no-psnr / no-ssim / log-level=2 / input-csp=1 / input-res=3840x1608 / interlace=0 / total-frames=165704 / level-idc=51 / high-tier=1 / uhd-bd=0 / ref=4 / no-allow-non-conformance / repeat-headers / annexb / aud / hrd / info / hash=0 / no-temporal-layers / open-gop / min-keyint=23 / keyint=250 / gop-lookahead=0 / bframes=4 / b-adapt=2 / b-pyramid / bframe-bias=0 / rc-lookahead=25 / lookahead-slices=4 / scenecut=40 / hist-scenecut=0 / radl=0 / no-splice / no-intra-refresh / ctu=64 / min-cu-size=8 / rect / no-amp / max-tu-size=32 / tu-inter-depth=1 / tu-intra-depth=1 / limit-tu=0 / rdoq-level=2 / dynamic-rd=0.00 / no-ssim-rd / signhide / no-tskip / nr-intra=0 / nr-inter=0 / no-constrained-intra / strong-intra-smoothing / max-merge=3 / limit-refs=3 / limit-modes / me=3 / subme=3 / merange=57 / temporal-mvp / no-frame-dup / no-hme / weightp / no-weightb / no-analyze-src-pics / deblock=-3:-3 / no-sao / no-sao-non-deblock / rd=4 / selective-sao=0 / no-early-skip / rskip / no-fast-intra / no-tskip-fast / no-cu-lossless / no-b-intra / no-splitrd-skip / rdpenalty=0 / psy-rd=2.00 / psy-rdoq=1.00 / no-rd-refine / no-lossless / cbqpoffs=0 / crqpoffs=0 / rc=crf / crf=14.0 / qcomp=0.60 / qpstep=4 / stats-write=0 / stats-read=0 / vbv-maxrate=160000 / vbv-bufsize=160000 / vbv-init=0.9 / min-vbv-fullness=50.0 / max-vbv-fullness=80.0 / crf-max=0.0 / crf-min=0.0 / ipratio=1.40 / pbratio=1.30 / aq-mode=2 / aq-strength=1.00 / cutree / zone-count=0 / no-strict-cbr / qg-size=32 / no-rc-grain / qpmax=69 / qpmin=0 / no-const-vbv / sar=1 / overscan=0 / videoformat=5 / range=0 / colorprim=9 / transfer=16 / colormatrix=9 / chromaloc=1 / chromaloc-top=2 / chromaloc-bottom=2 / display-window=0 / master-display=G(13250,34500)B(7500,3000)R(34000,16000)WP(15635,16450)L(10000000,1) / cll=0,0 / min-luma=0 / max-luma=1023 / log2-max-poc-lsb=8 / vui-timing-info / vui-hrd-info / slices=1 / no-opt-qp-pps / no-opt-ref-list-length-pps / no-multi-pass-opt-rps / scenecut-bias=0.05 / hist-threshold=0.03 / no-opt-cu-delta-qp / no-aq-motion / hdr10 / hdr10-opt / no-dhdr10-opt / no-idr-recovery-sei / analysis-reuse-level=0 / analysis-save-reuse-level=0 / analysis-load-reuse-level=0 / scale-factor=0 / refine-intra=0 / refine-inter=0 / refine-mv=1 / refine-ctu-distortion=0 / no-limit-sao / ctu-info=0 / no-lowpass-dct / refine-analysis-type=0 / copy-pic=1 / max-ausize-factor=1.0 / no-dynamic-refine / no-single-sei / no-hevc-aq / no-svt / no-field / qp-adaptation-range=1.00 / no-scenecut-aware-qpconformance-window-offsets / right=0 / bottom=0 / decoder-max-rate=0 / no-vbv-live-multi-pass
  22. Default            : Yes
  23. Forced           : No
  24. Color range          : Limited
  25. Color primaries        : BT.2020
  26. Transfer characteristics     : PQ
  27. Matrix coefficients        : BT.2020 non-constant
  28. Mastering display color primaries  : Display P3
  29. Mastering display luminance    : min: 0.0001 cd/m2, max: 1000 cd/m2

  30. Audio #1
  31. ID             : 2
  32. Format           : MLP FBA 16-ch
  33. Format/Info          : Meridian Lossless Packing FBA with 16-channel presentation
  34. Commercial name        : Dolby TrueHD with Dolby Atmos
  35. Codec ID           : A_TRUEHD
  36. Duration           : 1 h 55 min
  37. Bit rate mode          : Variable
  38. Bit rate           : 4 608 kb/s
  39. Maximum bit rate         : 8 742 kb/s
  40. Channel(s)           : 8 channels
  41. Channel layout         : L R C LFE Ls Rs Lb Rb
  42. Sampling rate          : 48.0 kHz
  43. Frame rate           : 1 200.000 FPS (40 SPF)
  44. Compression mode         : Lossless
  45. Stream size          : 3.71 GiB (26%)
  46. Language           : English
  47. Default            : Yes
  48. Forced           : No
  49. Number of dynamic objects      : 13
  50. Bed channel count        : 1 channel
  51. Bed channel configuration      : LFE

  52. Audio #2
  53. ID             : 3
  54. Format           : AC-3
  55. Format/Info          : Audio Coding 3
  56. Commercial name        : Dolby Digital
  57. Codec ID           : A_AC3
  58. Duration           : 1 h 55 min
  59. Bit rate mode          : Constant
  60. Bit rate           : 640 kb/s
  61. Channel(s)           : 6 channels
  62. Channel layout         : L R C LFE Ls Rs
  63. Sampling rate          : 48.0 kHz
  64. Frame rate           : 31.250 FPS (1536 SPF)
  65. Compression mode         : Lossy
  66. Stream size          : 527 MiB (4%)
  67. Language           : English
  68. Service kind         : Complete Main
  69. Default            : No
  70. Forced           : No

  71. Text #1
  72. ID             : 4
  73. Format           : PGS
  74. Muxing mode          : zlib
  75. Codec ID           : S_HDMV/PGS
  76. Codec ID/Info          : Picture based subtitle format used on BDs/HD-DVDs
  77. Duration           : 1 h 50 min
  78. Bit rate           : 24.2 kb/s
  79. Count of elements        : 2300
  80. Stream size          : 19.2 MiB (0%)
  81. Title            : English SDH
  82. Language           : English
  83. Default            : No
  84. Forced           : No

  85. Text #2
  86. ID             : 5
  87. Format           : PGS
  88. Muxing mode          : zlib
  89. Codec ID           : S_HDMV/PGS
  90. Codec ID/Info          : Picture based subtitle format used on BDs/HD-DVDs
  91. Duration           : 1 h 54 min
  92. Bit rate           : 17.3 kb/s
  93. Count of elements        : 1542
  94. Stream size          : 14.1 MiB (0%)
  95. Title            : French
  96. Language           : French
  97. Default            : No
  98. Forced           : No

  99. Text #3
  100. ID             : 6
  101. Format           : PGS
  102. Muxing mode          : zlib
  103. Codec ID           : S_HDMV/PGS
  104. Codec ID/Info          : Picture based subtitle format used on BDs/HD-DVDs
  105. Duration           : 1 h 54 min
  106. Bit rate           : 17.9 kb/s
  107. Count of elements        : 1608
  108. Stream size          : 14.6 MiB (0%)
  109. Title            : French
  110. Language           : French
  111. Default            : No
  112. Forced           : No

  113. Text #4
  114. ID             : 7
  115. Format           : PGS
  116. Muxing mode          : zlib
  117. Codec ID           : S_HDMV/PGS
  118. Codec ID/Info          : Picture based subtitle format used on BDs/HD-DVDs
  119. Duration           : 1 h 43 min
  120. Bit rate           : 19.5 kb/s
  121. Count of elements        : 1566
  122. Stream size          : 14.5 MiB (0%)
  123. Title            : Spanish
  124. Language           : Spanish
  125. Default            : No
  126. Forced           : No

  127. Text #5
  128. ID             : 8
  129. Format           : PGS
  130. Muxing mode          : zlib
  131. Codec ID           : S_HDMV/PGS
  132. Codec ID/Info          : Picture based subtitle format used on BDs/HD-DVDs
  133. Duration           : 1 h 54 min
  134. Bit rate           : 17.2 kb/s
  135. Count of elements        : 1568
  136. Stream size          : 14.1 MiB (0%)
  137. Title            : Italian
  138. Language           : Italian
  139. Default            : No
  140. Forced           : No

  141. Text #6
  142. ID             : 9
  143. Format           : PGS
  144. Muxing mode          : zlib
  145. Codec ID           : S_HDMV/PGS
  146. Codec ID/Info          : Picture based subtitle format used on BDs/HD-DVDs
  147. Duration           : 1 h 54 min
  148. Bit rate           : 18.1 kb/s
  149. Count of elements        : 1866
  150. Stream size          : 14.8 MiB (0%)
  151. Title            : German
  152. Language           : German
  153. Default            : No
  154. Forced           : No

  155. Text #7
  156. ID             : 10
  157. Format           : PGS
  158. Muxing mode          : zlib
  159. Codec ID           : S_HDMV/PGS
  160. Codec ID/Info          : Picture based subtitle format used on BDs/HD-DVDs
  161. Duration           : 1 h 54 min
  162. Bit rate           : 15.4 kb/s
  163. Count of elements        : 1524
  164. Stream size          : 12.6 MiB (0%)
  165. Title            : Japanese
  166. Language           : Japanese
  167. Default            : No
  168. Forced           : No

  169. Text #8
  170. ID             : 11
  171. Format           : PGS
  172. Muxing mode          : zlib
  173. Codec ID           : S_HDMV/PGS
  174. Codec ID/Info          : Picture based subtitle format used on BDs/HD-DVDs
  175. Duration           : 1 h 54 min
  176. Bit rate           : 15.7 kb/s
  177. Count of elements        : 1398
  178. Stream size          : 12.8 MiB (0%)
  179. Title            : Swedish
  180. Language           : Swedish
  181. Default            : No
  182. Forced           : No

  183. Text #9
  184. ID             : 12
  185. Format           : PGS
  186. Muxing mode          : zlib
  187. Codec ID           : S_HDMV/PGS
  188. Codec ID/Info          : Picture based subtitle format used on BDs/HD-DVDs
  189. Duration           : 1 h 54 min
  190. Bit rate           : 16.1 kb/s
  191. Count of elements        : 1568
  192. Stream size          : 13.1 MiB (0%)
  193. Title            : Norwegian
  194. Language           : Norwegian
  195. Default            : No
  196. Forced           : No

  197. Text #10
  198. ID             : 13
  199. Format           : PGS
  200. Muxing mode          : zlib
  201. Codec ID           : S_HDMV/PGS
  202. Codec ID/Info          : Picture based subtitle format used on BDs/HD-DVDs
  203. Duration           : 1 h 54 min
  204. Bit rate           : 15.8 kb/s
  205. Count of elements        : 1264
  206. Stream size          : 12.9 MiB (0%)
  207. Title            : Danish
  208. Language           : Danish
  209. Default            : No
  210. Forced           : No

  211. Text #11
  212. ID             : 14
  213. Format           : PGS
  214. Muxing mode          : zlib
  215. Codec ID           : S_HDMV/PGS
  216. Codec ID/Info          : Picture based subtitle format used on BDs/HD-DVDs
  217. Duration           : 1 h 54 min
  218. Bit rate           : 17.4 kb/s
  219. Count of elements        : 1570
  220. Stream size          : 14.2 MiB (0%)
  221. Title            : Finnish
  222. Language           : Finnish
  223. Default            : No
  224. Forced           : No

  225. Text #12
  226. ID             : 15
  227. Format           : PGS
  228. Muxing mode          : zlib
  229. Codec ID           : S_HDMV/PGS
  230. Codec ID/Info          : Picture based subtitle format used on BDs/HD-DVDs
  231. Duration           : 3 min 8 s
  232. Bit rate           : 2 144 b/s
  233. Count of elements        : 4
  234. Stream size          : 49.3 KiB (0%)
  235. Title            : French
  236. Language           : French
  237. Default            : No
  238. Forced           : No

  239. Text #13
  240. ID             : 16
  241. Format           : PGS
  242. Muxing mode          : zlib
  243. Codec ID           : S_HDMV/PGS
  244. Codec ID/Info          : Picture based subtitle format used on BDs/HD-DVDs
  245. Duration           : 1 h 40 min
  246. Bit rate           : 358 b/s
  247. Count of elements        : 42
  248. Stream size          : 265 KiB (0%)
  249. Title            : French
  250. Language           : French
  251. Default            : No
  252. Forced           : No

  253. Text #14
  254. ID             : 17
  255. Format           : PGS
  256. Muxing mode          : zlib
  257. Codec ID           : S_HDMV/PGS
  258. Codec ID/Info          : Picture based subtitle format used on BDs/HD-DVDs
  259. Duration           : 3 min 21 s
  260. Bit rate           : 2 236 b/s
  261. Count of elements        : 6
  262. Stream size          : 54.9 KiB (0%)
  263. Title            : Spanish
  264. Language           : Spanish
  265. Default            : No
  266. Forced           : No

  267. Text #15
  268. ID             : 18
  269. Format           : PGS
  270. Muxing mode          : zlib
  271. Codec ID           : S_HDMV/PGS
  272. Codec ID/Info          : Picture based subtitle format used on BDs/HD-DVDs
  273. Duration           : 3 min 8 s
  274. Bit rate           : 2 081 b/s
  275. Count of elements        : 4
  276. Stream size          : 47.9 KiB (0%)
  277. Title            : Italian
  278. Language           : Italian
  279. Default            : No
  280. Forced           : No

  281. Text #16
  282. ID             : 19
  283. Format           : PGS
  284. Muxing mode          : zlib
  285. Codec ID           : S_HDMV/PGS
  286. Codec ID/Info          : Picture based subtitle format used on BDs/HD-DVDs
  287. Duration           : 3 min 7 s
  288. Bit rate           : 1 942 b/s
  289. Count of elements        : 4
  290. Stream size          : 44.4 KiB (0%)
  291. Title            : German
  292. Language           : German
  293. Default            : No
  294. Forced           : No

  295. Text #17
  296. ID             : 20
  297. Format           : PGS
  298. Muxing mode          : zlib
  299. Codec ID           : S_HDMV/PGS
  300. Codec ID/Info          : Picture based subtitle format used on BDs/HD-DVDs
  301. Duration           : 1 h 40 min
  302. Bit rate           : 689 b/s
  303. Count of elements        : 56
  304. Stream size          : 509 KiB (0%)
  305. Title            : Japanese
  306. Language           : Japanese
  307. Default            : No
  308. Forced           : No

  309. Menu
  310. 00:00:00.000         : en:Chapter 01
  311. 00:04:44.117         : en:Chapter 02
  312. 00:06:26.469         : en:Chapter 03
  313. 00:09:29.152         : en:Chapter 04
  314. 00:13:27.223         : en:Chapter 05
  315. 00:20:51.584         : en:Chapter 06
  316. 00:26:33.675         : en:Chapter 07
  317. 00:29:03.992         : en:Chapter 08
  318. 00:36:48.832         : en:Chapter 09
  319. 00:41:41.708         : en:Chapter 10
  320. 00:50:45.668         : en:Chapter 11
  321. 00:57:19.061         : en:Chapter 12
  322. 01:01:13.336         : en:Chapter 13
  323. 01:11:22.820         : en:Chapter 14
  324. 01:16:34.924         : en:Chapter 15
  325. 01:22:11.552         : en:Chapter 16
  326. 01:29:59.060         : en:Chapter 17
  327. 01:34:59.819         : en:Chapter 18
  328. 01:38:52.385         : en:Chapter 19
  329. 01:44:40.399         : en:Chapter 20
复制代码








Mulan.2020.2160p.UHD.BluRay.x265.10bit.HDR.TrueHD.7.1.Atmos-B0MBARDiERS.torrent (72.55 KB, 下载次数: 54)


回复

使用道具 举报

0

精华

0

好友

0

听众

新手上路

Rank: 1

蓝光币
0
发表于 2021-6-19 16:09:16 | 显示全部楼层
谢谢楼主分享
回复

使用道具 举报

您需要登录后才可以回帖 登录 | 立即注册

本版积分规则

QQ|Archiver|手机版|小黑屋|蓝光电影网

GMT+8, 2024-6-26 05:54 , Processed in 0.082507 second(s), 24 queries .

Powered by Discuz! X3.4

Copyright © 2001-2020, Tencent Cloud.

快速回复 返回顶部 返回列表