找回密码
 立即注册

QQ登录

只需一步,快速开始

查看: 1482|回复: 0

[10bit.HDR] 生化危机3:灭绝/恶灵古堡3:大灭绝 Resident.Evil.Extinction.2007.2160p.UHD.BluRay.x265.10bit.HDR.DTS-HD.MA.TrueHD.7.1.Atmos-SWTYBLZ 19.45GB

[复制链接]

已抛锚 成长值: 310

0

精华

0

好友

0

听众

管理员

Rank: 9Rank: 9Rank: 9

蓝光币
7041
发表于 2020-11-28 23:42:54 | 显示全部楼层 |阅读模式


译  名 生化危机3:灭绝 / Resident Evil 3 / 恶灵古堡3:大灭绝 / 生化危机3 / 生化危机3:劫后余生 / 生化危机:绝种生还者
片  名 Resident Evil: Extinction
年  代 2007
产  地 美国 / 法国 / 澳大利亚 / 德国 / 英国
类  别 行动 / 科幻 / 可骇
语  言 英语
上映日期 2007-09-21(美国)
IMDb评分6.3/10 from 180813 users
IMDb链接https://www.imdb.com/title/tt0432021
豆瓣评分 7.3/10 from 160124 users
豆瓣链接 https://movie.douban.com/subject/1482911/
片  长 95 分钟(美国)
导  演 拉塞尔·穆卡希 Russell Mulcahy
编  剧 保罗·安德森 Paul W.S. Anderson
主  演 米拉·乔沃维奇 Milla Jovovich
     奥德·菲尔 Oded Fehr
     伊恩·格雷 Iain Glen
     艾丽·拉特 Ali Larter
     亚香缇 Ashanti
     黄笑嬿 Xiaoyan Huang
     加里·A·赫克 Gary A. Hecker
     加里·哈德逊 Gary Hudson
     克里斯托弗·艾甘 Christopher Egan
     吉奥夫·米德 Geoff Meed
     杰森·奥玛拉 Jason O'Mara
     玛德琳·卡罗尔 Madeline Carroll
     马修·马斯登 Matthew Marsden
     迈克·艾普斯 Mike Epps
     彼特·奥梅拉 Peter O'Meara
     史宾塞·洛克 Spencer Locke
     林登·阿什比 Linden Ashby
     里克·克拉梅尔 Rick Cramer
     拉蒙·弗兰克 Ramón Franco
     克里克·B·R·沃勒尔 Kirk B.R. Woller
     鲁斯蒂·乔伊纳 Rusty Joiner
     Shane Woodson

标  签 科幻 | 生化危机 | 美国 | 行动 | 惊悚 | 可骇 | 游戏改编 | 丧尸
简  介
  爱丽丝(米拉?乔沃维奇 Milla Jovovich 饰)被庇护伞公司尝试室复制,成了伊萨克博士(伊恩?格雷 Iain Glen 饰)的研讨标本。由于她体内的DNA可以匹敌T-病毒,所以博士以此来提升僵尸的杀伤力。爱丽丝接到了人类的求救信号,但却中了奸计,几经拼杀,刚刚自救。她如释重负,但是在睡梦中,她却激烈地感受体内强大气力的呼唤,明显庇护伞公司尝试室对她做了手脚。而且,伊萨克博士还给僵尸注入了人类血液,激活其人类的心智。僵尸变得更强大,底子没法被控制,他们残暴地杀戮了尝试室助手,被练习对于爱丽丝。3年后,地球成了穷山恶水。内华达州的幸存者结成了同盟,爱丽丝也在其中,可是她不敢表露身份,由于尝试室给了她超才能,同时也让她被迫做了特务。爱丽丝被孤立,只要卡洛斯晓得她的苦处,二人也是以堕入了暗昧当中……
  1. Video
  2. ID             : 1
  3. Format           : HEVC
  4. Format/Info          : High Efficiency Video Coding
  5. Format profile         : Main [email]10@L5.1[/email]@High
  6. HDR format           : SMPTE ST 2086, HDR10 compatible
  7. Codec ID           : V_MPEGH/ISO/HEVC
  8. Duration           : 1 h 34 min
  9. Bit rate           : 21.0 Mb/s
  10. Width            : 3 840 pixels
  11. Height           : 1 606 pixels
  12. Display aspect ratio       : 2.40:1
  13. Frame rate mode        : Constant
  14. Frame rate           : 23.976 (24000/1001/45378) FPS
  15. Color space          : YUV
  16. Chroma subsampling       : 4:2:0 (Type 2)
  17. Bit depth          : 10 bits
  18. Bits/(Pixel*Frame)       : 0.142
  19. Stream size          : 13.8 GiB (71%)
  20. Title            : Resident.Evil.Extinction.2007.2160p.UHD.BluRay.x265.10bit.HDR.DTS-HD.MA.TrueHD.7.1.Atmos-SWTYBLZ
  21. Writing library        : x265 3.0_Au+10-74a8672ea4f7:[Windows][GCC 8.2.1][64 bit] 10bit
  22. Encoding settings        : cpuid=1111039 / frame-threads=6 / numa-pools=24,24,24,24 / wpp / no-pmode / no-pme / no-psnr / no-ssim / log-level=2 / input-csp=1 / input-res=3840x1606 / interlace=0 / total-frames=0 / level-idc=51 / high-tier=1 / uhd-bd=0 / ref=3 / no-allow-non-conformance / repeat-headers / annexb / aud / hrd / info / hash=0 / no-temporal-layers / no-open-gop / min-keyint=1 / keyint=24 / gop-lookahead=0 / bframes=4 / b-adapt=2 / b-pyramid / bframe-bias=0 / rc-lookahead=25 / lookahead-slices=4 / scenecut=40 / radl=0 / no-splice / no-intra-refresh / ctu=64 / min-cu-size=8 / no-rect / no-amp / max-tu-size=32 / tu-inter-depth=1 / tu-intra-depth=1 / limit-tu=0 / rdoq-level=0 / dynamic-rd=0.00 / no-ssim-rd / signhide / no-tskip / nr-intra=0 / nr-inter=0 / no-constrained-intra / strong-intra-smoothing / max-merge=2 / limit-refs=3 / no-limit-modes / me=1 / subme=2 / merange=57 / temporal-mvp / weightp / no-weightb / no-analyze-src-pics / deblock=0:0 / no-sao / no-sao-non-deblock / rd=3 / no-early-skip / rskip / no-fast-intra / no-tskip-fast / no-cu-lossless / no-b-intra / no-splitrd-skip / rdpenalty=0 / psy-rd=2.00 / psy-rdoq=0.00 / no-rd-refine / no-lossless / cbqpoffs=0 / crqpoffs=0 / rc=crf / crf=16.0 / qcomp=0.60 / qpstep=4 / stats-write=0 / stats-read=0 / vbv-maxrate=160000 / vbv-bufsize=160000 / vbv-init=0.9 / crf-max=0.0 / crf-min=0.0 / ipratio=1.40 / pbratio=1.30 / aq-mode=1 / aq-strength=1.00 / cutree / zone-count=0 / no-strict-cbr / qg-size=32 / no-rc-grain / qpmax=69 / qpmin=0 / no-const-vbv / sar=1 / overscan=0 / videoformat=5 / range=0 / colorprim=9 / transfer=16 / colormatrix=9 / chromaloc=1 / chromaloc-top=2 / chromaloc-bottom=2 / display-window=0 / master-display=G(13250,34500)B(7500,3000)R(34000,16000)WP(15635,16450)L(40000000,50) / max-cll=992,581 / min-luma=0 / max-luma=1023 / log2-max-poc-lsb=8 / vui-timing-info / vui-hrd-info / slices=1 / opt-qp-pps / opt-ref-list-length-pps / no-multi-pass-opt-rps / scenecut-bias=0.05 / no-opt-cu-delta-qp / no-aq-motion / hdr / hdr-opt / no-dhdr10-opt / no-idr-recovery-sei / analysis-reuse-level=5 / scale-factor=0 / refine-intra=0 / refine-inter=0 / refine-mv=0 / refine-ctu-distortion=0 / no-limit-sao / ctu-info=0 / no-lowpass-dct / refine-analysis-type=0 / copy-pic=1 / max-ausize-factor=1.0 / no-dynamic-refine / no-single-sei / no-hevc-aq / no-svt / qp-adaptation-range=1.00
  23. Default            : Yes
  24. Forced           : No
  25. Color range          : Limited
  26. Color primaries        : BT.2020
  27. Transfer characteristics     : PQ
  28. Matrix coefficients        : BT.2020 non-constant
  29. Mastering display color primaries  : Display P3
  30. Mastering display luminance    : min: 0.0050 cd/m2, max: 4000 cd/m2
  31. Maximum Content Light Level    : 992 cd/m2
  32. Maximum Frame-Average Light Level  : 581 cd/m2

  33. Audio #1
  34. ID             : 2
  35. ID in the original source medium   : 4352 (0x1100)
  36. Format           : MLP FBA 16-ch
  37. Format/Info          : Meridian Lossless Packing FBA with 16-channel presentation
  38. Commercial name        : Dolby TrueHD with Dolby Atmos
  39. Codec ID           : A_TRUEHD
  40. Duration           : 1 h 34 min
  41. Bit rate mode          : Variable
  42. Bit rate           : 3 395 kb/s
  43. Maximum bit rate         : 5 565 kb/s
  44. Channel(s)           : 8 channels
  45. Channel layout         : L R C LFE Ls Rs Lb Rb
  46. Sampling rate          : 48.0 kHz
  47. Frame rate           : 1 200.000 FPS (40 SPF)
  48. Compression mode         : Lossless
  49. Stream size          : 2.23 GiB (12%)
  50. Title            : Resident.Evil.Extinction.2007.2160p.UHD.BluRay.x265.10bit.HDR.DTS-HD.MA.TrueHD.7.1.Atmos-SWTYBLZ
  51. Language           : English
  52. Default            : Yes
  53. Forced           : No
  54. Original source medium       : Blu-ray
  55. Number of dynamic objects      : 11
  56. Bed channel count        : 1 channel
  57. Bed channel configuration      : LFE

  58. Audio #2
  59. ID             : 3
  60. Format           : DTS XLL
  61. Format/Info          : Digital Theater Systems
  62. Commercial name        : DTS-HD Master Audio
  63. Codec ID           : A_DTS
  64. Duration           : 1 h 34 min
  65. Bit rate mode          : Variable
  66. Bit rate           : 4 184 kb/s
  67. Channel(s)           : 8 channels
  68. Channel layout         : C L R LFE Lb Rb Lss Rss
  69. Sampling rate          : 48.0 kHz
  70. Frame rate           : 93.750 FPS (512 SPF)
  71. Bit depth          : 24 bits
  72. Compression mode         : Lossless
  73. Stream size          : 2.75 GiB (14%)
  74. Title            : Resident.Evil.Extinction.2007.2160p.UHD.BluRay.x265.10bit.HDR.DTS-HD.MA.TrueHD.7.1.Atmos-SWTYBLZ
  75. Language           : English
  76. Default            : No
  77. Forced           : No

  78. Audio #3
  79. ID             : 4
  80. ID in the original source medium   : 4352 (0x1100)
  81. Format           : AC-3
  82. Format/Info          : Audio Coding 3
  83. Commercial name        : Dolby Digital
  84. Codec ID           : A_AC3
  85. Duration           : 1 h 34 min
  86. Bit rate mode          : Constant
  87. Bit rate           : 640 kb/s
  88. Channel(s)           : 6 channels
  89. Channel layout         : L R C LFE Ls Rs
  90. Sampling rate          : 48.0 kHz
  91. Frame rate           : 31.250 FPS (1536 SPF)
  92. Compression mode         : Lossy
  93. Stream size          : 431 MiB (2%)
  94. Title            : Resident.Evil.Extinction.2007.2160p.UHD.BluRay.x265.10bit.HDR.DTS-HD.MA.TrueHD.7.1.Atmos-SWTYBLZ
  95. Language           : English
  96. Service kind         : Complete Main
  97. Default            : No
  98. Forced           : No
  99. Original source medium       : Blu-ray

  100. Text #1
  101. ID             : 5
  102. Format           : UTF-8
  103. Codec ID           : S_TEXT/UTF8
  104. Codec ID/Info          : UTF-8 Plain Text
  105. Duration           : 1 h 28 min
  106. Bit rate           : 27 b/s
  107. Count of elements        : 562
  108. Stream size          : 17.7 KiB (0%)
  109. Title            : English-SRT
  110. Language           : English
  111. Default            : Yes
  112. Forced           : No

  113. Text #2
  114. ID             : 6
  115. ID in the original source medium   : 4768 (0x12A0)
  116. Format           : PGS
  117. Muxing mode          : zlib
  118. Codec ID           : S_HDMV/PGS
  119. Codec ID/Info          : Picture based subtitle format used on BDs/HD-DVDs
  120. Duration           : 1 h 33 min
  121. Bit rate           : 20.6 kb/s
  122. Count of elements        : 1703
  123. Stream size          : 13.7 MiB (0%)
  124. Title            : English-SDH-PGS
  125. Language           : English
  126. Default            : No
  127. Forced           : No
  128. Original source medium       : Blu-ray

  129. Text #3
  130. ID             : 7
  131. ID in the original source medium   : 4769 (0x12A1)
  132. Format           : PGS
  133. Muxing mode          : zlib
  134. Codec ID           : S_HDMV/PGS
  135. Codec ID/Info          : Picture based subtitle format used on BDs/HD-DVDs
  136. Duration           : 1 h 28 min
  137. Bit rate           : 15.5 kb/s
  138. Count of elements        : 1130
  139. Stream size          : 9.83 MiB (0%)
  140. Title            : English-PGS
  141. Language           : English
  142. Default            : No
  143. Forced           : No
  144. Original source medium       : Blu-ray

  145. Text #4
  146. ID             : 8
  147. ID in the original source medium   : 4770 (0x12A2)
  148. Format           : PGS
  149. Muxing mode          : zlib
  150. Codec ID           : S_HDMV/PGS
  151. Codec ID/Info          : Picture based subtitle format used on BDs/HD-DVDs
  152. Duration           : 1 h 33 min
  153. Bit rate           : 20.5 kb/s
  154. Count of elements        : 1705
  155. Stream size          : 13.7 MiB (0%)
  156. Title            : English-SDH-PGS
  157. Language           : English
  158. Default            : No
  159. Forced           : No
  160. Original source medium       : Blu-ray

  161. Text #5
  162. ID             : 9
  163. ID in the original source medium   : 4771 (0x12A3)
  164. Format           : PGS
  165. Muxing mode          : zlib
  166. Codec ID           : S_HDMV/PGS
  167. Codec ID/Info          : Picture based subtitle format used on BDs/HD-DVDs
  168. Duration           : 1 h 28 min
  169. Bit rate           : 15.5 kb/s
  170. Count of elements        : 1130
  171. Stream size          : 9.83 MiB (0%)
  172. Title            : English-PGS
  173. Language           : English
  174. Default            : No
  175. Forced           : No
  176. Original source medium       : Blu-ray

  177. Text #6
  178. ID             : 10
  179. ID in the original source medium   : 4772 (0x12A4)
  180. Format           : PGS
  181. Muxing mode          : zlib
  182. Codec ID           : S_HDMV/PGS
  183. Codec ID/Info          : Picture based subtitle format used on BDs/HD-DVDs
  184. Duration           : 1 h 30 min
  185. Bit rate           : 14.3 kb/s
  186. Count of elements        : 1034
  187. Stream size          : 9.18 MiB (0%)
  188. Title            : Bulgarian-PGS
  189. Language           : Bulgarian
  190. Default            : No
  191. Forced           : No
  192. Original source medium       : Blu-ray

  193. Text #7
  194. ID             : 11
  195. ID in the original source medium   : 4773 (0x12A5)
  196. Format           : PGS
  197. Muxing mode          : zlib
  198. Codec ID           : S_HDMV/PGS
  199. Codec ID/Info          : Picture based subtitle format used on BDs/HD-DVDs
  200. Duration           : 1 h 30 min
  201. Bit rate           : 14.1 kb/s
  202. Count of elements        : 1180
  203. Stream size          : 9.06 MiB (0%)
  204. Title            : Chinese-PGS
  205. Language           : Chinese
  206. Default            : No
  207. Forced           : No
  208. Original source medium       : Blu-ray

  209. Text #8
  210. ID             : 12
  211. ID in the original source medium   : 4774 (0x12A6)
  212. Format           : PGS
  213. Muxing mode          : zlib
  214. Codec ID           : S_HDMV/PGS
  215. Codec ID/Info          : Picture based subtitle format used on BDs/HD-DVDs
  216. Duration           : 1 h 30 min
  217. Bit rate           : 14.0 kb/s
  218. Count of elements        : 1150
  219. Stream size          : 9.00 MiB (0%)
  220. Title            : Czech-PGS
  221. Language           : Czech
  222. Default            : No
  223. Forced           : No
  224. Original source medium       : Blu-ray

  225. Text #9
  226. ID             : 13
  227. ID in the original source medium   : 4775 (0x12A7)
  228. Format           : PGS
  229. Muxing mode          : zlib
  230. Codec ID           : S_HDMV/PGS
  231. Codec ID/Info          : Picture based subtitle format used on BDs/HD-DVDs
  232. Duration           : 1 h 30 min
  233. Bit rate           : 13.7 kb/s
  234. Count of elements        : 1048
  235. Stream size          : 8.85 MiB (0%)
  236. Title            : Danish-PGS
  237. Language           : Danish
  238. Default            : No
  239. Forced           : No
  240. Original source medium       : Blu-ray

  241. Text #10
  242. ID             : 14
  243. ID in the original source medium   : 4776 (0x12A8)
  244. Format           : PGS
  245. Muxing mode          : zlib
  246. Codec ID           : S_HDMV/PGS
  247. Codec ID/Info          : Picture based subtitle format used on BDs/HD-DVDs
  248. Duration           : 1 h 28 min
  249. Bit rate           : 13.5 kb/s
  250. Count of elements        : 763
  251. Stream size          : 8.56 MiB (0%)
  252. Title            : Estonian-PGS
  253. Language           : Estonian
  254. Default            : No
  255. Forced           : No
  256. Original source medium       : Blu-ray

  257. Text #11
  258. ID             : 15
  259. ID in the original source medium   : 4777 (0x12A9)
  260. Format           : PGS
  261. Muxing mode          : zlib
  262. Codec ID           : S_HDMV/PGS
  263. Codec ID/Info          : Picture based subtitle format used on BDs/HD-DVDs
  264. Duration           : 1 h 30 min
  265. Bit rate           : 13.4 kb/s
  266. Count of elements        : 1168
  267. Stream size          : 8.61 MiB (0%)
  268. Title            : Finnish-PGS
  269. Language           : Finnish
  270. Default            : No
  271. Forced           : No
  272. Original source medium       : Blu-ray

  273. Text #12
  274. ID             : 16
  275. ID in the original source medium   : 4778 (0x12AA)
  276. Format           : PGS
  277. Muxing mode          : zlib
  278. Codec ID           : S_HDMV/PGS
  279. Codec ID/Info          : Picture based subtitle format used on BDs/HD-DVDs
  280. Duration           : 1 h 30 min
  281. Bit rate           : 13.6 kb/s
  282. Count of elements        : 1132
  283. Stream size          : 8.76 MiB (0%)
  284. Title            : French-PGS
  285. Language           : French
  286. Default            : No
  287. Forced           : No
  288. Original source medium       : Blu-ray

  289. Text #13
  290. ID             : 17
  291. ID in the original source medium   : 4779 (0x12AB)
  292. Format           : PGS
  293. Muxing mode          : zlib
  294. Codec ID           : S_HDMV/PGS
  295. Codec ID/Info          : Picture based subtitle format used on BDs/HD-DVDs
  296. Duration           : 1 h 30 min
  297. Bit rate           : 13.2 kb/s
  298. Count of elements        : 1180
  299. Stream size          : 8.51 MiB (0%)
  300. Title            : Hindi-PGS
  301. Language           : Hindi
  302. Default            : No
  303. Forced           : No
  304. Original source medium       : Blu-ray

  305. Text #14
  306. ID             : 18
  307. ID in the original source medium   : 4780 (0x12AC)
  308. Format           : PGS
  309. Muxing mode          : zlib
  310. Codec ID           : S_HDMV/PGS
  311. Codec ID/Info          : Picture based subtitle format used on BDs/HD-DVDs
  312. Duration           : 1 h 30 min
  313. Bit rate           : 13.1 kb/s
  314. Count of elements        : 1154
  315. Stream size          : 8.46 MiB (0%)
  316. Title            : Hungarian-PGS
  317. Language           : Hungarian
  318. Default            : No
  319. Forced           : No
  320. Original source medium       : Blu-ray

  321. Text #15
  322. ID             : 19
  323. ID in the original source medium   : 4781 (0x12AD)
  324. Format           : PGS
  325. Muxing mode          : zlib
  326. Codec ID           : S_HDMV/PGS
  327. Codec ID/Info          : Picture based subtitle format used on BDs/HD-DVDs
  328. Duration           : 1 h 30 min
  329. Bit rate           : 14.8 kb/s
  330. Count of elements        : 1019
  331. Stream size          : 9.51 MiB (0%)
  332. Title            : Icelandic-PGS
  333. Language           : Icelandic
  334. Default            : No
  335. Forced           : No
  336. Original source medium       : Blu-ray

  337. Text #16
  338. ID             : 20
  339. ID in the original source medium   : 4782 (0x12AE)
  340. Format           : PGS
  341. Muxing mode          : zlib
  342. Codec ID           : S_HDMV/PGS
  343. Codec ID/Info          : Picture based subtitle format used on BDs/HD-DVDs
  344. Duration           : 1 h 30 min
  345. Bit rate           : 16.4 kb/s
  346. Count of elements        : 1186
  347. Stream size          : 10.6 MiB (0%)
  348. Title            : Italian-PGS
  349. Language           : Italian
  350. Default            : No
  351. Forced           : No
  352. Original source medium       : Blu-ray

  353. Text #17
  354. ID             : 21
  355. ID in the original source medium   : 4783 (0x12AF)
  356. Format           : PGS
  357. Muxing mode          : zlib
  358. Codec ID           : S_HDMV/PGS
  359. Codec ID/Info          : Picture based subtitle format used on BDs/HD-DVDs
  360. Duration           : 1 h 22 min
  361. Bit rate           : 11.3 kb/s
  362. Count of elements        : 1130
  363. Stream size          : 6.68 MiB (0%)
  364. Title            : Japanese-PGS
  365. Language           : Japanese
  366. Default            : No
  367. Forced           : No
  368. Original source medium       : Blu-ray

  369. Text #18
  370. ID             : 22
  371. ID in the original source medium   : 4784 (0x12B0)
  372. Format           : PGS
  373. Muxing mode          : zlib
  374. Codec ID           : S_HDMV/PGS
  375. Codec ID/Info          : Picture based subtitle format used on BDs/HD-DVDs
  376. Duration           : 1 h 30 min
  377. Bit rate           : 12.2 kb/s
  378. Count of elements        : 1256
  379. Stream size          : 7.88 MiB (0%)
  380. Title            : Korean-PGS
  381. Language           : Korean
  382. Default            : No
  383. Forced           : No
  384. Original source medium       : Blu-ray

  385. Text #19
  386. ID             : 23
  387. ID in the original source medium   : 4785 (0x12B1)
  388. Format           : PGS
  389. Muxing mode          : zlib
  390. Codec ID           : S_HDMV/PGS
  391. Codec ID/Info          : Picture based subtitle format used on BDs/HD-DVDs
  392. Duration           : 1 h 30 min
  393. Bit rate           : 15.3 kb/s
  394. Count of elements        : 1188
  395. Stream size          : 9.82 MiB (0%)
  396. Title            : Lithuanian-PGS
  397. Language           : Lithuanian
  398. Default            : No
  399. Forced           : No
  400. Original source medium       : Blu-ray

  401. Text #20
  402. ID             : 24
  403. ID in the original source medium   : 4786 (0x12B2)
  404. Format           : PGS
  405. Muxing mode          : zlib
  406. Codec ID           : S_HDMV/PGS
  407. Codec ID/Info          : Picture based subtitle format used on BDs/HD-DVDs
  408. Duration           : 1 h 30 min
  409. Bit rate           : 11.9 kb/s
  410. Count of elements        : 1038
  411. Stream size          : 7.70 MiB (0%)
  412. Title            : Norwegian-PGS
  413. Language           : Norwegian
  414. Default            : No
  415. Forced           : No
  416. Original source medium       : Blu-ray

  417. Text #21
  418. ID             : 25
  419. ID in the original source medium   : 4787 (0x12B3)
  420. Format           : PGS
  421. Muxing mode          : zlib
  422. Codec ID           : S_HDMV/PGS
  423. Codec ID/Info          : Picture based subtitle format used on BDs/HD-DVDs
  424. Duration           : 1 h 30 min
  425. Bit rate           : 13.0 kb/s
  426. Count of elements        : 1172
  427. Stream size          : 8.39 MiB (0%)
  428. Title            : Polish-PGS
  429. Language           : Polish
  430. Default            : No
  431. Forced           : No
  432. Original source medium       : Blu-ray

  433. Text #22
  434. ID             : 26
  435. ID in the original source medium   : 4788 (0x12B4)
  436. Format           : PGS
  437. Muxing mode          : zlib
  438. Codec ID           : S_HDMV/PGS
  439. Codec ID/Info          : Picture based subtitle format used on BDs/HD-DVDs
  440. Duration           : 1 h 30 min
  441. Bit rate           : 13.9 kb/s
  442. Count of elements        : 1154
  443. Stream size          : 8.93 MiB (0%)
  444. Title            : Portuguese-PGS
  445. Language           : Portuguese
  446. Default            : No
  447. Forced           : No
  448. Original source medium       : Blu-ray

  449. Text #23
  450. ID             : 27
  451. ID in the original source medium   : 4789 (0x12B5)
  452. Format           : PGS
  453. Muxing mode          : zlib
  454. Codec ID           : S_HDMV/PGS
  455. Codec ID/Info          : Picture based subtitle format used on BDs/HD-DVDs
  456. Duration           : 1 h 30 min
  457. Bit rate           : 16.6 kb/s
  458. Count of elements        : 1180
  459. Stream size          : 10.7 MiB (0%)
  460. Title            : Portuguese-PGS
  461. Language           : Portuguese
  462. Default            : No
  463. Forced           : No
  464. Original source medium       : Blu-ray

  465. Text #24
  466. ID             : 28
  467. ID in the original source medium   : 4790 (0x12B6)
  468. Format           : PGS
  469. Muxing mode          : zlib
  470. Codec ID           : S_HDMV/PGS
  471. Codec ID/Info          : Picture based subtitle format used on BDs/HD-DVDs
  472. Duration           : 1 h 30 min
  473. Bit rate           : 15.8 kb/s
  474. Count of elements        : 1190
  475. Stream size          : 10.2 MiB (0%)
  476. Title            : Romanian-PGS
  477. Language           : Romanian
  478. Default            : No
  479. Forced           : No
  480. Original source medium       : Blu-ray

  481. Text #25
  482. ID             : 29
  483. ID in the original source medium   : 4791 (0x12B7)
  484. Format           : PGS
  485. Muxing mode          : zlib
  486. Codec ID           : S_HDMV/PGS
  487. Codec ID/Info          : Picture based subtitle format used on BDs/HD-DVDs
  488. Duration           : 1 h 30 min
  489. Bit rate           : 14.1 kb/s
  490. Count of elements        : 1176
  491. Stream size          : 9.09 MiB (0%)
  492. Title            : Slovak-PGS
  493. Language           : Slovak
  494. Default            : No
  495. Forced           : No
  496. Original source medium       : Blu-ray

  497. Text #26
  498. ID             : 30
  499. ID in the original source medium   : 4792 (0x12B8)
  500. Format           : PGS
  501. Muxing mode          : zlib
  502. Codec ID           : S_HDMV/PGS
  503. Codec ID/Info          : Picture based subtitle format used on BDs/HD-DVDs
  504. Duration           : 1 h 30 min
  505. Bit rate           : 13.1 kb/s
  506. Count of elements        : 1174
  507. Stream size          : 8.44 MiB (0%)
  508. Title            : Slovenian-PGS
  509. Language           : Slovenian
  510. Default            : No
  511. Forced           : No
  512. Original source medium       : Blu-ray

  513. Text #27
  514. ID             : 31
  515. ID in the original source medium   : 4793 (0x12B9)
  516. Format           : PGS
  517. Muxing mode          : zlib
  518. Codec ID           : S_HDMV/PGS
  519. Codec ID/Info          : Picture based subtitle format used on BDs/HD-DVDs
  520. Duration           : 1 h 30 min
  521. Bit rate           : 15.2 kb/s
  522. Count of elements        : 1222
  523. Stream size          : 9.78 MiB (0%)
  524. Title            : Spanish-PGS
  525. Language           : Spanish
  526. Default            : No
  527. Forced           : No
  528. Original source medium       : Blu-ray

  529. Text #28
  530. ID             : 32
  531. ID in the original source medium   : 4794 (0x12BA)
  532. Format           : PGS
  533. Muxing mode          : zlib
  534. Codec ID           : S_HDMV/PGS
  535. Codec ID/Info          : Picture based subtitle format used on BDs/HD-DVDs
  536. Duration           : 1 h 30 min
  537. Bit rate           : 15.3 kb/s
  538. Count of elements        : 1164
  539. Stream size          : 9.83 MiB (0%)
  540. Title            : Spanish-PGS
  541. Language           : Spanish
  542. Default            : No
  543. Forced           : No
  544. Original source medium       : Blu-ray

  545. Text #29
  546. ID             : 33
  547. ID in the original source medium   : 4795 (0x12BB)
  548. Format           : PGS
  549. Muxing mode          : zlib
  550. Codec ID           : S_HDMV/PGS
  551. Codec ID/Info          : Picture based subtitle format used on BDs/HD-DVDs
  552. Duration           : 1 h 30 min
  553. Bit rate           : 14.7 kb/s
  554. Count of elements        : 994
  555. Stream size          : 9.47 MiB (0%)
  556. Title            : Swedish-PGS
  557. Language           : Swedish
  558. Default            : No
  559. Forced           : No
  560. Original source medium       : Blu-ray

  561. Text #30
  562. ID             : 34
  563. ID in the original source medium   : 4796 (0x12BC)
  564. Format           : PGS
  565. Muxing mode          : zlib
  566. Codec ID           : S_HDMV/PGS
  567. Codec ID/Info          : Picture based subtitle format used on BDs/HD-DVDs
  568. Duration           : 47 min 12 s
  569. Bit rate           : 240 b/s
  570. Count of elements        : 8
  571. Stream size          : 83.2 KiB (0%)
  572. Title            : Catalan-PGS
  573. Language           : Catalan
  574. Default            : No
  575. Forced           : No
  576. Original source medium       : Blu-ray

  577. Menu
  578. 00:00:00.000         : en:Chapter 01
  579. 00:07:32.368         : en:Chapter 02
  580. 00:13:39.151         : en:Chapter 03
  581. 00:18:25.437         : en:Chapter 04
  582. 00:25:13.345         : en:Chapter 05
  583. 00:30:07.806         : en:Chapter 06
  584. 00:32:18.478         : en:Chapter 07
  585. 00:38:53.497         : en:Chapter 08
  586. 00:44:21.784         : en:Chapter 09
  587. 00:50:56.053         : en:Chapter 10
  588. 00:55:23.403         : en:Chapter 11
  589. 01:01:46.160         : en:Chapter 12
  590. 01:08:50.292         : en:Chapter 13
  591. 01:14:42.769         : en:Chapter 14
  592. 01:19:12.664         : en:Chapter 15
  593. 01:24:15.050         : en:Chapter 16
复制代码



















Resident.Evil.Extinction.2007.2160p.UHD.BluRay.x265.10bit.HDR.DTS-HD.MA.TrueHD.7.torrent (97.94 KB, 下载次数: 12)

回复

使用道具 举报

您需要登录后才可以回帖 登录 | 立即注册

本版积分规则

QQ|Archiver|手机版|小黑屋|蓝光电影网

GMT+8, 2024-6-26 06:58 , Processed in 0.052763 second(s), 24 queries .

Powered by Discuz! X3.4

Copyright © 2001-2020, Tencent Cloud.

快速回复 返回顶部 返回列表