找回密码
 立即注册

QQ登录

只需一步,快速开始

查看: 242|回复: 0

[2160p] 吵闹鬼.Poltergeist.1982.UHD.BluRay.2160p.DTS-HD.MA.5.1.DV.HEVC.HYBRID.REMUX-FraMeSToR 51.19GB

[复制链接]

0

精华

0

好友

2

听众

实习版主

Rank: 7Rank: 7Rank: 7

蓝光币
5
发表于 2023-11-10 12:33:15 | 显示全部楼层 |阅读模式


◎译  名 吵闹鬼 / 鬼驱人 / 鬼哭神嚎
◎片  名 Poltergeist
◎年  代 1982
◎产  地 美国
◎类  别 恐怖 / 奇幻
◎语  言 英语
◎上映日期 1982-06-04(美国)
◎IMDb评星  ★★★★★★★✦☆☆
◎IMDb评分  7.3/10 from 176,190 users
◎IMDb链接  https://www.imdb.com/title/tt0084516/
◎豆瓣评星 ★★★✦☆
◎豆瓣评分 6.8/10 from 2,627 users
◎豆瓣链接 https://movie.douban.com/subject/1293042/
◎片  长 114 分钟
◎导  演 托比·霍珀 / Tobe Hooper
      迈克尔·卡恩 / Michael Kahn
◎演  员 格雷格·T·尼尔森 / Craig T. Nelson
      乔贝兹·威廉姆斯 / JoBeth Williams
      比阿特丽斯·斯特雷特 / Beatrice Straight
      多米妮克·邓恩 / Dominique Dunne
      奥利弗·罗宾斯 / Oliver Robins
      赛尔达·鲁宾斯特恩 / Zelda Rubinstein
      詹姆斯·凯伦 / James Karen
      海瑟·欧罗克 / Heather O'Rourke
      Michael McManus Michael McManus
      维吉妮娅·凯泽 / Virginia Kiser
      理查德·劳森 / Richard Lawson
      卢·佩里曼 / Lou Perryman
      德克·布罗克 / Dirk Blocker
      阿兰·格拉夫 / Allan Graf
◎编  剧 史蒂文·斯皮尔伯格 / Steven Spielberg
◎制  片  人 凯瑟琳·肯尼迪 / Kathleen Kennedy
◎音  乐 杰瑞·高德史密斯 / Jerry Goldsmith
◎选  角 迈克·芬顿 / Mike Fenton
◎美  术 齐阿瑞·科尔尼 / Cheryal Kearney
      詹姆斯·H·斯宾塞 / James H. Spencer
◎化  妆 Dorothy J. Pearl Dorothy J. Pearl
      Toni-Ann Walker Toni-Ann Walker
◎副  导  演 Pat Kehoe Pat Kehoe
◎视觉特效 约翰·麦克劳德 / John McLeod
      杰克·莫多万 / Jack Mongovan
      塞恩·莫里斯 / Thaine Morris
      布鲁斯·尼科尔森 / Bruce Nicholson
      迈克尔·潘格拉齐奥 / Michael Pangrazio
      洛尔恩·彼得森 / Lorne Peterson
      尼罗·罗兹-贾梅罗 / Nilo Rodis-Jamero
      托马斯·罗塞特 / Thomas Rosseter
      托马斯·G·史密斯 / Thomas G. Smith
      David Sosalla David Sosalla
      加里·沃勒 / Garry Waller
      约翰·埃利斯 / John Ellis
      罗布·拉杜卡 / Rob LaDuca
      尼尔·克雷佩拉 / Neil Krepela
      查尔斯·贝利 / Charles Bailey
      克莱格·巴朗 / Craig Barron
      约翰·布鲁诺 / John Bruno
      康拉德·巴夫四世 / Conrad Buff IV
      劳拉·巴夫 / Laura Buff
      Rick Fichter Rick Fichter
      史蒂夫·高利 / Steve Gawley
      爱德华·赫希 / Edward Hirsh
      保罗·哈特森 / Paul Huston
      埃德·琼斯 / Ed Jones
◎简  介 
  事业有成、意气风发的史蒂文•弗瑞林(Craig T. Nelson 饰)带着妻子戴安(JoBeth Williams 饰)和三个孩子搬进了加利福尼亚某郊外社区。但在入住不久,怪事便频繁发生。先是小女儿卡萝(Heather O'Rourke 饰)梦游,对着自动开启漫屏雪花的电视机自言自语。接着便又不明物体从电视机中飘出,莫名的地震,破碎的玻璃杯……如此种种,搅得弗瑞林一家坐卧不定。过了不久,恐怖事件逐渐升级,卡萝最终竟被拉入电视机中……
  本片荣获1983年美国科幻恐怖电影节最佳恐怖片、最佳化装和最佳女配角(Zelda Rubinstein)三个奖项;1983年英国电视与电影协会最佳特效奖。
◎获奖情况 
  第55届奥斯卡金像奖 (1983)
  最佳视觉效果(提名) 理查德·艾德兰德,迈克尔·伍德,布鲁斯·尼科尔森
  最佳音效剪辑(提名) 理查德·路易斯·安德森,斯蒂芬·亨特·弗利克
  最佳原创配乐(提名) 杰瑞·高德史密斯
  1. General
  2. Unique ID                                : 299660123938565826904575666657493965715 (0xE17070CA0FA3129C1D9CFD40F356DB93)
  3. Complete name                            : Poltergeist.1982.UHD.BluRay.2160p.DTS-HD.MA.5.1.DV.HEVC.HYBRID.REMUX-FraMeSToR.mkv
  4. Format                                   : Matroska
  5. Format version                           : Version 4
  6. File size                                : 51.2 GiB
  7. Duration                                 : 1 h 54 min
  8. Overall bit rate mode                    : Variable
  9. Overall bit rate                         : 64.1 Mb/s
  10. Movie name                               : Poltergeist (1982)
  11. Encoded date                             : UTC 2022-11-05 11:17:52
  12. Writing application                      : mkvmerge v71.1.0 ('Fortitude') 64-bit
  13. Writing library                          : libebml v1.4.4 + libmatroska v1.7.1
  14. IMDB                                     : tt0084516
  15. TMDB                                     : movie/609
  16. Video
  17. ID                                       : 1
  18. Format                                   : HEVC
  19. Format/Info                              : High Efficiency Video Coding
  20. Format profile                           : Main 10@L5.1@High
  21. HDR format                               : Dolby Vision, Version 1.0, dvhe.08.06, BL+RPU, HDR10 compatible / SMPTE ST 2086, HDR10 compatible
  22. Codec ID                                 : V_MPEGH/ISO/HEVC
  23. Duration                                 : 1 h 54 min
  24. Bit rate                                 : 58.9 Mb/s
  25. Width                                    : 3 840 pixels
  26. Height                                   : 2 160 pixels
  27. Display aspect ratio                     : 16:9
  28. Frame rate mode                          : Constant
  29. Frame rate                               : 23.976 (24000/1001) FPS
  30. Color space                              : YUV
  31. Chroma subsampling                       : 4:2:0 (Type 2)
  32. Bit depth                                : 10 bits
  33. Bits/(Pixel*Frame)                       : 0.296
  34. Stream size                              : 47.1 GiB (92%)
  35. Writing library                          : ATEME Titan File 3.9.6 (4.9.6.2)        
  36. Default                                  : Yes
  37. Forced                                   : No
  38. Color range                              : Limited
  39. Color primaries                          : BT.2020
  40. Transfer characteristics                 : PQ
  41. Matrix coefficients                      : BT.2020 non-constant
  42. Mastering display color primaries        : Display P3
  43. Mastering display luminance              : min: 0.0050 cd/m2, max: 4000 cd/m2
  44. Maximum Content Light Level              : 814 cd/m2
  45. Maximum Frame-Average Light Level        : 212 cd/m2
  46. Audio #1
  47. ID                                       : 2
  48. Format                                   : DTS XLL
  49. Format/Info                              : Digital Theater Systems
  50. Commercial name                          : DTS-HD Master Audio
  51. Codec ID                                 : A_DTS
  52. Duration                                 : 1 h 54 min
  53. Bit rate mode                            : Variable
  54. Bit rate                                 : 3 481 kb/s
  55. Channel(s)                               : 6 channels
  56. Channel layout                           : C L R Ls Rs LFE
  57. Sampling rate                            : 48.0 kHz
  58. Frame rate                               : 93.750 FPS (512 SPF)
  59. Bit depth                                : 24 bits
  60. Compression mode                         : Lossless
  61. Stream size                              : 2.78 GiB (5%)
  62. Title                                    : DTS-HD MA 5.1
  63. Language                                 : English
  64. Default                                  : Yes
  65. Forced                                   : No
  66. Audio #2
  67. ID                                       : 3
  68. Format                                   : FLAC
  69. Format/Info                              : Free Lossless Audio Codec
  70. Codec ID                                 : A_FLAC
  71. Duration                                 : 1 h 54 min
  72. Bit rate mode                            : Variable
  73. Bit rate                                 : 1 255 kb/s
  74. Channel(s)                               : 2 channels
  75. Channel layout                           : L R
  76. Sampling rate                            : 48.0 kHz
  77. Frame rate                               : 11.719 FPS (4096 SPF)
  78. Bit depth                                : 24 bits
  79. Compression mode                         : Lossless
  80. Stream size                              : 1.00 GiB (2%)
  81. Title                                    : FLAC 2.0 (Original Mix)
  82. Writing library                          : libFLAC 1.3.3 (UTC 2019-08-04)
  83. Language                                 : English
  84. Default                                  : No
  85. Forced                                   : No
  86. Text #1
  87. ID                                       : 4
  88. Format                                   : PGS
  89. Codec ID                                 : S_HDMV/PGS
  90. Codec ID/Info                            : Picture based subtitle format used on BDs/HD-DVDs
  91. Duration                                 : 1 h 53 min
  92. Bit rate                                 : 31.9 kb/s
  93. Count of elements                        : 2902
  94. Stream size                              : 26.0 MiB (0%)
  95. Title                                    : English (SDH)
  96. Language                                 : English
  97. Default                                  : No
  98. Forced                                   : No
  99. Text #2
  100. ID                                       : 5
  101. Format                                   : PGS
  102. Codec ID                                 : S_HDMV/PGS
  103. Codec ID/Info                            : Picture based subtitle format used on BDs/HD-DVDs
  104. Duration                                 : 1 h 53 min
  105. Bit rate                                 : 20.7 kb/s
  106. Count of elements                        : 2244
  107. Stream size                              : 16.9 MiB (0%)
  108. Title                                    : Chinese (Mandarin Traditional)
  109. Language                                 : Chinese
  110. Default                                  : No
  111. Forced                                   : No
  112. Text #3
  113. ID                                       : 6
  114. Format                                   : PGS
  115. Codec ID                                 : S_HDMV/PGS
  116. Codec ID/Info                            : Picture based subtitle format used on BDs/HD-DVDs
  117. Duration                                 : 1 h 46 min
  118. Bit rate                                 : 24.7 kb/s
  119. Count of elements                        : 2128
  120. Stream size                              : 18.8 MiB (0%)
  121. Title                                    : Danish
  122. Language                                 : Danish
  123. Default                                  : No
  124. Forced                                   : No
  125. Text #4
  126. ID                                       : 7
  127. Format                                   : PGS
  128. Codec ID                                 : S_HDMV/PGS
  129. Codec ID/Info                            : Picture based subtitle format used on BDs/HD-DVDs
  130. Duration                                 : 1 h 45 min
  131. Bit rate                                 : 19.9 kb/s
  132. Count of elements                        : 1448
  133. Stream size                              : 15.1 MiB (0%)
  134. Title                                    : Dutch
  135. Language                                 : Dutch
  136. Default                                  : No
  137. Forced                                   : No
  138. Text #5
  139. ID                                       : 8
  140. Format                                   : PGS
  141. Codec ID                                 : S_HDMV/PGS
  142. Codec ID/Info                            : Picture based subtitle format used on BDs/HD-DVDs
  143. Duration                                 : 1 h 46 min
  144. Bit rate                                 : 25.1 kb/s
  145. Count of elements                        : 2284
  146. Stream size                              : 19.0 MiB (0%)
  147. Title                                    : Finnish
  148. Language                                 : Finnish
  149. Default                                  : No
  150. Forced                                   : No
  151. Text #6
  152. ID                                       : 9
  153. Format                                   : PGS
  154. Codec ID                                 : S_HDMV/PGS
  155. Codec ID/Info                            : Picture based subtitle format used on BDs/HD-DVDs
  156. Duration                                 : 1 h 50 min
  157. Bit rate                                 : 18.4 kb/s
  158. Count of elements                        : 1818
  159. Stream size                              : 14.5 MiB (0%)
  160. Title                                    : French
  161. Language                                 : French
  162. Default                                  : No
  163. Forced                                   : No
  164. Text #7
  165. ID                                       : 10
  166. Format                                   : PGS
  167. Codec ID                                 : S_HDMV/PGS
  168. Codec ID/Info                            : Picture based subtitle format used on BDs/HD-DVDs
  169. Duration                                 : 1 h 50 min
  170. Bit rate                                 : 17.8 kb/s
  171. Count of elements                        : 1760
  172. Stream size                              : 14.1 MiB (0%)
  173. Title                                    : German
  174. Language                                 : German
  175. Default                                  : No
  176. Forced                                   : No
  177. Text #8
  178. ID                                       : 11
  179. Format                                   : PGS
  180. Codec ID                                 : S_HDMV/PGS
  181. Codec ID/Info                            : Picture based subtitle format used on BDs/HD-DVDs
  182. Duration                                 : 1 h 46 min
  183. Bit rate                                 : 28.1 kb/s
  184. Count of elements                        : 2628
  185. Stream size                              : 21.3 MiB (0%)
  186. Title                                    : German (SDH)
  187. Language                                 : German
  188. Default                                  : No
  189. Forced                                   : No
  190. Text #9
  191. ID                                       : 12
  192. Format                                   : PGS
  193. Codec ID                                 : S_HDMV/PGS
  194. Codec ID/Info                            : Picture based subtitle format used on BDs/HD-DVDs
  195. Duration                                 : 1 h 53 min
  196. Bit rate                                 : 20.1 kb/s
  197. Count of elements                        : 2188
  198. Stream size                              : 16.4 MiB (0%)
  199. Title                                    : Italian
  200. Language                                 : Italian
  201. Default                                  : No
  202. Forced                                   : No
  203. Text #10
  204. ID                                       : 13
  205. Format                                   : PGS
  206. Codec ID                                 : S_HDMV/PGS
  207. Codec ID/Info                            : Picture based subtitle format used on BDs/HD-DVDs
  208. Duration                                 : 1 h 53 min
  209. Bit rate                                 : 28.4 kb/s
  210. Count of elements                        : 2914
  211. Stream size                              : 23.1 MiB (0%)
  212. Title                                    : Italian (SDH)
  213. Language                                 : Italian
  214. Default                                  : No
  215. Forced                                   : No
  216. Text #11
  217. ID                                       : 14
  218. Format                                   : PGS
  219. Codec ID                                 : S_HDMV/PGS
  220. Codec ID/Info                            : Picture based subtitle format used on BDs/HD-DVDs
  221. Duration                                 : 1 h 45 min
  222. Bit rate                                 : 15.7 kb/s
  223. Count of elements                        : 1550
  224. Stream size                              : 11.9 MiB (0%)
  225. Title                                    : Japanese
  226. Language                                 : Japanese
  227. Default                                  : No
  228. Forced                                   : No
  229. Text #12
  230. ID                                       : 15
  231. Format                                   : PGS
  232. Codec ID                                 : S_HDMV/PGS
  233. Codec ID/Info                            : Picture based subtitle format used on BDs/HD-DVDs
  234. Duration                                 : 1 h 50 min
  235. Bit rate                                 : 16.8 kb/s
  236. Count of elements                        : 2260
  237. Stream size                              : 13.3 MiB (0%)
  238. Title                                    : Korean
  239. Language                                 : Korean
  240. Default                                  : No
  241. Forced                                   : No
  242. Text #13
  243. ID                                       : 16
  244. Format                                   : PGS
  245. Codec ID                                 : S_HDMV/PGS
  246. Codec ID/Info                            : Picture based subtitle format used on BDs/HD-DVDs
  247. Duration                                 : 1 h 46 min
  248. Bit rate                                 : 23.5 kb/s
  249. Count of elements                        : 2316
  250. Stream size                              : 17.8 MiB (0%)
  251. Title                                    : Norwegian
  252. Language                                 : Norwegian
  253. Default                                  : No
  254. Forced                                   : No
  255. Text #14
  256. ID                                       : 17
  257. Format                                   : PGS
  258. Codec ID                                 : S_HDMV/PGS
  259. Codec ID/Info                            : Picture based subtitle format used on BDs/HD-DVDs
  260. Duration                                 : 1 h 53 min
  261. Bit rate                                 : 22.3 kb/s
  262. Count of elements                        : 2230
  263. Stream size                              : 18.2 MiB (0%)
  264. Title                                    : Portuguese (Brazilian)
  265. Language                                 : Portuguese
  266. Default                                  : No
  267. Forced                                   : No
  268. Text #15
  269. ID                                       : 18
  270. Format                                   : PGS
  271. Codec ID                                 : S_HDMV/PGS
  272. Codec ID/Info                            : Picture based subtitle format used on BDs/HD-DVDs
  273. Duration                                 : 1 h 46 min
  274. Bit rate                                 : 26.0 kb/s
  275. Count of elements                        : 2180
  276. Stream size                              : 19.7 MiB (0%)
  277. Title                                    : Spanish (Castilian)
  278. Language                                 : Spanish
  279. Default                                  : No
  280. Forced                                   : No
复制代码









Poltergeist.1982.UHD.BluRay.2160p.DTS-HD.MA.5.1.DV.HEVC.HYBRID.REMUX-FraMeSToR.torrent (64.99 KB, 下载次数: 0)
回复

使用道具 举报

您需要登录后才可以回帖 登录 | 立即注册

本版积分规则

QQ|Archiver|手机版|小黑屋|蓝光电影网

GMT+8, 2024-7-16 13:23 , Processed in 0.052821 second(s), 24 queries .

Powered by Discuz! X3.4

Copyright © 2001-2020, Tencent Cloud.

快速回复 返回顶部 返回列表