找回密码
 立即注册

QQ登录

只需一步,快速开始

查看: 219|回复: 0

[2160p] 最后的恐怖电影.The Last Horror Film 1982 2160P UHD BLURAY X265-WATCHABLE 34.49GB

[复制链接]

0

精华

0

好友

2

听众

实习版主

Rank: 7Rank: 7Rank: 7

蓝光币
5
发表于 2023-9-15 10:49:26 | 显示全部楼层 |阅读模式


◎译  名 最后的恐怖电影
◎片  名 The Last Horror Film
◎年  代 1982
◎产  地 美国
◎类  别 喜剧 / 恐怖
◎语  言 英语
◎上映日期 1982-10-09(西班牙)
◎IMDb评星  ★★★★★✦☆☆☆☆
◎IMDb评分  5.5/10 from 2,054 users
◎IMDb链接  https://www.imdb.com/title/tt0087592/
◎豆瓣链接 https://movie.douban.com/subject/3358314/
◎片  长 87 分钟
◎导  演 戴维·温特斯 / David Winters
      大卫·温特斯 / David Winters
◎演  员 乔·斯皮内尔 / Joe Spinell
      Peter D'Arcy Peter D'Arcy
      Filomena Spagnuolo Filomena Spagnuolo
      卡罗琳·莫罗 / Caroline Munro
      Robert Paget Robert Paget
      理查德·马内尔 / Richard Marner
      苏珊·本顿 / Susanne Benton
      Judd Hamilton Judd Hamilton
      戴维·温特斯 / David Winters
      琼·查德威克 / June Chadwick
      罗宾·利奇 / Robin Leach
      David Jones David Jones
      Luke Walter Luke Walter
      伊莎贝尔·阿佳妮 / Isabelle Adjani
      凯伦·布莱克 / Karen Black
      Cathy Lee Crosby Cathy Lee Crosby
      克里斯·克里斯托佛森 / Kris Kristofferson
      马塞洛·马斯楚安尼 / Marcello Mastroianni
      大卫·温特斯 / David Winters
◎编  剧 Judd Hamilton Judd Hamilton
      戴维·温特斯 / David Winters
      大卫·温特斯 / David Winters
◎制  片  人 大卫·温特斯 / David Winters
      Luke Walter Luke Walter
      Judd Hamilton Judd Hamilton
◎美  术 布莱恩·塞夫加尔 / Brian Savegar
◎简  介 
  A New York taxi driver stalks a beautiful actress attending the Cannes Film Festival, which coincides with a series of violent killings of the lady's friends
  1. Video
  2. ID                                       : 1
  3. Format                                   : HEVC
  4. Format/Info                              : High Efficiency Video Coding
  5. Format profile                           : Main 10@L5.1@High
  6. HDR format                               : Dolby Vision, Version 1.0, dvhe.08.06, BL+RPU, HDR10 compatible / SMPTE ST 2086, HDR10 compatible
  7. Codec ID                                 : V_MPEGH/ISO/HEVC
  8. Duration                                 : 1 h 27 min
  9. Bit rate                                 : 55.7 Mb/s
  10. Width                                    : 3 840 pixels
  11. Height                                   : 2 076 pixels
  12. Display aspect ratio                     : 1.85:1
  13. Frame rate mode                          : Constant
  14. Frame rate                               : 23.976 (24000/1001) FPS
  15. Color space                              : YUV
  16. Chroma subsampling                       : 4:2:0 (Type 2)
  17. Bit depth                                : 10 bits
  18. Bits/(Pixel*Frame)                       : 0.292
  19. Stream size                              : 34.0 GiB (99%)
  20. Writing library                          : x265 3.5+107-a05d9f5f7:[Windows][MSVC 1937][64 bit] 10bit
  21. Encoding settings                        : cpuid=1111039 / frame-threads=6 / numa-pools=32 / wpp / no-pmode / no-pme / no-psnr / no-ssim / log-level=2 / input-csp=1 / input-res=3840x2076 / interlace=0 / total-frames=125679 / level-idc=51 / high-tier=1 / uhd-bd=0 / ref=4 / no-allow-non-conformance / repeat-headers / annexb / aud / no-eob / no-eos / hrd / info / hash=0 / temporal-layers=0 / no-open-gop / min-keyint=23 / keyint=250 / gop-lookahead=0 / bframes=4 / b-adapt=2 / b-pyramid / bframe-bias=0 / rc-lookahead=25 / lookahead-slices=4 / scenecut=40 / no-hist-scenecut / radl=0 / no-splice / no-intra-refresh / ctu=64 / min-cu-size=8 / rect / no-amp / max-tu-size=32 / tu-inter-depth=1 / tu-intra-depth=1 / limit-tu=0 / rdoq-level=2 / dynamic-rd=0.00 / no-ssim-rd / signhide / no-tskip / nr-intra=0 / nr-inter=0 / no-constrained-intra / strong-intra-smoothing / max-merge=3 / limit-refs=3 / limit-modes / me=3 / subme=3 / merange=57 / temporal-mvp / no-frame-dup / no-hme / weightp / no-weightb / no-analyze-src-pics / deblock=-3:-3 / no-sao / no-sao-non-deblock / rd=4 / selective-sao=0 / no-early-skip / rskip / no-fast-intra / no-tskip-fast / no-cu-lossless / no-b-intra / no-splitrd-skip / rdpenalty=0 / psy-rd=2.00 / psy-rdoq=1.00 / no-rd-refine / no-lossless / cbqpoffs=0 / crqpoffs=0 / rc=crf / crf=16.5 / qcomp=0.60 / qpstep=4 / stats-write=0 / stats-read=0 / vbv-maxrate=160000 / vbv-bufsize=160000 / vbv-init=0.9 / min-vbv-fullness=50.0 / max-vbv-fullness=80.0 / crf-max=0.0 / crf-min=0.0 / ipratio=1.40 / pbratio=1.30 / aq-mode=4 / aq-strength=1.00 / cutree / zone-count=0 / no-strict-cbr / qg-size=32 / no-rc-grain / qpmax=69 / qpmin=0 / no-const-vbv / sar=1 / overscan=0 / videoformat=5 / range=0 / colorprim=9 / transfer=16 / colormatrix=9 / chromaloc=1 / chromaloc-top=2 / chromaloc-bottom=2 / display-window=0 / master-display=G(13250,34500)B(7500,3000)R(34000,16000)WP(15635,16450)L(10000000,1) / cll=1000,400 / min-luma=0 / max-luma=1023 / log2-max-poc-lsb=8 / vui-timing-info / vui-hrd-info / slices=1 / no-opt-qp-pps / no-opt-ref-list-length-pps / no-multi-pass-opt-rps / scenecut-bias=0.05 / no-opt-cu-delta-qp / no-aq-motion / hdr10 / hdr10-opt / no-dhdr10-opt / no-idr-recovery-sei / analysis-reuse-level=0 / analysis-save-reuse-level=0 / analysis-load-reuse-level=0 / scale-factor=0 / refine-intra=0 / refine-inter=0 / refine-mv=1 / refine-ctu-distortion=0 / no-limit-sao / ctu-info=0 / no-lowpass-dct / refine-analysis-type=0 / copy-pic=1 / max-ausize-factor=1.0 / no-dynamic-refine / no-single-sei / no-hevc-aq / no-svt / no-field / qp-adaptation-range=1.00 / scenecut-aware-qp=0conformance-window-offsets / right=0 / bottom=0 / decoder-max-rate=0 / no-vbv-live-multi-pass / no-mcstf / no-sbrc
  22. Default                                  : Yes
  23. Forced                                   : No
  24. Color range                              : Limited
  25. Color primaries                          : BT.2020
  26. Transfer characteristics                 : PQ
  27. Matrix coefficients                      : BT.2020 non-constant
  28. Mastering display color primaries        : Display P3
  29. Mastering display luminance              : min: 0.0001 cd/m2, max: 1000 cd/m2
  30. Maximum Content Light Level              : 1000 cd/m2
  31. Maximum Frame-Average Light Level        : 400 cd/m2
  32. Audio #1
  33. ID                                       : 2
  34. Format                                   : FLAC
  35. Format/Info                              : Free Lossless Audio Codec
  36. Codec ID                                 : A_FLAC
  37. Duration                                 : 1 h 27 min
  38. Bit rate mode                            : Variable
  39. Bit rate                                 : 585 kb/s
  40. Channel(s)                               : 2 channels
  41. Channel layout                           : L R
  42. Sampling rate                            : 48.0 kHz
  43. Frame rate                               : 11.719 FPS (4096 SPF)
  44. Bit depth                                : 24 bits
  45. Compression mode                         : Lossless
  46. Stream size                              : 366 MiB (1%)
  47. Title                                    : Stereo
  48. Writing library                          : libFLAC 1.4.3 (2023-06-23)
  49. Language                                 : English
  50. Default                                  : Yes
  51. Forced                                   : No
  52. MD5 of the unencoded content             : 25C5F96FFB6623574DE739DD8CE7E7C9
  53. Audio #2
  54. ID                                       : 3
  55. Format                                   : AAC LC
  56. Format/Info                              : Advanced Audio Codec Low Complexity
  57. Codec ID                                 : A_AAC-2
  58. Duration                                 : 1 h 27 min
  59. Bit rate                                 : 91.9 kb/s
  60. Channel(s)                               : 2 channels
  61. Channel layout                           : L R
  62. Sampling rate                            : 48.0 kHz
  63. Frame rate                               : 46.875 FPS (1024 SPF)
  64. Compression mode                         : Lossy
  65. Stream size                              : 57.4 MiB (0%)
  66. Title                                    : Commentary 1
  67. Language                                 : English
  68. Default                                  : Yes
  69. Forced                                   : No
  70. Audio #3
  71. ID                                       : 4
  72. Format                                   : AAC LC
  73. Format/Info                              : Advanced Audio Codec Low Complexity
  74. Codec ID                                 : A_AAC-2
  75. Duration                                 : 1 h 27 min
  76. Bit rate                                 : 86.4 kb/s
  77. Channel(s)                               : 2 channels
  78. Channel layout                           : L R
  79. Sampling rate                            : 48.0 kHz
  80. Frame rate                               : 46.875 FPS (1024 SPF)
  81. Compression mode                         : Lossy
  82. Stream size                              : 54.0 MiB (0%)
  83. Title                                    : Commentary 2
  84. Language                                 : English
  85. Default                                  : Yes
  86. Forced                                   : No
  87. Text
  88. ID                                       : 5
  89. Format                                   : PGS
  90. Muxing mode                              : zlib
  91. Codec ID                                 : S_HDMV/PGS
  92. Codec ID/Info                            : Picture based subtitle format used on BDs/HD-DVDs
  93. Duration                                 : 1 h 27 min
  94. Bit rate                                 : 42.2 kb/s
  95. Frame rate                               : 0.398 FPS
  96. Count of elements                        : 2079
  97. Stream size                              : 26.3 MiB (0%)
  98. Title                                    : SDH
  99. Language                                 : English
  100. Default                                  : No
  101. Forced                                   : No
  102. Menu
  103. 00:00:00.000                             : en:Chapter 01
  104. 00:08:14.076                             : en:Chapter 02
  105. 00:13:47.785                             : en:Chapter 03
  106. 00:19:56.028                             : en:Chapter 04
  107. 00:29:36.983                             : en:Chapter 05
  108. 00:35:39.804                             : en:Chapter 06
  109. 00:43:38.157                             : en:Chapter 07
  110. 00:48:24.276                             : en:Chapter 08
  111. 00:54:22.968                             : en:Chapter 09
  112. 01:03:25.551                             : en:Chapter 10
  113. 01:09:27.913                             : en:Chapter 11
  114. 01:17:19.718                             : en:Chapter 12
  115. 01:27:19.984                             : en:Chapter 13
复制代码










The Last Horror Film 1982 2160P UHD BLURAY X265-WATCHABLE.torrent (345.84 KB, 下载次数: 0)
回复

使用道具 举报

您需要登录后才可以回帖 登录 | 立即注册

本版积分规则

QQ|Archiver|手机版|小黑屋|蓝光电影网

GMT+8, 2024-7-16 13:57 , Processed in 0.051809 second(s), 24 queries .

Powered by Discuz! X3.4

Copyright © 2001-2020, Tencent Cloud.

快速回复 返回顶部 返回列表