找回密码
 立即注册

QQ登录

只需一步,快速开始

查看: 2728|回复: 0

[剧情片] 午夜流莺.Moonlighting.Wives.1966.1080p.BluRay.REMUX.AVC.DTS-HD.MA.2.0-FGT 17.17GB

[复制链接]

0

精华

0

好友

2

听众

实习版主

Rank: 7Rank: 7Rank: 7

蓝光币
5
发表于 2023-7-9 01:17:58 | 显示全部楼层 |阅读模式


◎译  名 午夜流莺
◎片  名 Moonlighting Wives
◎年  代 1966
◎产  地 美国
◎类  别 剧情
◎语  言 英语
◎上映日期 1966-09-21
◎IMDb评星  ★★★★★★☆☆☆☆
◎IMDb评分  6.0/10 from 96 users
◎IMDb链接  https://www.imdb.com/title/tt0057320/
◎豆瓣链接 https://movie.douban.com/subject/2296267/
◎片  长 86 分钟
◎导  演 约瑟夫·W·萨诺 / Joseph W. Sarno
◎演  员 乔·桑托斯 / Joe Santos
◎编  剧 约瑟夫·W·萨诺 / Joseph W. Sarno
◎摄  影 安东尼·拉弗尔 / Anthony Lover
  1. Video
  2. ID : 1
  3. ID in the original source medium : 4113 (0x1011)
  4. Format : AVC
  5. Format/Info : Advanced Video Codec
  6. Format profile : High@L4.1
  7. Format settings : CABAC / 4 Ref Frames
  8. Format settings, CABAC : Yes
  9. Format settings, Reference frames : 4 frames
  10. Codec ID : V_MPEG4/ISO/AVC
  11. Duration : 1 h 27 min
  12. Bit rate mode : Variable
  13. Bit rate : 25.9 Mb/s
  14. Maximum bit rate : 38.0 Mb/s
  15. Width : 1 920 pixels
  16. Height : 1 080 pixels
  17. Display aspect ratio : 16:9
  18. Frame rate mode : Constant
  19. Frame rate : 24.000 FPS
  20. Color space : YUV
  21. Chroma subsampling : 4:2:0
  22. Bit depth : 8 bits
  23. Scan type : Progressive
  24. Bits/(Pixel*Frame) : 0.521
  25. Stream size : 15.9 GiB (93%)
  26. Language : English
  27. Default : No
  28. Forced : No
  29. Original source medium : Blu-ray
  30. Audio #1
  31. ID : 2
  32. ID in the original source medium : 4352 (0x1100)
  33. Format : DTS XLL
  34. Format/Info : Digital Theater Systems
  35. Commercial name : DTS-HD Master Audio
  36. Codec ID : A_DTS
  37. Duration : 1 h 27 min
  38. Bit rate mode : Variable
  39. Bit rate : 1 895 kb/s
  40. Channel(s) : 2 channels
  41. Channel layout : L R
  42. Sampling rate : 48.0 kHz
  43. Frame rate : 93.750 FPS (512 SPF)
  44. Bit depth : 24 bits
  45. Compression mode : Lossless
  46. Stream size : 1.16 GiB (7%)
  47. Title : DTS-HD MA 2.0
  48. Language : English
  49. Default : Yes
  50. Forced : No
  51. Original source medium : Blu-ray
  52. Audio #2
  53. ID : 3
  54. ID in the original source medium : 4353 (0x1101)
  55. Format : AC-3
  56. Format/Info : Audio Coding 3
  57. Commercial name : Dolby Digital
  58. Codec ID : A_AC3
  59. Duration : 1 h 27 min
  60. Bit rate mode : Constant
  61. Bit rate : 192 kb/s
  62. Channel(s) : 2 channels
  63. Channel layout : L R
  64. Sampling rate : 48.0 kHz
  65. Frame rate : 31.250 FPS (1536 SPF)
  66. Compression mode : Lossy
  67. Stream size : 121 MiB (1%)
  68. Title : DD 2.0
  69. Language : English
  70. Service kind : Complete Main
  71. Default : No
  72. Forced : No
  73. Original source medium : Blu-ray
  74. Menu
  75. 00:00:00.000 : en:Chapter 01
  76. 00:10:29.000 : en:Chapter 02
  77. 00:18:08.791 : en:Chapter 03
  78. 00:27:16.791 : en:Chapter 04
  79. 00:35:54.958 : en:Chapter 05
  80. 00:45:15.375 : en:Chapter 06
  81. 00:52:52.916 : en:Chapter 07
  82. 01:00:18.250 : en:Chapter 08
  83. 01:10:26.666 : en:Chapter 09
  84. 01:19:12.750 : en:Chapter 10
复制代码











午夜流莺.Moonlighting.Wives.1966.1080p.BluRay.REMUX.AVC.DTS-HD.MA.2.0-FGT 17.17GB
更多图片 小图 大图
组图打开中,请稍候......
回复

使用道具 举报

您需要登录后才可以回帖 登录 | 立即注册

本版积分规则

QQ|Archiver|手机版|小黑屋|蓝光电影网

GMT+8, 2024-6-26 05:39 , Processed in 0.185440 second(s), 24 queries .

Powered by Discuz! X3.4

Copyright © 2001-2020, Tencent Cloud.

快速回复 返回顶部 返回列表