找回密码
 立即注册

QQ登录

只需一步,快速开始

查看: 79|回复: 0

[UHD.HEVC] 圣诞怪杰 How.the.Grinch.Stole.Christmas.2000.PROPER.2160p.BluRay.REMUX.HEVC.DTS-X.7.1-FGT 52.18GB

[复制链接]

0

精华

0

好友

2

听众

新手上路

Rank: 2

蓝光币
5
发表于 2022-11-30 07:52:20 | 显示全部楼层 |阅读模式
[img][/img]

◎标  题 圣诞怪杰
◎译  名 鬼灵精(台) / 格林奇偷走圣诞节 / 格林奇 / 格林驰如何偷走圣诞?
◎片  名 How the Grinch Stole Christmas
◎年  代 2000
◎产  地 美国 / 德国
◎类  别 喜剧 / 家庭 / 奇幻
◎语  言 英语
◎上映日期 2000-11-17(美国)
◎IMDb评分 6.2/10 (226077人评价)
◎IMDb链接 https://www.imdb.com/title/tt0170016/
◎豆瓣评分 6.8/10 (11929人评价)
◎豆瓣链接 https://movie.douban.com/subject/1300926/
◎片  长 104 分钟
◎导  演 朗·霍华德 Ron Howard
◎编  剧 苏斯博士 Dr. Seuss
       杰弗里·普赖斯 Jeffrey Price
       彼得·S·西曼 Peter S. Seaman
◎演  员 金·凯瑞 Jim Carrey
       泰勒·摩森 Taylor Momsen
       杰弗里·塔伯 Jeffrey Tambor
       克里斯汀·芭伦斯基 Christine Baranski
       比尔·欧文 Bill Irwin
       莫莉·香侬 Molly Shannon
       克林特·霍华德 Clint Howard
       乔希·瑞安·伊万斯 Josh Ryan Evans
       明迪·斯特林 Mindy Sterling
       兰斯·霍华德 Rance Howard
       杰瑞米·霍华德 Jeremy Howard
       T·J·塞恩 T.J. Thyne
       莱西·科尔 Lacey Kohl
       吉姆·麦司奇门 Jim Meskimen
       大卫·科斯塔贝尔 David Costabile
       玛丽·斯坦 Mary Stein
       迪普·罗伊 Deep Roy
       杰西卡·萨拉 Jessica Sara
       Mason Lucero Mason Lucero
       Ben Bookbinder Ben Bookbinder
       Michaela Gallo Michaela Gallo
       兰德里·阿尔伯特 Landry Allbright
       Reid Kirchenbauer Reid Kirchenbauer
       苏姗妮·克鲁尔 Suzanne Krull
       莉莉亚斯·惠特 Lillias White
       Rain Pryor Rain Pryor
       约翰·亚历山大 John Alexander
       Kevin Isola Kevin Isola
       加文·格雷泽 Gavin Grazer
       威勒·特耶 Verne Troyer
       考莉安卡·基尔彻 Q'orianka Kilcher
       卡罗琳·威廉姆斯 Caroline Williams
       里克·贝克 Rick Baker
       Bill Sturgeon Bill Sturgeon
       Mark Setrakian Mark Setrakian
       Jurgen Heimann Jurgen Heimann
       布莱丝·达拉斯·霍华德 Bryce Dallas Howard
       Charles Croughwell Charles Croughwell
       弗兰克·维尔克 Frank Welker
       安东尼·霍普金斯 Anthony Hopkins
       理查德·史蒂文·霍维茨 Richard Steven Horvitz
       朗·霍华德 Ron Howard
       赛斯·亚当·琼斯 Seth Adam Jones
       Tommy Karlsen Tommy Karlsen
       Allie McCall Allie McCall
       Sloane Momsen Sloane Momsen
       邦妮·摩根 Bonnie Morgan
        Carlos Ragas
       Aldric La'Auli Porter Aldric La'Auli Porter
       戴维·沃马克 David Womark
       Todd Hallowell Todd Hallowell
       詹姆斯·霍纳 James Horner
       唐纳德·彼得曼 Donald Peterman
       丹尼尔·P·汉利 Daniel P. Hanley
       迈克·希尔 Mike Hill
       珍妮特·希尔森 Janet Hirshenson
       迈克尔·科伦布里斯 Michael Corenblith
       丹·韦伯斯特 Dan Webster
       劳伦·E·波利齐 Lauren E. Polizzi
       梅里迪斯·博斯维尔 Merideth Boswell
       丽塔·赖克 Rita Ryack
       西尔维亚·纳瓦 Sylvia Nava
       克里斯蒂安·汀斯利 Christien Tinsley
       Jackie Tichenor Jackie Tichenor
       Bill Sturgeon Bill Sturgeon
       Karl Wesson Karl Wesson
       Nina Paskowitz Nina Paskowitz
       Loretta Jody Miller Loretta Jody Miller
       Patricia Miller Patricia Miller
       June Westmore June Westmore
       格雷格·尼尔森 Greg Nelson
       维·尼尔 Ve Neill
       Deborah Patino Rutherford Deborah Patino Rutherford
       罗伯特·瑞恩 Robert Ryan
       盖尔·罗维尔-瑞恩 Gail Rowell-Ryan
       马特·罗斯 Matt Rose
       Gerald Quist Gerald Quist
       Susan Schuler-Page Susan Schuler-Page
       史蒂夫·普劳蒂 Steve Prouty
       马克·肖斯特罗姆 Mark Shostrom
       迈克·史密斯森 Mike Smithson
       Vincent Prentice Vincent Prentice
       里克·斯特拉顿 Rick Stratton
       Karen Westerfield Karen Westerfield
       金·桑坦托尼奥 Kim Santantonio
       Kenny Myers Kenny Myers
       Judy Lovell Judy Lovell
       Gabriel De Cunto Gabriel De Cunto
       Wade Daily Wade Daily
       比尔·科尔索 Bill Corso
       西德妮·科内尔 Cydney Cornell
       吉尔·罗考 Jill Rockow
       巴尼·布尔曼 Barney Burman
       小弗雷德·C·布鲁 Fred C. Blau Jr.
       约翰·布雷克 John Blake
       Margaret Prentice Margaret Prentice
       杰森·巴尼特 Jason Barnett
       特里·巴利尔 Terry Baliel
       Karen Asano-Myers Karen Asano-Myers
       兰斯·安德森 Lance Anderson
       佐尔坦·埃雷克 Zoltan Elek
       Earl Ellis Earl Ellis
       诺玛·李 Norma Lee
       Margie Latinopoulos Margie Latinopoulos
       Cammy R. Langer Cammy R. Langer
       Mark Landon Mark Landon
       史蒂夫·拉波特 Steve LaPorte
       Jamie Kelman Jamie Kelman
       Will Huff Will Huff
       Marlene D. Williams Marlene D. Williams
       凯特·比斯科 Kate Biscoe
       莱昂纳德·恩格尔曼 Leonard Engelman
       托尼·G Toni G
       凯文·黑尼 Kevin Haney
       乔尔·哈罗 Joel Harlow
       Aldric La'Auli Porter Aldric La'Auli Porter
       Kristen Ploucha Kristen Ploucha
       Todd Hallowell Todd Hallowell
       Ryo Sakaguchi Ryo Sakaguchi
       克里斯·戴尔·康特 Chris Del Conte
       凯文·斯科特·麦克 Kevin Scott Mack
       肖恩·安德鲁·法登 Sean Andrew Faden
       布莱恩·吉尔 Bryan Grill
       Dobbie Schiff Dobbie Schiff
       Laurent Ben-Mimoun Laurent Ben-Mimoun
       克拉斯·汉克 Claas Henke
       Chris Y. Yang Chris Y. Yang
       丹·赖蒙 Dan Lemmon
       Julian Levi Julian Levi
       David Prescott David Prescott
       乔伊斯·科克斯 Joyce Cox
       马修·E·巴特勒 Matthew E. Butler
       Jason Armstrong Jason Armstrong
       John E. Sasaki John E. Sasaki
◎标  签 喜剧 / 美国 / JimCarrey / 圣诞 / 魔幻 / 美国电影 / 儿童 / 2000
◎简  介

  在遥远的松饼山上,有一个胡谷镇,镇民们最爱的圣诞节眼看就要到了,镇上张灯结彩,喜气洋洋,每个人都沉浸在筹备圣诞节的快乐中。然而,在胡谷镇以北的一个垃圾山上,住着一个人人都害怕的“怪物”——格林奇(金·凯瑞 Jim Carrey 饰)。他深居简出,只跟一条狗过活;他心胸狭窄,心脏只有正常人的四分之一大;他讨厌胡谷镇,更讨厌圣诞节。经常捉弄镇民的他,在一次大闹胡谷镇中,认识了小女孩辛蒂(泰勒·摩森 Taylor Momsen 饰)。                                    
                                今年的圣诞节正好是胡谷镇建镇一千年纪念,家家户户都在准备迎接这场圣诞盛宴。辛蒂邀请格林奇到镇上参加派对,但是一个误会使格林奇愤怒离开。他决定要报复镇民,在圣诞节那天,他带上他的狗麦克斯,乔装成圣诞老人和驯鹿的样子,悄悄地潜入胡谷镇……
  1. Video
  2. ID                                       : 1
  3. ID in the original source medium         : 4113 (0x1011)
  4. Format                                   : HEVC
  5. Format/Info                              : High Efficiency Video Coding
  6. Format profile                           : Main [email protected]@High
  7. HDR format                               : SMPTE ST 2086, HDR10 compatible
  8. Codec ID                                 : V_MPEGH/ISO/HEVC
  9. Duration                                 : 1 h 44 min
  10. Bit rate                                 : 60.5 Mb/s
  11. Width                                    : 3 840 pixels
  12. Height                                   : 2 160 pixels
  13. Display aspect ratio                     : 16:9
  14. Frame rate mode                          : Constant
  15. Frame rate                               : 23.976 (24000/1001/189150) FPS
  16. Color space                              : YUV
  17. Chroma subsampling                       : 4:2:0 (Type 2)
  18. Bit depth                                : 10 bits
  19. Bits/(Pixel*Frame)                       : 0.304
  20. Stream size                              : 44.3 GiB (85%)
  21. Writing library                          : ATEME Titan File 3.8.3 (4.8.3.0)        
  22. Language                                 : English
  23. Default                                  : No
  24. Forced                                   : No
  25. Color range                              : Limited
  26. Color primaries                          : BT.2020
  27. Transfer characteristics                 : PQ
  28. Matrix coefficients                      : BT.2020 non-constant
  29. Mastering display color primaries        : Display P3
  30. Mastering display luminance              : min: 0.0050 cd/m2, max: 1000 cd/m2
  31. Maximum Content Light Level              : 1000 cd/m2
  32. Maximum Frame-Average Light Level        : 249 cd/m2
  33. Original source medium                   : Blu-ray
  34. Audio #1
  35. ID                                       : 2
  36. ID in the original source medium         : 4352 (0x1100)
  37. Format                                   : DTS XLL X
  38. Format/Info                              : Digital Theater Systems
  39. Commercial name                          : DTS-HD Master Audio
  40. Codec ID                                 : A_DTS
  41. Duration                                 : 1 h 44 min
  42. Bit rate mode                            : Variable
  43. Bit rate                                 : 6 642 kb/s
  44. Channel(s)                               : 8 channels
  45. Channel(s)_Original                      : Object Based
  46. ChannelLayout_Original                   : Object Based
  47. Sampling rate                            : 48.0 kHz
  48. Frame rate                               : 93.750 FPS (512 SPF)
  49. Bit depth                                : 24 bits
  50. Stream size                              : 4.87 GiB (9%)
  51. Title                                    : DTS-X 7.1
  52. Language                                 : English
  53. Default                                  : Yes
  54. Forced                                   : No
  55. Original source medium                   : Blu-ray
  56. Audio #2
  57. ID                                       : 3
  58. Format                                   : AC-3
  59. Format/Info                              : Audio Coding 3
  60. Commercial name                          : Dolby Digital
  61. Codec ID                                 : A_AC3
  62. Duration                                 : 1 h 44 min
  63. Bit rate mode                            : Constant
  64. Bit rate                                 : 640 kb/s
  65. Channel(s)                               : 6 channels
  66. Channel layout                           : L R C LFE Ls Rs
  67. Sampling rate                            : 48.0 kHz
  68. Frame rate                               : 31.250 FPS (1536 SPF)
  69. Compression mode                         : Lossy
  70. Stream size                              : 480 MiB (1%)
  71. Title                                    : DD 5.1
  72. Language                                 : English
  73. Service kind                             : Complete Main
  74. Default                                  : No
  75. Forced                                   : No
  76. Audio #3
  77. ID                                       : 4
  78. ID in the original source medium         : 4353 (0x1101)
  79. Format                                   : DTS
  80. Format/Info                              : Digital Theater Systems
  81. Codec ID                                 : A_DTS
  82. Duration                                 : 1 h 44 min
  83. Bit rate mode                            : Constant
  84. Bit rate                                 : 768 kb/s
  85. Channel(s)                               : 6 channels
  86. Channel layout                           : C L R Ls Rs LFE
  87. Sampling rate                            : 48.0 kHz
  88. Frame rate                               : 93.750 FPS (512 SPF)
  89. Bit depth                                : 24 bits
  90. Compression mode                         : Lossy
  91. Stream size                              : 576 MiB (1%)
  92. Title                                    : DTS 5.1
  93. Language                                 : French
  94. Default                                  : No
  95. Forced                                   : No
  96. Original source medium                   : Blu-ray
  97. Audio #4
  98. ID                                       : 5
  99. ID in the original source medium         : 4354 (0x1102)
  100. Format                                   : DTS
  101. Format/Info                              : Digital Theater Systems
  102. Codec ID                                 : A_DTS
  103. Duration                                 : 1 h 44 min
  104. Bit rate mode                            : Constant
  105. Bit rate                                 : 768 kb/s
  106. Channel(s)                               : 6 channels
  107. Channel layout                           : C L R Ls Rs LFE
  108. Sampling rate                            : 48.0 kHz
  109. Frame rate                               : 93.750 FPS (512 SPF)
  110. Bit depth                                : 24 bits
  111. Compression mode                         : Lossy
  112. Stream size                              : 576 MiB (1%)
  113. Title                                    : DTS 5.1
  114. Language                                 : Dutch
  115. Default                                  : No
  116. Forced                                   : No
  117. Original source medium                   : Blu-ray
  118. Audio #5
  119. ID                                       : 6
  120. ID in the original source medium         : 4355 (0x1103)
  121. Format                                   : DTS
  122. Format/Info                              : Digital Theater Systems
  123. Codec ID                                 : A_DTS
  124. Duration                                 : 1 h 44 min
  125. Bit rate mode                            : Constant
  126. Bit rate                                 : 768 kb/s
  127. Channel(s)                               : 6 channels
  128. Channel layout                           : C L R Ls Rs LFE
  129. Sampling rate                            : 48.0 kHz
  130. Frame rate                               : 93.750 FPS (512 SPF)
  131. Bit depth                                : 24 bits
  132. Compression mode                         : Lossy
  133. Stream size                              : 576 MiB (1%)
  134. Title                                    : DTS 5.1
  135. Language                                 : Czech
  136. Default                                  : No
  137. Forced                                   : No
  138. Original source medium                   : Blu-ray
  139. Audio #6
  140. ID                                       : 7
  141. ID in the original source medium         : 4356 (0x1104)
  142. Format                                   : DTS
  143. Format/Info                              : Digital Theater Systems
  144. Codec ID                                 : A_DTS
  145. Duration                                 : 1 h 44 min
  146. Bit rate mode                            : Constant
  147. Bit rate                                 : 768 kb/s
  148. Channel(s)                               : 6 channels
  149. Channel layout                           : C L R Ls Rs LFE
  150. Sampling rate                            : 48.0 kHz
  151. Frame rate                               : 93.750 FPS (512 SPF)
  152. Bit depth                                : 24 bits
  153. Compression mode                         : Lossy
  154. Stream size                              : 576 MiB (1%)
  155. Title                                    : DTS 5.1
  156. Language                                 : Polish
  157. Default                                  : No
  158. Forced                                   : No
  159. Original source medium                   : Blu-ray
  160. Audio #7
  161. ID                                       : 8
  162. ID in the original source medium         : 4357 (0x1105)
  163. Format                                   : AC-3
  164. Format/Info                              : Audio Coding 3
  165. Commercial name                          : Dolby Digital
  166. Format settings                          : Dolby Surround
  167. Codec ID                                 : A_AC3
  168. Duration                                 : 1 h 44 min
  169. Bit rate mode                            : Constant
  170. Bit rate                                 : 192 kb/s
  171. Channel(s)                               : 2 channels
  172. Channel layout                           : L R
  173. Sampling rate                            : 48.0 kHz
  174. Frame rate                               : 31.250 FPS (1536 SPF)
  175. Compression mode                         : Lossy
  176. Stream size                              : 144 MiB (0%)
  177. Title                                    : DD 2.0
  178. Language                                 : English
  179. Service kind                             : Complete Main
  180. Default                                  : No
  181. Forced                                   : No
  182. Original source medium                   : Blu-ray
  183. Text #1
  184. ID                                       : 9
  185. Format                                   : UTF-8
  186. Codec ID                                 : S_TEXT/UTF8
  187. Codec ID/Info                            : UTF-8 Plain Text
  188. Duration                                 : 1 h 43 min
  189. Bit rate                                 : 47 b/s
  190. Frame rate                               : 0.196 FPS
  191. Count of elements                        : 1215
  192. Stream size                              : 36.3 KiB (0%)
  193. Language                                 : English
  194. Default                                  : Yes
  195. Forced                                   : No
  196. Text #2
  197. ID                                       : 10
  198. Format                                   : UTF-8
  199. Codec ID                                 : S_TEXT/UTF8
  200. Codec ID/Info                            : UTF-8 Plain Text
  201. Duration                                 : 1 h 43 min
  202. Bit rate                                 : 51 b/s
  203. Frame rate                               : 0.227 FPS
  204. Count of elements                        : 1413
  205. Stream size                              : 39.1 KiB (0%)
  206. Title                                    : SDH
  207. Language                                 : English
  208. Default                                  : No
  209. Forced                                   : No
  210. Text #3
  211. ID                                       : 11
  212. ID in the original source medium         : 4768 (0x12A0)
  213. Format                                   : PGS
  214. Muxing mode                              : zlib
  215. Codec ID                                 : S_HDMV/PGS
  216. Codec ID/Info                            : Picture based subtitle format used on BDs/HD-DVDs
  217. Duration                                 : 1 h 43 min
  218. Bit rate                                 : 36.5 kb/s
  219. Frame rate                               : 0.457 FPS
  220. Count of elements                        : 2842
  221. Stream size                              : 27.0 MiB (0%)
  222. Language                                 : English
  223. Default                                  : No
  224. Forced                                   : No
  225. Original source medium                   : Blu-ray
  226. Text #4
  227. ID                                       : 12
  228. ID in the original source medium         : 4769 (0x12A1)
  229. Format                                   : PGS
  230. Muxing mode                              : zlib
  231. Codec ID                                 : S_HDMV/PGS
  232. Codec ID/Info                            : Picture based subtitle format used on BDs/HD-DVDs
  233. Duration                                 : 1 h 43 min
  234. Bit rate                                 : 30.4 kb/s
  235. Frame rate                               : 0.391 FPS
  236. Count of elements                        : 2438
  237. Stream size                              : 22.6 MiB (0%)
  238. Language                                 : French
  239. Default                                  : No
  240. Forced                                   : No
  241. Original source medium                   : Blu-ray
  242. Text #5
  243. ID                                       : 13
  244. ID in the original source medium         : 4770 (0x12A2)
  245. Format                                   : PGS
  246. Muxing mode                              : zlib
  247. Codec ID                                 : S_HDMV/PGS
  248. Codec ID/Info                            : Picture based subtitle format used on BDs/HD-DVDs
  249. Duration                                 : 1 h 43 min
  250. Bit rate                                 : 31.2 kb/s
  251. Frame rate                               : 0.394 FPS
  252. Count of elements                        : 2454
  253. Stream size                              : 23.2 MiB (0%)
  254. Language                                 : Dutch
  255. Default                                  : No
  256. Forced                                   : No
  257. Original source medium                   : Blu-ray
  258. Text #6
  259. ID                                       : 14
  260. ID in the original source medium         : 4771 (0x12A3)
  261. Format                                   : PGS
  262. Muxing mode                              : zlib
  263. Codec ID                                 : S_HDMV/PGS
  264. Codec ID/Info                            : Picture based subtitle format used on BDs/HD-DVDs
  265. Duration                                 : 1 h 43 min
  266. Bit rate                                 : 26.7 kb/s
  267. Frame rate                               : 0.371 FPS
  268. Count of elements                        : 2310
  269. Stream size                              : 19.8 MiB (0%)
  270. Language                                 : Danish
  271. Default                                  : No
  272. Forced                                   : No
  273. Original source medium                   : Blu-ray
  274. Text #7
  275. ID                                       : 15
  276. ID in the original source medium         : 4772 (0x12A4)
  277. Format                                   : PGS
  278. Muxing mode                              : zlib
  279. Codec ID                                 : S_HDMV/PGS
  280. Codec ID/Info                            : Picture based subtitle format used on BDs/HD-DVDs
  281. Duration                                 : 1 h 43 min
  282. Bit rate                                 : 24.8 kb/s
  283. Frame rate                               : 0.374 FPS
  284. Count of elements                        : 2332
  285. Stream size                              : 18.4 MiB (0%)
  286. Language                                 : Finnish
  287. Default                                  : No
  288. Forced                                   : No
  289. Original source medium                   : Blu-ray
  290. Text #8
  291. ID                                       : 16
  292. ID in the original source medium         : 4773 (0x12A5)
  293. Format                                   : PGS
  294. Muxing mode                              : zlib
  295. Codec ID                                 : S_HDMV/PGS
  296. Codec ID/Info                            : Picture based subtitle format used on BDs/HD-DVDs
  297. Duration                                 : 1 h 43 min
  298. Bit rate                                 : 26.1 kb/s
  299. Frame rate                               : 0.373 FPS
  300. Count of elements                        : 2324
  301. Stream size                              : 19.4 MiB (0%)
  302. Language                                 : Norwegian
  303. Default                                  : No
  304. Forced                                   : No
  305. Original source medium                   : Blu-ray
  306. Text #9
  307. ID                                       : 17
  308. ID in the original source medium         : 4774 (0x12A6)
  309. Format                                   : PGS
  310. Muxing mode                              : zlib
  311. Codec ID                                 : S_HDMV/PGS
  312. Codec ID/Info                            : Picture based subtitle format used on BDs/HD-DVDs
  313. Duration                                 : 1 h 43 min
  314. Bit rate                                 : 26.2 kb/s
  315. Frame rate                               : 0.368 FPS
  316. Count of elements                        : 2290
  317. Stream size                              : 19.4 MiB (0%)
  318. Language                                 : Swedish
  319. Default                                  : No
  320. Forced                                   : No
  321. Original source medium                   : Blu-ray
  322. Text #10
  323. ID                                       : 18
  324. ID in the original source medium         : 4775 (0x12A7)
  325. Format                                   : PGS
  326. Muxing mode                              : zlib
  327. Codec ID                                 : S_HDMV/PGS
  328. Codec ID/Info                            : Picture based subtitle format used on BDs/HD-DVDs
  329. Duration                                 : 1 h 43 min
  330. Bit rate                                 : 30.2 kb/s
  331. Frame rate                               : 0.394 FPS
  332. Count of elements                        : 2452
  333. Stream size                              : 22.4 MiB (0%)
  334. Language                                 : Portuguese
  335. Default                                  : No
  336. Forced                                   : No
  337. Original source medium                   : Blu-ray
  338. Text #11
  339. ID                                       : 19
  340. ID in the original source medium         : 4776 (0x12A8)
  341. Format                                   : PGS
  342. Muxing mode                              : zlib
  343. Codec ID                                 : S_HDMV/PGS
  344. Codec ID/Info                            : Picture based subtitle format used on BDs/HD-DVDs
  345. Duration                                 : 1 h 43 min
  346. Bit rate                                 : 24.2 kb/s
  347. Frame rate                               : 0.370 FPS
  348. Count of elements                        : 2306
  349. Stream size                              : 18.0 MiB (0%)
  350. Language                                 : Czech
  351. Default                                  : No
  352. Forced                                   : No
  353. Original source medium                   : Blu-ray
  354. Text #12
  355. ID                                       : 20
  356. ID in the original source medium         : 4777 (0x12A9)
  357. Format                                   : PGS
  358. Muxing mode                              : zlib
  359. Codec ID                                 : S_HDMV/PGS
  360. Codec ID/Info                            : Picture based subtitle format used on BDs/HD-DVDs
  361. Duration                                 : 1 h 43 min
  362. Bit rate                                 : 27.9 kb/s
  363. Frame rate                               : 0.371 FPS
  364. Count of elements                        : 2310
  365. Stream size                              : 20.7 MiB (0%)
  366. Language                                 : Polish
  367. Default                                  : No
  368. Forced                                   : No
  369. Original source medium                   : Blu-ray
  370. Text #13
  371. ID                                       : 21
  372. ID in the original source medium         : 4778 (0x12AA)
  373. Format                                   : PGS
  374. Muxing mode                              : zlib
  375. Codec ID                                 : S_HDMV/PGS
  376. Codec ID/Info                            : Picture based subtitle format used on BDs/HD-DVDs
  377. Duration                                 : 1 h 43 min
  378. Bit rate                                 : 25.3 kb/s
  379. Frame rate                               : 0.395 FPS
  380. Count of elements                        : 2460
  381. Stream size                              : 18.8 MiB (0%)
  382. Language                                 : Chinese
  383. Default                                  : No
  384. Forced                                   : No
  385. Original source medium                   : Blu-ray
  386. Text #14
  387. ID                                       : 22
  388. ID in the original source medium         : 4779 (0x12AB)
  389. Format                                   : PGS
  390. Muxing mode                              : zlib
  391. Codec ID                                 : S_HDMV/PGS
  392. Codec ID/Info                            : Picture based subtitle format used on BDs/HD-DVDs
  393. Duration                                 : 1 h 43 min
  394. Bit rate                                 : 34.6 kb/s
  395. Frame rate                               : 0.395 FPS
  396. Count of elements                        : 2460
  397. Stream size                              : 25.7 MiB (0%)
  398. Language                                 : Greek
  399. Default                                  : No
  400. Forced                                   : No
  401. Original source medium                   : Blu-ray
  402. Text #15
  403. ID                                       : 23
  404. ID in the original source medium         : 4780 (0x12AC)
  405. Format                                   : PGS
  406. Muxing mode                              : zlib
  407. Codec ID                                 : S_HDMV/PGS
  408. Codec ID/Info                            : Picture based subtitle format used on BDs/HD-DVDs
  409. Duration                                 : 1 h 44 min
  410. Bit rate                                 : 57.8 kb/s
  411. Frame rate                               : 0.558 FPS
  412. Count of elements                        : 3502
  413. Stream size                              : 43.2 MiB (0%)
  414. Language                                 : English
  415. Default                                  : No
  416. Forced                                   : No
  417. Original source medium                   : Blu-ray
  418. Text #16
  419. ID                                       : 24
  420. ID in the original source medium         : 4781 (0x12AD)
  421. Format                                   : PGS
  422. Muxing mode                              : zlib
  423. Codec ID                                 : S_HDMV/PGS
  424. Codec ID/Info                            : Picture based subtitle format used on BDs/HD-DVDs
  425. Duration                                 : 1 h 44 min
  426. Bit rate                                 : 49.5 kb/s
  427. Frame rate                               : 0.462 FPS
  428. Count of elements                        : 2908
  429. Stream size                              : 37.1 MiB (0%)
  430. Language                                 : French
  431. Default                                  : No
  432. Forced                                   : No
  433. Original source medium                   : Blu-ray
  434. Text #17
  435. ID                                       : 25
  436. ID in the original source medium         : 4782 (0x12AE)
  437. Format                                   : PGS
  438. Muxing mode                              : zlib
  439. Codec ID                                 : S_HDMV/PGS
  440. Codec ID/Info                            : Picture based subtitle format used on BDs/HD-DVDs
  441. Duration                                 : 1 h 41 min
  442. Bit rate                                 : 1 346 b/s
  443. Frame rate                               : 0.021 FPS
  444. Count of elements                        : 128
  445. Stream size                              : 1 001 KiB (0%)
  446. Language                                 : French
  447. Default                                  : No
  448. Forced                                   : No
  449. Original source medium                   : Blu-ray
  450. Text #18
  451. ID                                       : 26
  452. ID in the original source medium         : 4783 (0x12AF)
  453. Format                                   : PGS
  454. Muxing mode                              : zlib
  455. Codec ID                                 : S_HDMV/PGS
  456. Codec ID/Info                            : Picture based subtitle format used on BDs/HD-DVDs
  457. Duration                                 : 1 h 40 min
  458. Bit rate                                 : 373 b/s
  459. Frame rate                               : 0.006 FPS
  460. Count of elements                        : 36
  461. Stream size                              : 274 KiB (0%)
  462. Language                                 : Czech
  463. Default                                  : No
  464. Forced                                   : No
  465. Original source medium                   : Blu-ray
  466. Menu
  467. 00:00:00.000                             : en:Chapter 01
  468. 00:03:38.384                             : en:Chapter 02
  469. 00:10:26.792                             : en:Chapter 03
  470. 00:17:50.819                             : en:Chapter 04
  471. 00:19:21.952                             : en:Chapter 05
  472. 00:23:36.373                             : en:Chapter 06
  473. 00:33:29.090                             : en:Chapter 07
  474. 00:36:54.795                             : en:Chapter 08
  475. 00:44:05.434                             : en:Chapter 09
  476. 00:47:12.621                             : en:Chapter 10
  477. 00:52:58.216                             : en:Chapter 11
  478. 00:59:39.033                             : en:Chapter 12
  479. 01:02:39.380                             : en:Chapter 13
  480. 01:07:04.103                             : en:Chapter 14
  481. 01:14:36.638                             : en:Chapter 15
  482. 01:18:12.354                             : en:Chapter 16
  483. 01:22:01.041                             : en:Chapter 17
  484. 01:27:18.066                             : en:Chapter 18
  485. 01:30:21.624                             : en:Chapter 19
  486. 01:37:52.157                             : en:Chapter 20
复制代码




                                       
                                       

                                       
                                       
                                       




How.the.Grinch.Stole.Christmas.2000.PROPER.2160p.BluRay.REMUX.HEVC.DTS-X.7.1-FGT.torrent (65.91 KB, 下载次数: 1)
回复

使用道具 举报

您需要登录后才可以回帖 登录 | 立即注册

本版积分规则

QQ|Archiver|手机版|小黑屋|蓝光电影网

GMT+8, 2023-2-1 23:01 , Processed in 0.077418 second(s), 28 queries .

Powered by Discuz! X3.4

Copyright © 2001-2020, Tencent Cloud.

快速回复 返回顶部 返回列表