找回密码
 立即注册

QQ登录

只需一步,快速开始

查看: 105|回复: 0

[UHD.HEVC] 蝙蝠侠归来 Batman.Returns.1992.PROPER.2160p.BluRay.REMUX.HEVC.DTS-HD.MA.TrueHD.7.1.Atmos-FGT 75.23GB

[复制链接]

0

精华

0

好友

2

听众

新手上路

Rank: 2

蓝光币
5
发表于 2022-11-30 07:52:07 | 显示全部楼层 |阅读模式
[img][/img]

◎标  题 蝙蝠侠归来
◎译  名 蝙蝠侠2 / 蝙蝠侠再战风云(港) / 蝙蝠侠大显神威(台) / 蝙蝠侠重现江湖 / 蝙蝠侠2:蝙蝠侠归来
◎片  名 Batman Returns
◎年  代 1992
◎产  地 美国 / 英国
◎类  别 动作 / 犯罪 / 奇幻
◎语  言 英语
◎上映日期 1992-06-19(美国)
◎IMDb评分 7/10 (288081人评价)
◎IMDb链接 https://www.imdb.com/title/tt0103776/
◎豆瓣评分 7.4/10 (38782人评价)
◎豆瓣链接 https://movie.douban.com/subject/1294929/
◎片  长 126分钟
◎导  演 蒂姆·波顿 Tim Burton
◎编  剧 丹尼尔·沃特斯 Daniel Waters
◎演  员 迈克尔·基顿 Michael Keaton
       丹尼·德维托 Danny DeVito
       米歇尔·菲佛 Michelle Pfeiffer
       克里斯托弗·沃肯 Christopher Walken
       迈克尔·高夫 Michael Gough
       迈克尔·墨菲 Michael Murphy
       安娜·卡塔莉娜 Anna Katarina
       达拉 Darla
       帕特·亨格尔 Pat Hingle
       蒂姆·波顿 Tim Burton
       伊安·布莱斯 Ian Bryce
       丹尼斯·蒂诺威 Denise Di Novi
       丹尼·艾夫曼 Danny Elfman
       斯特凡·克萨普斯基 Stefan Czapsky
       瑞克·海因里希斯 Rick Heinrichs
       Tom Duffield Tom Duffield
       谢丽尔·卡拉西克 Cheryl Carasik
       玛丽·E·沃格特 Mary E. Vogt
       鲍勃·林伍德 Bob Ringwood
       罗尼·斯皮克特 Ronnie Specter
       约兰达·塔辛 Yolanda Toussieng
       维·尼尔 Ve Neill
       金·桑坦托尼奥 Kim Santantonio
       乔什·罗森格兰特 John Rosengrant
       诺玛·李 Norma Lee
       格雷格·尼尔森 Greg Nelson
       格雷格·卡农 Greg Cannom
       巴巴拉·洛伦兹 Barbara Lorenz
       尚恩·马翰 Shane Mahan
       比利·韦伯 Billy Weber
       David McGiffert David McGiffert
       加里·沃勒 Garry Waller
       米歇尔·莫恩 Michele Moen
       Bill Mather Bill Mather
       Alan G. Markowitz Alan G. Markowitz
       尼尔·克雷佩拉 Neil Krepela
       David Jones David Jones
       伊恩·亨特 Ian Hunter
       理查德·E·霍兰德尔 Richard E. Hollander
       罗伯特·斯科塔克 Robert Skotak
       Michael Pangrazio Michael Pangrazio
       David Rosenthal David Rosenthal
       Ellen Somers Ellen Somers
       罗伯特·斯普尔洛克 Robert Spurlock
       马克·斯泰特森 Mark Stetson
       Thomas Valentine Thomas Valentine
       乔·威斯科西尔 Joe Viskocil
       吉姆·瑞吉尔 Jim Rygiel
       埃里克·亨利 Erik Henry
       Rhonda C. Gunner Rhonda C. Gunner
       布伦特·博茨 Brent Boates
       Vin Burnham Vin Burnham
       克莱格·巴朗 Craig Barron
       约翰·布鲁诺 John Bruno
       拉塞尔·厄尔 Russell Earl
       迈克尔·L·芬克 Michael L. Fink
       容.格瑞斯 Ron Gress
       克里斯托弗·埃文斯 Christopher Evans
◎标  签 美国 / 蝙蝠侠 / 科幻 / TimBurton / 漫画改编 / 动作 / 1992 / DC
◎简  介

  蝙蝠侠(迈克尔•基顿 Michael Keaton 饰)归来了!自从打败“小丑”后,高谭市获得片刻的宁静。然而,又一个强大的对手出现了!这次是脾气乖张暴戾的“企鹅”。                                    
                                “企鹅”因为是次子,所以自幼就被父母遗弃,落下残疾,导致“企鹅”对整个社会都心生不忿。长大后“企鹅”的企鹅决心杀回高谭市,将市内的长子都杀光,并控制整个高谭市。在迫使邪恶商人马克斯(克里斯托弗•沃肯 Christopher Walken 饰)帮忙后,“企鹅”顺利当上了高谭市长。同时,马克斯的秘书西莉娅(米歇尔•菲佛 Michelle Pfeiffer 饰)意外获知了他们的秘密,在遭受他们迫害时意外获得了超强能力,成为了亦正亦邪的猫女。                                    
                                蝙蝠侠这次将面临“企鹅”和猫女的双重挑战!
  1. Video
  2. ID                                       : 1
  3. ID in the original source medium         : 4113 (0x1011)
  4. Format                                   : HEVC
  5. Format/Info                              : High Efficiency Video Coding
  6. Format profile                           : Main [email protected]@High
  7. HDR format                               : SMPTE ST 2086, HDR10 compatible
  8. Codec ID                                 : V_MPEGH/ISO/HEVC
  9. Duration                                 : 2 h 6 min
  10. Bit rate                                 : 71.7 Mb/s
  11. Width                                    : 3 840 pixels
  12. Height                                   : 2 160 pixels
  13. Display aspect ratio                     : 16:9
  14. Frame rate mode                          : Constant
  15. Frame rate                               : 23.976 (24000/1001/189150) FPS
  16. Color space                              : YUV
  17. Chroma subsampling                       : 4:2:0 (Type 2)
  18. Bit depth                                : 10 bits
  19. Bits/(Pixel*Frame)                       : 0.361
  20. Stream size                              : 63.3 GiB (84%)
  21. Writing library                          : ATEME Titan File 3.9.0 (4.9.0.0)        
  22. Language                                 : English
  23. Default                                  : No
  24. Forced                                   : No
  25. Color range                              : Limited
  26. Color primaries                          : BT.2020
  27. Transfer characteristics                 : PQ
  28. Matrix coefficients                      : BT.2020 non-constant
  29. Mastering display color primaries        : Display P3
  30. Mastering display luminance              : min: 0.0050 cd/m2, max: 4000 cd/m2
  31. Maximum Content Light Level              : 1993 cd/m2
  32. Maximum Frame-Average Light Level        : 311 cd/m2
  33. Original source medium                   : Blu-ray
  34. Audio #1
  35. ID                                       : 2
  36. ID in the original source medium         : 4352 (0x1100)
  37. Format                                   : MLP FBA 16-ch
  38. Format/Info                              : Meridian Lossless Packing FBA with 16-channel presentation
  39. Commercial name                          : Dolby TrueHD with Dolby Atmos
  40. Codec ID                                 : A_TRUEHD
  41. Duration                                 : 2 h 6 min
  42. Bit rate mode                            : Variable
  43. Bit rate                                 : 4 071 kb/s
  44. Maximum bit rate                         : 7 407 kb/s
  45. Channel(s)                               : 8 channels
  46. Channel layout                           : L R C LFE Ls Rs Lb Rb
  47. Sampling rate                            : 48.0 kHz
  48. Frame rate                               : 1 200.000 FPS (40 SPF)
  49. Bit depth                                : 24 bits
  50. Compression mode                         : Lossless
  51. Stream size                              : 3.60 GiB (5%)
  52. Title                                    : TrueHD 7.1 Atmos
  53. Language                                 : English
  54. Default                                  : Yes
  55. Forced                                   : No
  56. Original source medium                   : Blu-ray
  57. Number of dynamic objects                : 15
  58. Bed channel count                        : 1 channel
  59. Bed channel configuration                : LFE
  60. Audio #2
  61. ID                                       : 3
  62. Format                                   : DTS XLL
  63. Format/Info                              : Digital Theater Systems
  64. Commercial name                          : DTS-HD Master Audio
  65. Codec ID                                 : A_DTS
  66. Duration                                 : 2 h 6 min
  67. Bit rate mode                            : Variable
  68. Bit rate                                 : 3 810 kb/s
  69. Channel(s)                               : 8 channels
  70. Channel layout                           : C L R LFE Lb Rb Lss Rss
  71. Sampling rate                            : 48.0 kHz
  72. Frame rate                               : 93.750 FPS (512 SPF)
  73. Bit depth                                : 24 bits
  74. Compression mode                         : Lossless
  75. Stream size                              : 3.37 GiB (4%)
  76. Title                                    : DTS-HD MA 7.1
  77. Language                                 : English
  78. Default                                  : No
  79. Forced                                   : No
  80. Audio #3
  81. ID                                       : 4
  82. ID in the original source medium         : 4352 (0x1100)
  83. Format                                   : AC-3
  84. Format/Info                              : Audio Coding 3
  85. Commercial name                          : Dolby Digital
  86. Format settings                          : Dolby Surround EX
  87. Codec ID                                 : A_AC3
  88. Duration                                 : 2 h 6 min
  89. Bit rate mode                            : Constant
  90. Bit rate                                 : 640 kb/s
  91. Channel(s)                               : 6 channels
  92. Channel layout                           : L R C LFE Ls Rs
  93. Sampling rate                            : 48.0 kHz
  94. Frame rate                               : 31.250 FPS (1536 SPF)
  95. Compression mode                         : Lossy
  96. Stream size                              : 579 MiB (1%)
  97. Title                                    : DD 5.1
  98. Language                                 : English
  99. Service kind                             : Complete Main
  100. Default                                  : No
  101. Forced                                   : No
  102. Original source medium                   : Blu-ray
  103. Audio #4
  104. ID                                       : 5
  105. ID in the original source medium         : 4353 (0x1101)
  106. Format                                   : AC-3
  107. Format/Info                              : Audio Coding 3
  108. Commercial name                          : Dolby Digital
  109. Codec ID                                 : A_AC3
  110. Duration                                 : 2 h 6 min
  111. Bit rate mode                            : Constant
  112. Bit rate                                 : 448 kb/s
  113. Channel(s)                               : 6 channels
  114. Channel layout                           : L R C LFE Ls Rs
  115. Sampling rate                            : 48.0 kHz
  116. Frame rate                               : 31.250 FPS (1536 SPF)
  117. Compression mode                         : Lossy
  118. Stream size                              : 405 MiB (0%)
  119. Title                                    : DD 5.1
  120. Language                                 : English
  121. Service kind                             : Complete Main
  122. Default                                  : No
  123. Forced                                   : No
  124. Original source medium                   : Blu-ray
  125. Audio #5
  126. ID                                       : 6
  127. ID in the original source medium         : 4355 (0x1103)
  128. Format                                   : AC-3
  129. Format/Info                              : Audio Coding 3
  130. Commercial name                          : Dolby Digital
  131. Format settings                          : Dolby Surround
  132. Codec ID                                 : A_AC3
  133. Duration                                 : 2 h 6 min
  134. Bit rate mode                            : Constant
  135. Bit rate                                 : 192 kb/s
  136. Channel(s)                               : 2 channels
  137. Channel layout                           : L R
  138. Sampling rate                            : 48.0 kHz
  139. Frame rate                               : 31.250 FPS (1536 SPF)
  140. Compression mode                         : Lossy
  141. Stream size                              : 174 MiB (0%)
  142. Title                                    : Stereo
  143. Language                                 : French
  144. Service kind                             : Complete Main
  145. Default                                  : No
  146. Forced                                   : No
  147. Original source medium                   : Blu-ray
  148. Audio #6
  149. ID                                       : 7
  150. ID in the original source medium         : 4356 (0x1104)
  151. Format                                   : AC-3
  152. Format/Info                              : Audio Coding 3
  153. Commercial name                          : Dolby Digital
  154. Codec ID                                 : A_AC3
  155. Duration                                 : 2 h 6 min
  156. Bit rate mode                            : Constant
  157. Bit rate                                 : 448 kb/s
  158. Channel(s)                               : 6 channels
  159. Channel layout                           : L R C LFE Ls Rs
  160. Sampling rate                            : 48.0 kHz
  161. Frame rate                               : 31.250 FPS (1536 SPF)
  162. Compression mode                         : Lossy
  163. Stream size                              : 405 MiB (0%)
  164. Title                                    : DD 5.1
  165. Language                                 : French
  166. Service kind                             : Complete Main
  167. Default                                  : No
  168. Forced                                   : No
  169. Original source medium                   : Blu-ray
  170. Audio #7
  171. ID                                       : 8
  172. ID in the original source medium         : 4357 (0x1105)
  173. Format                                   : AC-3
  174. Format/Info                              : Audio Coding 3
  175. Commercial name                          : Dolby Digital
  176. Codec ID                                 : A_AC3
  177. Duration                                 : 2 h 6 min
  178. Bit rate mode                            : Constant
  179. Bit rate                                 : 448 kb/s
  180. Channel(s)                               : 6 channels
  181. Channel layout                           : L R C LFE Ls Rs
  182. Sampling rate                            : 48.0 kHz
  183. Frame rate                               : 31.250 FPS (1536 SPF)
  184. Compression mode                         : Lossy
  185. Stream size                              : 405 MiB (0%)
  186. Title                                    : DD 5.1
  187. Language                                 : German
  188. Service kind                             : Complete Main
  189. Default                                  : No
  190. Forced                                   : No
  191. Original source medium                   : Blu-ray
  192. Audio #8
  193. ID                                       : 9
  194. ID in the original source medium         : 4358 (0x1106)
  195. Format                                   : AC-3
  196. Format/Info                              : Audio Coding 3
  197. Commercial name                          : Dolby Digital
  198. Codec ID                                 : A_AC3
  199. Duration                                 : 2 h 6 min
  200. Bit rate mode                            : Constant
  201. Bit rate                                 : 448 kb/s
  202. Channel(s)                               : 6 channels
  203. Channel layout                           : L R C LFE Ls Rs
  204. Sampling rate                            : 48.0 kHz
  205. Frame rate                               : 31.250 FPS (1536 SPF)
  206. Compression mode                         : Lossy
  207. Stream size                              : 405 MiB (0%)
  208. Title                                    : DD 5.1
  209. Language                                 : Italian
  210. Service kind                             : Complete Main
  211. Default                                  : No
  212. Forced                                   : No
  213. Original source medium                   : Blu-ray
  214. Audio #9
  215. ID                                       : 10
  216. ID in the original source medium         : 4359 (0x1107)
  217. Format                                   : AC-3
  218. Format/Info                              : Audio Coding 3
  219. Commercial name                          : Dolby Digital
  220. Codec ID                                 : A_AC3
  221. Duration                                 : 2 h 6 min
  222. Bit rate mode                            : Constant
  223. Bit rate                                 : 448 kb/s
  224. Channel(s)                               : 6 channels
  225. Channel layout                           : L R C LFE Ls Rs
  226. Sampling rate                            : 48.0 kHz
  227. Frame rate                               : 31.250 FPS (1536 SPF)
  228. Compression mode                         : Lossy
  229. Stream size                              : 405 MiB (0%)
  230. Title                                    : DD 5.1
  231. Language                                 : Spanish
  232. Service kind                             : Complete Main
  233. Default                                  : No
  234. Forced                                   : No
  235. Original source medium                   : Blu-ray
  236. Audio #10
  237. ID                                       : 11
  238. ID in the original source medium         : 4360 (0x1108)
  239. Format                                   : AC-3
  240. Format/Info                              : Audio Coding 3
  241. Commercial name                          : Dolby Digital
  242. Format settings                          : Dolby Surround
  243. Codec ID                                 : A_AC3
  244. Duration                                 : 2 h 6 min
  245. Bit rate mode                            : Constant
  246. Bit rate                                 : 192 kb/s
  247. Channel(s)                               : 2 channels
  248. Channel layout                           : L R
  249. Sampling rate                            : 48.0 kHz
  250. Frame rate                               : 31.250 FPS (1536 SPF)
  251. Compression mode                         : Lossy
  252. Stream size                              : 174 MiB (0%)
  253. Title                                    : DD 2.0
  254. Language                                 : Chinese
  255. Service kind                             : Complete Main
  256. Default                                  : No
  257. Forced                                   : No
  258. Original source medium                   : Blu-ray
  259. Audio #11
  260. ID                                       : 12
  261. ID in the original source medium         : 4361 (0x1109)
  262. Format                                   : AC-3
  263. Format/Info                              : Audio Coding 3
  264. Commercial name                          : Dolby Digital
  265. Format settings                          : Dolby Surround
  266. Codec ID                                 : A_AC3
  267. Duration                                 : 2 h 6 min
  268. Bit rate mode                            : Constant
  269. Bit rate                                 : 192 kb/s
  270. Channel(s)                               : 2 channels
  271. Channel layout                           : L R
  272. Sampling rate                            : 48.0 kHz
  273. Frame rate                               : 31.250 FPS (1536 SPF)
  274. Compression mode                         : Lossy
  275. Stream size                              : 174 MiB (0%)
  276. Title                                    : DD 2.0
  277. Language                                 : Spanish
  278. Service kind                             : Complete Main
  279. Default                                  : No
  280. Forced                                   : No
  281. Original source medium                   : Blu-ray
  282. Audio #12
  283. ID                                       : 13
  284. ID in the original source medium         : 4362 (0x110A)
  285. Format                                   : AC-3
  286. Format/Info                              : Audio Coding 3
  287. Commercial name                          : Dolby Digital
  288. Format settings                          : Dolby Surround
  289. Codec ID                                 : A_AC3
  290. Duration                                 : 2 h 6 min
  291. Bit rate mode                            : Constant
  292. Bit rate                                 : 192 kb/s
  293. Channel(s)                               : 2 channels
  294. Channel layout                           : L R
  295. Sampling rate                            : 48.0 kHz
  296. Frame rate                               : 31.250 FPS (1536 SPF)
  297. Compression mode                         : Lossy
  298. Stream size                              : 174 MiB (0%)
  299. Title                                    : DD 2.0
  300. Language                                 : Czech
  301. Service kind                             : Complete Main
  302. Default                                  : No
  303. Forced                                   : No
  304. Original source medium                   : Blu-ray
  305. Audio #13
  306. ID                                       : 14
  307. ID in the original source medium         : 4363 (0x110B)
  308. Format                                   : AC-3
  309. Format/Info                              : Audio Coding 3
  310. Commercial name                          : Dolby Digital
  311. Codec ID                                 : A_AC3
  312. Duration                                 : 2 h 6 min
  313. Bit rate mode                            : Constant
  314. Bit rate                                 : 448 kb/s
  315. Channel(s)                               : 6 channels
  316. Channel layout                           : L R C LFE Ls Rs
  317. Sampling rate                            : 48.0 kHz
  318. Frame rate                               : 31.250 FPS (1536 SPF)
  319. Compression mode                         : Lossy
  320. Stream size                              : 405 MiB (0%)
  321. Title                                    : DD 5.1
  322. Language                                 : Hungarian
  323. Service kind                             : Complete Main
  324. Default                                  : No
  325. Forced                                   : No
  326. Original source medium                   : Blu-ray
  327. Audio #14
  328. ID                                       : 15
  329. ID in the original source medium         : 4364 (0x110C)
  330. Format                                   : AC-3
  331. Format/Info                              : Audio Coding 3
  332. Commercial name                          : Dolby Digital
  333. Codec ID                                 : A_AC3
  334. Duration                                 : 2 h 6 min
  335. Bit rate mode                            : Constant
  336. Bit rate                                 : 384 kb/s
  337. Channel(s)                               : 6 channels
  338. Channel layout                           : L R C LFE Ls Rs
  339. Sampling rate                            : 48.0 kHz
  340. Frame rate                               : 31.250 FPS (1536 SPF)
  341. Compression mode                         : Lossy
  342. Stream size                              : 347 MiB (0%)
  343. Title                                    : DD 5.1
  344. Language                                 : Polish
  345. Service kind                             : Complete Main
  346. Default                                  : No
  347. Forced                                   : No
  348. Original source medium                   : Blu-ray
  349. Audio #15
  350. ID                                       : 16
  351. ID in the original source medium         : 4365 (0x110D)
  352. Format                                   : AC-3
  353. Format/Info                              : Audio Coding 3
  354. Commercial name                          : Dolby Digital
  355. Codec ID                                 : A_AC3
  356. Duration                                 : 2 h 6 min
  357. Bit rate mode                            : Constant
  358. Bit rate                                 : 448 kb/s
  359. Channel(s)                               : 6 channels
  360. Channel layout                           : L R C LFE Ls Rs
  361. Sampling rate                            : 48.0 kHz
  362. Frame rate                               : 31.250 FPS (1536 SPF)
  363. Compression mode                         : Lossy
  364. Stream size                              : 405 MiB (0%)
  365. Title                                    : DD 5.1
  366. Language                                 : Russian
  367. Service kind                             : Complete Main
  368. Default                                  : No
  369. Forced                                   : No
  370. Original source medium                   : Blu-ray
  371. Audio #16
  372. ID                                       : 17
  373. ID in the original source medium         : 4366 (0x110E)
  374. Format                                   : AC-3
  375. Format/Info                              : Audio Coding 3
  376. Commercial name                          : Dolby Digital
  377. Format settings                          : Dolby Surround
  378. Codec ID                                 : A_AC3
  379. Duration                                 : 2 h 6 min
  380. Bit rate mode                            : Constant
  381. Bit rate                                 : 192 kb/s
  382. Channel(s)                               : 2 channels
  383. Channel layout                           : L R
  384. Sampling rate                            : 48.0 kHz
  385. Frame rate                               : 31.250 FPS (1536 SPF)
  386. Compression mode                         : Lossy
  387. Stream size                              : 174 MiB (0%)
  388. Title                                    : DD 2.0
  389. Language                                 : Thai
  390. Service kind                             : Complete Main
  391. Default                                  : No
  392. Forced                                   : No
  393. Original source medium                   : Blu-ray
  394. Audio #17
  395. ID                                       : 18
  396. ID in the original source medium         : 4367 (0x110F)
  397. Format                                   : AC-3
  398. Format/Info                              : Audio Coding 3
  399. Commercial name                          : Dolby Digital
  400. Format settings                          : Dolby Surround
  401. Codec ID                                 : A_AC3
  402. Duration                                 : 2 h 6 min
  403. Bit rate mode                            : Constant
  404. Bit rate                                 : 192 kb/s
  405. Channel(s)                               : 2 channels
  406. Channel layout                           : L R
  407. Sampling rate                            : 48.0 kHz
  408. Frame rate                               : 31.250 FPS (1536 SPF)
  409. Compression mode                         : Lossy
  410. Stream size                              : 174 MiB (0%)
  411. Title                                    : DD 2.0
  412. Language                                 : English
  413. Service kind                             : Complete Main
  414. Default                                  : No
  415. Forced                                   : No
  416. Original source medium                   : Blu-ray
  417. Text #1
  418. ID                                       : 19
  419. Format                                   : UTF-8
  420. Codec ID                                 : S_TEXT/UTF8
  421. Codec ID/Info                            : UTF-8 Plain Text
  422. Duration                                 : 1 h 58 min
  423. Bit rate                                 : 38 b/s
  424. Frame rate                               : 0.141 FPS
  425. Count of elements                        : 1006
  426. Stream size                              : 33.9 KiB (0%)
  427. Language                                 : English
  428. Default                                  : Yes
  429. Forced                                   : No
  430. Text #2
  431. ID                                       : 20
  432. Format                                   : UTF-8
  433. Codec ID                                 : S_TEXT/UTF8
  434. Codec ID/Info                            : UTF-8 Plain Text
  435. Duration                                 : 1 h 59 min
  436. Bit rate                                 : 40 b/s
  437. Frame rate                               : 0.154 FPS
  438. Count of elements                        : 1107
  439. Stream size                              : 35.5 KiB (0%)
  440. Title                                    : SDH
  441. Language                                 : English
  442. Default                                  : No
  443. Forced                                   : No
  444. Text #3
  445. ID                                       : 21
  446. ID in the original source medium         : 4769 (0x12A1)
  447. Format                                   : PGS
  448. Muxing mode                              : zlib
  449. Codec ID                                 : S_HDMV/PGS
  450. Codec ID/Info                            : Picture based subtitle format used on BDs/HD-DVDs
  451. Duration                                 : 1 h 59 min
  452. Bit rate                                 : 22.8 kb/s
  453. Frame rate                               : 0.316 FPS
  454. Count of elements                        : 2270
  455. Stream size                              : 19.5 MiB (0%)
  456. Language                                 : English
  457. Default                                  : No
  458. Forced                                   : No
  459. Original source medium                   : Blu-ray
  460. Text #4
  461. ID                                       : 22
  462. ID in the original source medium         : 4770 (0x12A2)
  463. Format                                   : PGS
  464. Muxing mode                              : zlib
  465. Codec ID                                 : S_HDMV/PGS
  466. Codec ID/Info                            : Picture based subtitle format used on BDs/HD-DVDs
  467. Duration                                 : 1 h 58 min
  468. Bit rate                                 : 21.2 kb/s
  469. Frame rate                               : 0.291 FPS
  470. Count of elements                        : 2072
  471. Stream size                              : 18.0 MiB (0%)
  472. Language                                 : French
  473. Default                                  : No
  474. Forced                                   : No
  475. Original source medium                   : Blu-ray
  476. Text #5
  477. ID                                       : 23
  478. ID in the original source medium         : 4771 (0x12A3)
  479. Format                                   : PGS
  480. Muxing mode                              : zlib
  481. Codec ID                                 : S_HDMV/PGS
  482. Codec ID/Info                            : Picture based subtitle format used on BDs/HD-DVDs
  483. Duration                                 : 1 h 59 min
  484. Bit rate                                 : 22.7 kb/s
  485. Frame rate                               : 0.298 FPS
  486. Count of elements                        : 2142
  487. Stream size                              : 19.5 MiB (0%)
  488. Language                                 : German
  489. Default                                  : No
  490. Forced                                   : No
  491. Original source medium                   : Blu-ray
  492. Text #6
  493. ID                                       : 24
  494. ID in the original source medium         : 4772 (0x12A4)
  495. Format                                   : PGS
  496. Muxing mode                              : zlib
  497. Codec ID                                 : S_HDMV/PGS
  498. Codec ID/Info                            : Picture based subtitle format used on BDs/HD-DVDs
  499. Duration                                 : 1 h 59 min
  500. Bit rate                                 : 20.9 kb/s
  501. Frame rate                               : 0.299 FPS
  502. Count of elements                        : 2148
  503. Stream size                              : 17.9 MiB (0%)
  504. Language                                 : Italian
  505. Default                                  : No
  506. Forced                                   : No
  507. Original source medium                   : Blu-ray
  508. Text #7
  509. ID                                       : 25
  510. ID in the original source medium         : 4773 (0x12A5)
  511. Format                                   : PGS
  512. Muxing mode                              : zlib
  513. Codec ID                                 : S_HDMV/PGS
  514. Codec ID/Info                            : Picture based subtitle format used on BDs/HD-DVDs
  515. Duration                                 : 1 h 58 min
  516. Bit rate                                 : 22.0 kb/s
  517. Frame rate                               : 0.291 FPS
  518. Count of elements                        : 2072
  519. Stream size                              : 18.7 MiB (0%)
  520. Language                                 : Spanish
  521. Default                                  : No
  522. Forced                                   : No
  523. Original source medium                   : Blu-ray
  524. Text #8
  525. ID                                       : 26
  526. ID in the original source medium         : 4774 (0x12A6)
  527. Format                                   : PGS
  528. Muxing mode                              : zlib
  529. Codec ID                                 : S_HDMV/PGS
  530. Codec ID/Info                            : Picture based subtitle format used on BDs/HD-DVDs
  531. Duration                                 : 1 h 58 min
  532. Bit rate                                 : 21.0 kb/s
  533. Frame rate                               : 0.290 FPS
  534. Count of elements                        : 2064
  535. Stream size                              : 17.8 MiB (0%)
  536. Language                                 : Dutch
  537. Default                                  : No
  538. Forced                                   : No
  539. Original source medium                   : Blu-ray
  540. Text #9
  541. ID                                       : 27
  542. ID in the original source medium         : 4775 (0x12A7)
  543. Format                                   : PGS
  544. Muxing mode                              : zlib
  545. Codec ID                                 : S_HDMV/PGS
  546. Codec ID/Info                            : Picture based subtitle format used on BDs/HD-DVDs
  547. Duration                                 : 2 h 0 min
  548. Bit rate                                 : 18.7 kb/s
  549. Frame rate                               : 0.291 FPS
  550. Count of elements                        : 2098
  551. Stream size                              : 16.0 MiB (0%)
  552. Language                                 : Chinese
  553. Default                                  : No
  554. Forced                                   : No
  555. Original source medium                   : Blu-ray
  556. Text #10
  557. ID                                       : 28
  558. ID in the original source medium         : 4776 (0x12A8)
  559. Format                                   : PGS
  560. Muxing mode                              : zlib
  561. Codec ID                                 : S_HDMV/PGS
  562. Codec ID/Info                            : Picture based subtitle format used on BDs/HD-DVDs
  563. Duration                                 : 2 h 0 min
  564. Bit rate                                 : 18.4 kb/s
  565. Frame rate                               : 0.286 FPS
  566. Count of elements                        : 2058
  567. Stream size                              : 15.8 MiB (0%)
  568. Language                                 : Chinese
  569. Default                                  : No
  570. Forced                                   : No
  571. Original source medium                   : Blu-ray
  572. Text #11
  573. ID                                       : 29
  574. ID in the original source medium         : 4777 (0x12A9)
  575. Format                                   : PGS
  576. Muxing mode                              : zlib
  577. Codec ID                                 : S_HDMV/PGS
  578. Codec ID/Info                            : Picture based subtitle format used on BDs/HD-DVDs
  579. Duration                                 : 2 h 0 min
  580. Bit rate                                 : 19.9 kb/s
  581. Frame rate                               : 0.286 FPS
  582. Count of elements                        : 2058
  583. Stream size                              : 17.1 MiB (0%)
  584. Language                                 : Chinese
  585. Default                                  : No
  586. Forced                                   : No
  587. Original source medium                   : Blu-ray
  588. Text #12
  589. ID                                       : 30
  590. ID in the original source medium         : 4778 (0x12AA)
  591. Format                                   : PGS
  592. Muxing mode                              : zlib
  593. Codec ID                                 : S_HDMV/PGS
  594. Codec ID/Info                            : Picture based subtitle format used on BDs/HD-DVDs
  595. Duration                                 : 2 h 0 min
  596. Bit rate                                 : 13.2 kb/s
  597. Frame rate                               : 0.286 FPS
  598. Count of elements                        : 2062
  599. Stream size                              : 11.3 MiB (0%)
  600. Language                                 : Korean
  601. Default                                  : No
  602. Forced                                   : No
  603. Original source medium                   : Blu-ray
  604. Text #13
  605. ID                                       : 31
  606. ID in the original source medium         : 4779 (0x12AB)
  607. Format                                   : PGS
  608. Muxing mode                              : zlib
  609. Codec ID                                 : S_HDMV/PGS
  610. Codec ID/Info                            : Picture based subtitle format used on BDs/HD-DVDs
  611. Duration                                 : 1 h 58 min
  612. Bit rate                                 : 21.5 kb/s
  613. Frame rate                               : 0.290 FPS
  614. Count of elements                        : 2068
  615. Stream size                              : 18.3 MiB (0%)
  616. Language                                 : Spanish
  617. Default                                  : No
  618. Forced                                   : No
  619. Original source medium                   : Blu-ray
  620. Text #14
  621. ID                                       : 32
  622. ID in the original source medium         : 4780 (0x12AC)
  623. Format                                   : PGS
  624. Muxing mode                              : zlib
  625. Codec ID                                 : S_HDMV/PGS
  626. Codec ID/Info                            : Picture based subtitle format used on BDs/HD-DVDs
  627. Duration                                 : 2 h 0 min
  628. Bit rate                                 : 11.6 kb/s
  629. Frame rate                               : 0.289 FPS
  630. Count of elements                        : 2080
  631. Stream size                              : 9.99 MiB (0%)
  632. Language                                 : Arabic
  633. Default                                  : No
  634. Forced                                   : No
  635. Original source medium                   : Blu-ray
  636. Text #15
  637. ID                                       : 33
  638. ID in the original source medium         : 4781 (0x12AD)
  639. Format                                   : PGS
  640. Muxing mode                              : zlib
  641. Codec ID                                 : S_HDMV/PGS
  642. Codec ID/Info                            : Picture based subtitle format used on BDs/HD-DVDs
  643. Duration                                 : 1 h 58 min
  644. Bit rate                                 : 17.3 kb/s
  645. Frame rate                               : 0.290 FPS
  646. Count of elements                        : 2064
  647. Stream size                              : 14.7 MiB (0%)
  648. Language                                 : Czech
  649. Default                                  : No
  650. Forced                                   : No
  651. Original source medium                   : Blu-ray
  652. Text #16
  653. ID                                       : 34
  654. ID in the original source medium         : 4782 (0x12AE)
  655. Format                                   : PGS
  656. Muxing mode                              : zlib
  657. Codec ID                                 : S_HDMV/PGS
  658. Codec ID/Info                            : Picture based subtitle format used on BDs/HD-DVDs
  659. Duration                                 : 1 h 58 min
  660. Bit rate                                 : 19.9 kb/s
  661. Frame rate                               : 0.290 FPS
  662. Count of elements                        : 2066
  663. Stream size                              : 16.9 MiB (0%)
  664. Language                                 : Danish
  665. Default                                  : No
  666. Forced                                   : No
  667. Original source medium                   : Blu-ray
  668. Text #17
  669. ID                                       : 35
  670. ID in the original source medium         : 4783 (0x12AF)
  671. Format                                   : PGS
  672. Muxing mode                              : zlib
  673. Codec ID                                 : S_HDMV/PGS
  674. Codec ID/Info                            : Picture based subtitle format used on BDs/HD-DVDs
  675. Duration                                 : 1 h 58 min
  676. Bit rate                                 : 20.2 kb/s
  677. Frame rate                               : 0.290 FPS
  678. Count of elements                        : 2068
  679. Stream size                              : 17.1 MiB (0%)
  680. Language                                 : Finnish
  681. Default                                  : No
  682. Forced                                   : No
  683. Original source medium                   : Blu-ray
  684. Text #18
  685. ID                                       : 36
  686. ID in the original source medium         : 4784 (0x12B0)
  687. Format                                   : PGS
  688. Muxing mode                              : zlib
  689. Codec ID                                 : S_HDMV/PGS
  690. Codec ID/Info                            : Picture based subtitle format used on BDs/HD-DVDs
  691. Duration                                 : 1 h 58 min
  692. Bit rate                                 : 20.9 kb/s
  693. Frame rate                               : 0.289 FPS
  694. Count of elements                        : 2056
  695. Stream size                              : 17.7 MiB (0%)
  696. Language                                 : Hungarian
  697. Default                                  : No
  698. Forced                                   : No
  699. Original source medium                   : Blu-ray
  700. Text #19
  701. ID                                       : 37
  702. ID in the original source medium         : 4785 (0x12B1)
  703. Format                                   : PGS
  704. Muxing mode                              : zlib
  705. Codec ID                                 : S_HDMV/PGS
  706. Codec ID/Info                            : Picture based subtitle format used on BDs/HD-DVDs
  707. Duration                                 : 1 h 58 min
  708. Bit rate                                 : 19.9 kb/s
  709. Frame rate                               : 0.290 FPS
  710. Count of elements                        : 2066
  711. Stream size                              : 16.9 MiB (0%)
  712. Language                                 : Norwegian
  713. Default                                  : No
  714. Forced                                   : No
  715. Original source medium                   : Blu-ray
  716. Text #20
  717. ID                                       : 38
  718. ID in the original source medium         : 4786 (0x12B2)
  719. Format                                   : PGS
  720. Muxing mode                              : zlib
  721. Codec ID                                 : S_HDMV/PGS
  722. Codec ID/Info                            : Picture based subtitle format used on BDs/HD-DVDs
  723. Duration                                 : 1 h 58 min
  724. Bit rate                                 : 21.0 kb/s
  725. Frame rate                               : 0.290 FPS
  726. Count of elements                        : 2066
  727. Stream size                              : 17.8 MiB (0%)
  728. Language                                 : Polish
  729. Default                                  : No
  730. Forced                                   : No
  731. Original source medium                   : Blu-ray
  732. Text #21
  733. ID                                       : 39
  734. ID in the original source medium         : 4787 (0x12B3)
  735. Format                                   : PGS
  736. Muxing mode                              : zlib
  737. Codec ID                                 : S_HDMV/PGS
  738. Codec ID/Info                            : Picture based subtitle format used on BDs/HD-DVDs
  739. Duration                                 : 2 h 6 min
  740. Bit rate                                 : 18.7 kb/s
  741. Frame rate                               : 0.274 FPS
  742. Count of elements                        : 2076
  743. Stream size                              : 16.9 MiB (0%)
  744. Language                                 : Russian
  745. Default                                  : No
  746. Forced                                   : No
  747. Original source medium                   : Blu-ray
  748. Text #22
  749. ID                                       : 40
  750. ID in the original source medium         : 4788 (0x12B4)
  751. Format                                   : PGS
  752. Muxing mode                              : zlib
  753. Codec ID                                 : S_HDMV/PGS
  754. Codec ID/Info                            : Picture based subtitle format used on BDs/HD-DVDs
  755. Duration                                 : 1 h 58 min
  756. Bit rate                                 : 18.6 kb/s
  757. Frame rate                               : 0.290 FPS
  758. Count of elements                        : 2064
  759. Stream size                              : 15.8 MiB (0%)
  760. Language                                 : Swedish
  761. Default                                  : No
  762. Forced                                   : No
  763. Original source medium                   : Blu-ray
  764. Text #23
  765. ID                                       : 41
  766. ID in the original source medium         : 4789 (0x12B5)
  767. Format                                   : PGS
  768. Muxing mode                              : zlib
  769. Codec ID                                 : S_HDMV/PGS
  770. Codec ID/Info                            : Picture based subtitle format used on BDs/HD-DVDs
  771. Duration                                 : 2 h 0 min
  772. Bit rate                                 : 23.4 kb/s
  773. Frame rate                               : 0.295 FPS
  774. Count of elements                        : 2126
  775. Stream size                              : 20.1 MiB (0%)
  776. Language                                 : Thai
  777. Default                                  : No
  778. Forced                                   : No
  779. Original source medium                   : Blu-ray
  780. Text #24
  781. ID                                       : 42
  782. ID in the original source medium         : 4790 (0x12B6)
  783. Format                                   : PGS
  784. Muxing mode                              : zlib
  785. Codec ID                                 : S_HDMV/PGS
  786. Codec ID/Info                            : Picture based subtitle format used on BDs/HD-DVDs
  787. Duration                                 : 1 h 37 min
  788. Bit rate                                 : 422 b/s
  789. Frame rate                               : 0.007 FPS
  790. Count of elements                        : 42
  791. Stream size                              : 301 KiB (0%)
  792. Language                                 : French
  793. Default                                  : No
  794. Forced                                   : No
  795. Original source medium                   : Blu-ray
  796. Text #25
  797. ID                                       : 43
  798. ID in the original source medium         : 4791 (0x12B7)
  799. Format                                   : PGS
  800. Muxing mode                              : zlib
  801. Codec ID                                 : S_HDMV/PGS
  802. Codec ID/Info                            : Picture based subtitle format used on BDs/HD-DVDs
  803. Duration                                 : 1 h 23 min
  804. Bit rate                                 : 423 b/s
  805. Frame rate                               : 0.007 FPS
  806. Count of elements                        : 34
  807. Stream size                              : 260 KiB (0%)
  808. Language                                 : Spanish
  809. Default                                  : No
  810. Forced                                   : No
  811. Original source medium                   : Blu-ray
  812. Text #26
  813. ID                                       : 44
  814. ID in the original source medium         : 4792 (0x12B8)
  815. Format                                   : PGS
  816. Muxing mode                              : zlib
  817. Codec ID                                 : S_HDMV/PGS
  818. Codec ID/Info                            : Picture based subtitle format used on BDs/HD-DVDs
  819. Duration                                 : 1 h 21 min
  820. Bit rate                                 : 278 b/s
  821. Frame rate                               : 0.004 FPS
  822. Count of elements                        : 20
  823. Stream size                              : 167 KiB (0%)
  824. Language                                 : Spanish
  825. Default                                  : No
  826. Forced                                   : No
  827. Original source medium                   : Blu-ray
  828. Text #27
  829. ID                                       : 45
  830. ID in the original source medium         : 4793 (0x12B9)
  831. Format                                   : PGS
  832. Muxing mode                              : zlib
  833. Codec ID                                 : S_HDMV/PGS
  834. Codec ID/Info                            : Picture based subtitle format used on BDs/HD-DVDs
  835. Duration                                 : 1 h 22 min
  836. Bit rate                                 : 367 b/s
  837. Frame rate                               : 0.006 FPS
  838. Count of elements                        : 32
  839. Stream size                              : 223 KiB (0%)
  840. Language                                 : Czech
  841. Default                                  : No
  842. Forced                                   : No
  843. Original source medium                   : Blu-ray
  844. Text #28
  845. ID                                       : 46
  846. ID in the original source medium         : 4794 (0x12BA)
  847. Format                                   : PGS
  848. Muxing mode                              : zlib
  849. Codec ID                                 : S_HDMV/PGS
  850. Codec ID/Info                            : Picture based subtitle format used on BDs/HD-DVDs
  851. Duration                                 : 1 h 22 min
  852. Bit rate                                 : 414 b/s
  853. Frame rate                               : 0.007 FPS
  854. Count of elements                        : 36
  855. Stream size                              : 251 KiB (0%)
  856. Language                                 : Hungarian
  857. Default                                  : No
  858. Forced                                   : No
  859. Original source medium                   : Blu-ray
  860. Text #29
  861. ID                                       : 47
  862. ID in the original source medium         : 4795 (0x12BB)
  863. Format                                   : PGS
  864. Muxing mode                              : zlib
  865. Codec ID                                 : S_HDMV/PGS
  866. Codec ID/Info                            : Picture based subtitle format used on BDs/HD-DVDs
  867. Duration                                 : 49 min 25 s
  868. Bit rate                                 : 143 b/s
  869. Frame rate                               : 0.002 FPS
  870. Count of elements                        : 6
  871. Stream size                              : 52.1 KiB (0%)
  872. Language                                 : Polish
  873. Default                                  : No
  874. Forced                                   : No
  875. Original source medium                   : Blu-ray
  876. Text #30
  877. ID                                       : 48
  878. ID in the original source medium         : 4796 (0x12BC)
  879. Format                                   : PGS
  880. Muxing mode                              : zlib
  881. Codec ID                                 : S_HDMV/PGS
  882. Codec ID/Info                            : Picture based subtitle format used on BDs/HD-DVDs
  883. Duration                                 : 1 h 29 min
  884. Bit rate                                 : 197 b/s
  885. Frame rate                               : 0.004 FPS
  886. Count of elements                        : 22
  887. Stream size                              : 129 KiB (0%)
  888. Language                                 : Thai
  889. Default                                  : No
  890. Forced                                   : No
  891. Original source medium                   : Blu-ray
  892. Menu
  893. 00:00:00.000                             : en:Chapter 01
  894. 00:02:22.684                             : en:Chapter 02
  895. 00:05:30.371                             : en:Chapter 03
  896. 00:07:09.846                             : en:Chapter 04
  897. 00:09:22.311                             : en:Chapter 05
  898. 00:12:47.767                             : en:Chapter 06
  899. 00:17:12.865                             : en:Chapter 07
  900. 00:23:11.264                             : en:Chapter 08
  901. 00:25:18.558                             : en:Chapter 09
  902. 00:28:30.041                             : en:Chapter 10
  903. 00:33:50.486                             : en:Chapter 11
  904. 00:40:26.465                             : en:Chapter 12
  905. 00:43:03.747                             : en:Chapter 13
  906. 00:44:11.982                             : en:Chapter 14
  907. 00:48:31.033                             : en:Chapter 15
  908. 00:54:08.078                             : en:Chapter 16
  909. 00:55:47.719                             : en:Chapter 17
  910. 00:57:59.601                             : en:Chapter 18
  911. 00:59:43.997                             : en:Chapter 19
  912. 01:02:15.440                             : en:Chapter 20
  913. 01:07:47.188                             : en:Chapter 21
  914. 01:10:01.780                             : en:Chapter 22
  915. 01:13:08.759                             : en:Chapter 23
  916. 01:18:00.050                             : en:Chapter 24
  917. 01:20:42.254                             : en:Chapter 25
  918. 01:22:29.361                             : en:Chapter 26
  919. 01:26:43.489                             : en:Chapter 27
  920. 01:31:44.707                             : en:Chapter 28
  921. 01:33:47.079                             : en:Chapter 29
  922. 01:38:13.596                             : en:Chapter 30
  923. 01:40:38.449                             : en:Chapter 31
  924. 01:42:43.407                             : en:Chapter 32
  925. 01:44:08.325                             : en:Chapter 33
  926. 01:48:42.557                             : en:Chapter 34
  927. 01:50:45.096                             : en:Chapter 35
  928. 01:53:55.912                             : en:Chapter 36
  929. 01:55:45.939                             : en:Chapter 37
  930. 01:58:21.677                             : en:Chapter 38
  931. 02:00:51.285                             : en:Chapter 39
复制代码




                                       
                                       

                                       
                                       
                                       




Batman.Returns.1992.PROPER.2160p.BluRay.REMUX.HEVC.DTS-HD.MA.TrueHD.7.1.Atmos-FGT.torrent (94.72 KB, 下载次数: 0)
回复

使用道具 举报

您需要登录后才可以回帖 登录 | 立即注册

本版积分规则

QQ|Archiver|手机版|小黑屋|蓝光电影网

GMT+8, 2023-2-1 23:07 , Processed in 0.086022 second(s), 28 queries .

Powered by Discuz! X3.4

Copyright © 2001-2020, Tencent Cloud.

快速回复 返回顶部 返回列表