找回密码
 立即注册

QQ登录

只需一步,快速开始

查看: 87|回复: 0

[UHD.HEVC] 蝙蝠侠与罗宾 Batman.And.Robin.1997.PROPER.2160p.BluRay.REMUX.HEVC.DTS-HD.MA.TrueHD.7.1.Atmos-FGT 74.70GB

[复制链接]

0

精华

0

好友

2

听众

新手上路

Rank: 2

蓝光币
5
发表于 2022-11-30 07:51:52 | 显示全部楼层 |阅读模式
[img][/img]

◎标  题 蝙蝠侠与罗宾
◎译  名 蝙蝠侠4 / 蝙蝠侠4:急冻人(台) / 蝙蝠侠4:蝙蝠侠与罗宾
◎片  名 Batman & Robin
◎年  代 1997
◎产  地 美国 / 英国
◎类  别 动作 / 科幻
◎语  言 英语
◎上映日期 1997-06-20
◎IMDb评分 3.8/10 (242823人评价)
◎IMDb链接 https://www.imdb.com/title/tt0118688/
◎豆瓣评分 6.1/10 (31725人评价)
◎豆瓣链接 https://movie.douban.com/subject/1294519/
◎片  长 125 分钟
◎导  演 乔·舒马赫 Joel Schumacher
◎编  剧 鲍勃·凯恩 Bob Kane
       阿齐瓦·高斯曼 Akiva Goldsman
◎演  员 阿诺·施瓦辛格 Arnold Schwarzenegger
       乔治·克鲁尼 George Clooney
       克里斯·奥唐纳 Chris O'Donnell
       乌玛·瑟曼 Uma Thurman
       艾丽西亚·希尔维斯通 Alicia Silverstone
       迈克尔·高夫 Michael Gough
       帕特·亨格尔 Pat Hingle
       约翰·格洛弗 John Glover
       艾拉·麦克弗森 Elle Macpherson
       薇薇卡·福克斯 Vivica A. Fox
       温德拉·科斯伯姆 Vendela Kirsebom Thomessen
       吉普·斯温森 Jeep Swenson
       约翰·芬克 John Fink
       迈克尔·雷德·麦基 Michael Reid MacKay
       艾力克·洛伊德 Eric Lloyd
       格雷格·劳伦 Greg Lauren
       道格·休切逊 Doug Hutchison
       托比亚斯·耶利内克 Tobias Jelinek
       哈里·范·戈库姆 Harry Van Gorkum
       户田惠子 Keiko Toda
       陆建艺 Jianyi Lu
       Steven Ito Steven Ito
       Cory M. Miller Cory M. Miller
       吉姆·帕尔默 Jim Palmer
       Robert Powell Robert Powell
       Mark Chadwick Mark Chadwick
       Steve Blalock Steve Blalock
       杰克·贝茨 Jack Betts
       保罗·斯凯勒 Paul Sklar
       Gabriela Tollman Gabriela Tollman
       Khristian Lupo Khristian Lupo
       Peter Macgregor-Scott Peter Macgregor-Scott
       艾略特·戈登塞尔 Elliot Goldenthal
       斯蒂芬·戈德布拉特 Stephen Goldblatt
       丹尼斯·弗尔克勒 Dennis Virkler
       Geoff Hubbard Geoff Hubbard
       多里·库珀 Dorree Cooper
       Ingrid Ferrin Ingrid Ferrin
       Brian Penikas Brian Penikas
       James MacKinnon James MacKinnon
       马特·罗斯 Matt Rose
       约兰达·塔辛 Yolanda Toussieng
       里克·斯特拉顿 Rick Stratton
       爱德华·F.·恩里克斯 Edouard F. Henriques
       David B. Miller David B. Miller
       Barbara Ronci Barbara Ronci
       吉尔·罗考 Jill Rockow
       维·尼尔 Ve Neill
       Jim Kail Jim Kail
       Dayne Johnson Dayne Johnson
       比尔·科尔索 Bill Corso
       托尼·加德纳 Tony Gardner
       杰夫·道恩 Jeff Dawn
       莱昂纳德·恩格尔曼 Leonard Engelman
       Peter Tothpal Peter Tothpal
       彼得·麦克唐纳德 Peter MacDonald
       阿诺德·拉莫莱蒂 Arnauld Lamorlette
       罗杰·库帕里安 Roger Kupelian
       Scott Beverly Scott Beverly
       温迪·罗杰斯 Wendy Rogers
       Tim Donahue Tim Donahue
       Eric Durst Eric Durst
       兰斯·汉默 Lance Hammer
       James Hegedus James Hegedus
       塞斯·毛里 Seth Maury
       伊恩·亨特 Ian Hunter
       Michael Kory Michael Kory
       Olivier Sarda Olivier Sarda
       David A. Smith David A. Smith
       David Stump David Stump
       Pasquale Croce Pasquale Croce
       Philippe Rebours Philippe Rebours
       Dobbie Schiff Dobbie Schiff
       Iain Kennedy Iain Kennedy
       罗伯特·斯普尔洛克 Robert Spurlock
       Ellen Somers Ellen Somers
       安德鲁·亚当森 Andrew Adamson
       尼克·戴维斯 Nick Davis
◎标  签 科幻 / 美国 / 蝙蝠侠 / 动作 / 漫画改编 / 1997 / 美国电影 / DC
◎简  介

  蝙蝠侠(乔治•克鲁尼 George Clooney 饰)和罗宾(克里斯•奥唐纳 Chris O'Donnell 饰)这次遇到有生以来最大的挑战:“急冻人”(阿诺•施瓦辛格 Arnold Schwarzenegger 饰)!                                       
                                    “急冻人”原是一个科学奇才,但一次意外却令他只能靠急救机器为生。更为糟糕的是,除非他将整个高谭市的温度保持在零度以下,否则他心爱的妻子将永远不能醒来。“急冻人”开始一步步建立自己的冷冻王国,蝙蝠侠将是这个计划的最大阻碍,“急冻人”迫切需要除掉这个眼中钉。                                       
                                    罗宾逐渐成为蝙蝠侠的得力助手,两人合力化解了“急冻人”的一次次阴谋。但美艳的“毒藤女”(乌玛•瑟曼 Uma Thurman 饰)的出现给罗宾和蝙蝠侠彼此之间的关系带来了危机:“毒藤女”利用罗宾对她的心意,一步步设下陷阱,诱使两人互相猜疑。                                       
                                    蝙蝠侠和罗宾最终能否化解心结,战胜“急冻...
  1. Video
  2. ID                                       : 1
  3. ID in the original source medium         : 4113 (0x1011)
  4. Format                                   : HEVC
  5. Format/Info                              : High Efficiency Video Coding
  6. Format profile                           : Main [email protected]@High
  7. HDR format                               : SMPTE ST 2086, HDR10 compatible
  8. Codec ID                                 : V_MPEGH/ISO/HEVC
  9. Duration                                 : 2 h 4 min
  10. Bit rate                                 : 71.9 Mb/s
  11. Width                                    : 3 840 pixels
  12. Height                                   : 2 160 pixels
  13. Display aspect ratio                     : 16:9
  14. Frame rate mode                          : Constant
  15. Frame rate                               : 23.976 (24000/1001/189150) FPS
  16. Color space                              : YUV
  17. Chroma subsampling                       : 4:2:0 (Type 2)
  18. Bit depth                                : 10 bits
  19. Bits/(Pixel*Frame)                       : 0.362
  20. Stream size                              : 62.7 GiB (84%)
  21. Writing library                          : ATEME Titan File 3.9.4 (4.9.4.6)        
  22. Language                                 : English
  23. Default                                  : No
  24. Forced                                   : No
  25. Color range                              : Limited
  26. Color primaries                          : BT.2020
  27. Transfer characteristics                 : PQ
  28. Matrix coefficients                      : BT.2020 non-constant
  29. Mastering display color primaries        : Display P3
  30. Mastering display luminance              : min: 0.0050 cd/m2, max: 4000 cd/m2
  31. Maximum Content Light Level              : 1642 cd/m2
  32. Maximum Frame-Average Light Level        : 167 cd/m2
  33. Original source medium                   : Blu-ray
  34. Audio #1
  35. ID                                       : 2
  36. ID in the original source medium         : 4352 (0x1100)
  37. Format                                   : MLP FBA 16-ch
  38. Format/Info                              : Meridian Lossless Packing FBA with 16-channel presentation
  39. Commercial name                          : Dolby TrueHD with Dolby Atmos
  40. Codec ID                                 : A_TRUEHD
  41. Duration                                 : 2 h 4 min
  42. Bit rate mode                            : Variable
  43. Bit rate                                 : 4 153 kb/s
  44. Maximum bit rate                         : 7 032 kb/s
  45. Channel(s)                               : 8 channels
  46. Channel layout                           : L R C LFE Ls Rs Lb Rb
  47. Sampling rate                            : 48.0 kHz
  48. Frame rate                               : 1 200.000 FPS (40 SPF)
  49. Bit depth                                : 24 bits
  50. Compression mode                         : Lossless
  51. Stream size                              : 3.62 GiB (5%)
  52. Title                                    : TrueHD 7.1 Atmos
  53. Language                                 : English
  54. Default                                  : Yes
  55. Forced                                   : No
  56. Original source medium                   : Blu-ray
  57. Number of dynamic objects                : 15
  58. Bed channel count                        : 1 channel
  59. Bed channel configuration                : LFE
  60. Audio #2
  61. ID                                       : 3
  62. Format                                   : DTS XLL
  63. Format/Info                              : Digital Theater Systems
  64. Commercial name                          : DTS-HD Master Audio
  65. Codec ID                                 : A_DTS
  66. Duration                                 : 2 h 4 min
  67. Bit rate mode                            : Variable
  68. Bit rate                                 : 3 442 kb/s
  69. Channel(s)                               : 8 channels
  70. Channel layout                           : C L R LFE Lb Rb Lss Rss
  71. Sampling rate                            : 48.0 kHz
  72. Frame rate                               : 93.750 FPS (512 SPF)
  73. Bit depth                                : 24 bits
  74. Compression mode                         : Lossless
  75. Stream size                              : 3.00 GiB (4%)
  76. Title                                    : DTS-HD MA 7.1
  77. Language                                 : English
  78. Default                                  : No
  79. Forced                                   : No
  80. Audio #3
  81. ID                                       : 4
  82. ID in the original source medium         : 4352 (0x1100)
  83. Format                                   : AC-3
  84. Format/Info                              : Audio Coding 3
  85. Commercial name                          : Dolby Digital
  86. Format settings                          : Dolby Surround EX
  87. Codec ID                                 : A_AC3
  88. Duration                                 : 2 h 4 min
  89. Bit rate mode                            : Constant
  90. Bit rate                                 : 640 kb/s
  91. Channel(s)                               : 6 channels
  92. Channel layout                           : L R C LFE Ls Rs
  93. Sampling rate                            : 48.0 kHz
  94. Frame rate                               : 31.250 FPS (1536 SPF)
  95. Compression mode                         : Lossy
  96. Stream size                              : 572 MiB (1%)
  97. Title                                    : DD 5.1
  98. Language                                 : English
  99. Service kind                             : Complete Main
  100. Default                                  : No
  101. Forced                                   : No
  102. Original source medium                   : Blu-ray
  103. Audio #4
  104. ID                                       : 5
  105. ID in the original source medium         : 4353 (0x1101)
  106. Format                                   : AC-3
  107. Format/Info                              : Audio Coding 3
  108. Commercial name                          : Dolby Digital
  109. Codec ID                                 : A_AC3
  110. Duration                                 : 2 h 4 min
  111. Bit rate mode                            : Constant
  112. Bit rate                                 : 448 kb/s
  113. Channel(s)                               : 6 channels
  114. Channel layout                           : L R C LFE Ls Rs
  115. Sampling rate                            : 48.0 kHz
  116. Frame rate                               : 31.250 FPS (1536 SPF)
  117. Compression mode                         : Lossy
  118. Stream size                              : 400 MiB (0%)
  119. Title                                    : DD 5.1
  120. Language                                 : English
  121. Service kind                             : Complete Main
  122. Default                                  : No
  123. Forced                                   : No
  124. Original source medium                   : Blu-ray
  125. Audio #5
  126. ID                                       : 6
  127. ID in the original source medium         : 4354 (0x1102)
  128. Format                                   : AC-3
  129. Format/Info                              : Audio Coding 3
  130. Commercial name                          : Dolby Digital
  131. Codec ID                                 : A_AC3
  132. Duration                                 : 2 h 4 min
  133. Bit rate mode                            : Constant
  134. Bit rate                                 : 448 kb/s
  135. Channel(s)                               : 6 channels
  136. Channel layout                           : L R C LFE Ls Rs
  137. Sampling rate                            : 48.0 kHz
  138. Frame rate                               : 31.250 FPS (1536 SPF)
  139. Compression mode                         : Lossy
  140. Stream size                              : 400 MiB (0%)
  141. Title                                    : DD 5.1
  142. Language                                 : French
  143. Service kind                             : Complete Main
  144. Default                                  : No
  145. Forced                                   : No
  146. Original source medium                   : Blu-ray
  147. Audio #6
  148. ID                                       : 7
  149. ID in the original source medium         : 4355 (0x1103)
  150. Format                                   : AC-3
  151. Format/Info                              : Audio Coding 3
  152. Commercial name                          : Dolby Digital
  153. Codec ID                                 : A_AC3
  154. Duration                                 : 2 h 4 min
  155. Bit rate mode                            : Constant
  156. Bit rate                                 : 448 kb/s
  157. Channel(s)                               : 6 channels
  158. Channel layout                           : L R C LFE Ls Rs
  159. Sampling rate                            : 48.0 kHz
  160. Frame rate                               : 31.250 FPS (1536 SPF)
  161. Compression mode                         : Lossy
  162. Stream size                              : 400 MiB (0%)
  163. Title                                    : DD 5.1
  164. Language                                 : French
  165. Service kind                             : Complete Main
  166. Default                                  : No
  167. Forced                                   : No
  168. Original source medium                   : Blu-ray
  169. Audio #7
  170. ID                                       : 8
  171. ID in the original source medium         : 4356 (0x1104)
  172. Format                                   : AC-3
  173. Format/Info                              : Audio Coding 3
  174. Commercial name                          : Dolby Digital
  175. Codec ID                                 : A_AC3
  176. Duration                                 : 2 h 4 min
  177. Bit rate mode                            : Constant
  178. Bit rate                                 : 448 kb/s
  179. Channel(s)                               : 6 channels
  180. Channel layout                           : L R C LFE Ls Rs
  181. Sampling rate                            : 48.0 kHz
  182. Frame rate                               : 31.250 FPS (1536 SPF)
  183. Compression mode                         : Lossy
  184. Stream size                              : 400 MiB (0%)
  185. Title                                    : DD 5.1
  186. Language                                 : German
  187. Service kind                             : Complete Main
  188. Default                                  : No
  189. Forced                                   : No
  190. Original source medium                   : Blu-ray
  191. Audio #8
  192. ID                                       : 9
  193. ID in the original source medium         : 4357 (0x1105)
  194. Format                                   : AC-3
  195. Format/Info                              : Audio Coding 3
  196. Commercial name                          : Dolby Digital
  197. Codec ID                                 : A_AC3
  198. Duration                                 : 2 h 4 min
  199. Bit rate mode                            : Constant
  200. Bit rate                                 : 448 kb/s
  201. Channel(s)                               : 6 channels
  202. Channel layout                           : L R C LFE Ls Rs
  203. Sampling rate                            : 48.0 kHz
  204. Frame rate                               : 31.250 FPS (1536 SPF)
  205. Compression mode                         : Lossy
  206. Stream size                              : 400 MiB (0%)
  207. Title                                    : DD 5.1
  208. Language                                 : Italian
  209. Service kind                             : Complete Main
  210. Default                                  : No
  211. Forced                                   : No
  212. Original source medium                   : Blu-ray
  213. Audio #9
  214. ID                                       : 10
  215. ID in the original source medium         : 4358 (0x1106)
  216. Format                                   : AC-3
  217. Format/Info                              : Audio Coding 3
  218. Commercial name                          : Dolby Digital
  219. Codec ID                                 : A_AC3
  220. Duration                                 : 2 h 4 min
  221. Bit rate mode                            : Constant
  222. Bit rate                                 : 448 kb/s
  223. Channel(s)                               : 6 channels
  224. Channel layout                           : L R C LFE Ls Rs
  225. Sampling rate                            : 48.0 kHz
  226. Frame rate                               : 31.250 FPS (1536 SPF)
  227. Compression mode                         : Lossy
  228. Stream size                              : 400 MiB (0%)
  229. Title                                    : DD 5.1
  230. Language                                 : Spanish
  231. Service kind                             : Complete Main
  232. Default                                  : No
  233. Forced                                   : No
  234. Original source medium                   : Blu-ray
  235. Audio #10
  236. ID                                       : 11
  237. ID in the original source medium         : 4359 (0x1107)
  238. Format                                   : AC-3
  239. Format/Info                              : Audio Coding 3
  240. Commercial name                          : Dolby Digital
  241. Format settings                          : Dolby Surround
  242. Codec ID                                 : A_AC3
  243. Duration                                 : 2 h 4 min
  244. Bit rate mode                            : Constant
  245. Bit rate                                 : 192 kb/s
  246. Channel(s)                               : 2 channels
  247. Channel layout                           : L R
  248. Sampling rate                            : 48.0 kHz
  249. Frame rate                               : 31.250 FPS (1536 SPF)
  250. Compression mode                         : Lossy
  251. Stream size                              : 171 MiB (0%)
  252. Title                                    : DD 2.0
  253. Language                                 : Chinese
  254. Service kind                             : Complete Main
  255. Default                                  : No
  256. Forced                                   : No
  257. Original source medium                   : Blu-ray
  258. Audio #11
  259. ID                                       : 12
  260. ID in the original source medium         : 4360 (0x1108)
  261. Format                                   : AC-3
  262. Format/Info                              : Audio Coding 3
  263. Commercial name                          : Dolby Digital
  264. Format settings                          : Dolby Surround
  265. Codec ID                                 : A_AC3
  266. Duration                                 : 2 h 4 min
  267. Bit rate mode                            : Constant
  268. Bit rate                                 : 192 kb/s
  269. Channel(s)                               : 2 channels
  270. Channel layout                           : L R
  271. Sampling rate                            : 48.0 kHz
  272. Frame rate                               : 31.250 FPS (1536 SPF)
  273. Compression mode                         : Lossy
  274. Stream size                              : 171 MiB (0%)
  275. Title                                    : DD 2.0
  276. Language                                 : Spanish
  277. Service kind                             : Complete Main
  278. Default                                  : No
  279. Forced                                   : No
  280. Original source medium                   : Blu-ray
  281. Audio #12
  282. ID                                       : 13
  283. ID in the original source medium         : 4361 (0x1109)
  284. Format                                   : AC-3
  285. Format/Info                              : Audio Coding 3
  286. Commercial name                          : Dolby Digital
  287. Format settings                          : Dolby Surround
  288. Codec ID                                 : A_AC3
  289. Duration                                 : 2 h 4 min
  290. Bit rate mode                            : Constant
  291. Bit rate                                 : 192 kb/s
  292. Channel(s)                               : 2 channels
  293. Channel layout                           : L R
  294. Sampling rate                            : 48.0 kHz
  295. Frame rate                               : 31.250 FPS (1536 SPF)
  296. Compression mode                         : Lossy
  297. Stream size                              : 171 MiB (0%)
  298. Title                                    : DD 2.0
  299. Language                                 : Czech
  300. Service kind                             : Complete Main
  301. Default                                  : No
  302. Forced                                   : No
  303. Original source medium                   : Blu-ray
  304. Audio #13
  305. ID                                       : 14
  306. ID in the original source medium         : 4362 (0x110A)
  307. Format                                   : AC-3
  308. Format/Info                              : Audio Coding 3
  309. Commercial name                          : Dolby Digital
  310. Codec ID                                 : A_AC3
  311. Duration                                 : 2 h 4 min
  312. Bit rate mode                            : Constant
  313. Bit rate                                 : 448 kb/s
  314. Channel(s)                               : 6 channels
  315. Channel layout                           : L R C LFE Ls Rs
  316. Sampling rate                            : 48.0 kHz
  317. Frame rate                               : 31.250 FPS (1536 SPF)
  318. Compression mode                         : Lossy
  319. Stream size                              : 400 MiB (0%)
  320. Title                                    : DD 5.1
  321. Language                                 : Hungarian
  322. Service kind                             : Complete Main
  323. Default                                  : No
  324. Forced                                   : No
  325. Original source medium                   : Blu-ray
  326. Audio #14
  327. ID                                       : 15
  328. ID in the original source medium         : 4363 (0x110B)
  329. Format                                   : AC-3
  330. Format/Info                              : Audio Coding 3
  331. Commercial name                          : Dolby Digital
  332. Codec ID                                 : A_AC3
  333. Duration                                 : 2 h 4 min
  334. Bit rate mode                            : Constant
  335. Bit rate                                 : 448 kb/s
  336. Channel(s)                               : 6 channels
  337. Channel layout                           : L R C LFE Ls Rs
  338. Sampling rate                            : 48.0 kHz
  339. Frame rate                               : 31.250 FPS (1536 SPF)
  340. Compression mode                         : Lossy
  341. Stream size                              : 400 MiB (0%)
  342. Title                                    : DD 5.1
  343. Language                                 : Polish
  344. Service kind                             : Complete Main
  345. Default                                  : No
  346. Forced                                   : No
  347. Original source medium                   : Blu-ray
  348. Audio #15
  349. ID                                       : 16
  350. ID in the original source medium         : 4364 (0x110C)
  351. Format                                   : AC-3
  352. Format/Info                              : Audio Coding 3
  353. Commercial name                          : Dolby Digital
  354. Codec ID                                 : A_AC3
  355. Duration                                 : 2 h 4 min
  356. Bit rate mode                            : Constant
  357. Bit rate                                 : 448 kb/s
  358. Channel(s)                               : 6 channels
  359. Channel layout                           : L R C LFE Ls Rs
  360. Sampling rate                            : 48.0 kHz
  361. Frame rate                               : 31.250 FPS (1536 SPF)
  362. Compression mode                         : Lossy
  363. Stream size                              : 400 MiB (0%)
  364. Title                                    : DD 5.1
  365. Language                                 : Russian
  366. Service kind                             : Complete Main
  367. Default                                  : No
  368. Forced                                   : No
  369. Original source medium                   : Blu-ray
  370. Audio #16
  371. ID                                       : 17
  372. ID in the original source medium         : 4365 (0x110D)
  373. Format                                   : AC-3
  374. Format/Info                              : Audio Coding 3
  375. Commercial name                          : Dolby Digital
  376. Codec ID                                 : A_AC3
  377. Duration                                 : 2 h 4 min
  378. Bit rate mode                            : Constant
  379. Bit rate                                 : 448 kb/s
  380. Channel(s)                               : 6 channels
  381. Channel layout                           : L R C LFE Ls Rs
  382. Sampling rate                            : 48.0 kHz
  383. Frame rate                               : 31.250 FPS (1536 SPF)
  384. Compression mode                         : Lossy
  385. Stream size                              : 400 MiB (0%)
  386. Title                                    : DD 5.1
  387. Language                                 : Thai
  388. Service kind                             : Complete Main
  389. Default                                  : No
  390. Forced                                   : No
  391. Original source medium                   : Blu-ray
  392. Audio #17
  393. ID                                       : 18
  394. ID in the original source medium         : 4367 (0x110F)
  395. Format                                   : AC-3
  396. Format/Info                              : Audio Coding 3
  397. Commercial name                          : Dolby Digital
  398. Format settings                          : Dolby Surround
  399. Codec ID                                 : A_AC3
  400. Duration                                 : 2 h 4 min
  401. Bit rate mode                            : Constant
  402. Bit rate                                 : 192 kb/s
  403. Channel(s)                               : 2 channels
  404. Channel layout                           : L R
  405. Sampling rate                            : 48.0 kHz
  406. Frame rate                               : 31.250 FPS (1536 SPF)
  407. Compression mode                         : Lossy
  408. Stream size                              : 171 MiB (0%)
  409. Title                                    : DD 2.0
  410. Language                                 : English
  411. Service kind                             : Complete Main
  412. Default                                  : No
  413. Forced                                   : No
  414. Original source medium                   : Blu-ray
  415. Text #1
  416. ID                                       : 19
  417. Format                                   : UTF-8
  418. Codec ID                                 : S_TEXT/UTF8
  419. Codec ID/Info                            : UTF-8 Plain Text
  420. Duration                                 : 1 h 57 min
  421. Bit rate                                 : 39 b/s
  422. Frame rate                               : 0.159 FPS
  423. Count of elements                        : 1117
  424. Stream size                              : 33.6 KiB (0%)
  425. Language                                 : English
  426. Default                                  : Yes
  427. Forced                                   : No
  428. Text #2
  429. ID                                       : 20
  430. Format                                   : UTF-8
  431. Codec ID                                 : S_TEXT/UTF8
  432. Codec ID/Info                            : UTF-8 Plain Text
  433. Duration                                 : 1 h 57 min
  434. Bit rate                                 : 41 b/s
  435. Frame rate                               : 0.176 FPS
  436. Count of elements                        : 1235
  437. Stream size                              : 35.2 KiB (0%)
  438. Title                                    : SDH
  439. Language                                 : English
  440. Default                                  : No
  441. Forced                                   : No
  442. Text #3
  443. ID                                       : 21
  444. ID in the original source medium         : 4769 (0x12A1)
  445. Format                                   : PGS
  446. Muxing mode                              : zlib
  447. Codec ID                                 : S_HDMV/PGS
  448. Codec ID/Info                            : Picture based subtitle format used on BDs/HD-DVDs
  449. Duration                                 : 1 h 57 min
  450. Bit rate                                 : 23.2 kb/s
  451. Frame rate                               : 0.365 FPS
  452. Count of elements                        : 2562
  453. Stream size                              : 19.5 MiB (0%)
  454. Language                                 : English
  455. Default                                  : No
  456. Forced                                   : No
  457. Original source medium                   : Blu-ray
  458. Text #4
  459. ID                                       : 22
  460. ID in the original source medium         : 4772 (0x12A4)
  461. Format                                   : PGS
  462. Muxing mode                              : zlib
  463. Codec ID                                 : S_HDMV/PGS
  464. Codec ID/Info                            : Picture based subtitle format used on BDs/HD-DVDs
  465. Duration                                 : 1 h 57 min
  466. Bit rate                                 : 18.6 kb/s
  467. Frame rate                               : 0.295 FPS
  468. Count of elements                        : 2072
  469. Stream size                              : 15.5 MiB (0%)
  470. Language                                 : French
  471. Default                                  : No
  472. Forced                                   : No
  473. Original source medium                   : Blu-ray
  474. Text #5
  475. ID                                       : 23
  476. ID in the original source medium         : 4773 (0x12A5)
  477. Format                                   : PGS
  478. Muxing mode                              : zlib
  479. Codec ID                                 : S_HDMV/PGS
  480. Codec ID/Info                            : Picture based subtitle format used on BDs/HD-DVDs
  481. Duration                                 : 1 h 57 min
  482. Bit rate                                 : 23.7 kb/s
  483. Frame rate                               : 0.373 FPS
  484. Count of elements                        : 2622
  485. Stream size                              : 19.9 MiB (0%)
  486. Language                                 : German
  487. Default                                  : No
  488. Forced                                   : No
  489. Original source medium                   : Blu-ray
  490. Text #6
  491. ID                                       : 24
  492. ID in the original source medium         : 4774 (0x12A6)
  493. Format                                   : PGS
  494. Muxing mode                              : zlib
  495. Codec ID                                 : S_HDMV/PGS
  496. Codec ID/Info                            : Picture based subtitle format used on BDs/HD-DVDs
  497. Duration                                 : 1 h 57 min
  498. Bit rate                                 : 24.7 kb/s
  499. Frame rate                               : 0.371 FPS
  500. Count of elements                        : 2608
  501. Stream size                              : 20.7 MiB (0%)
  502. Language                                 : Italian
  503. Default                                  : No
  504. Forced                                   : No
  505. Original source medium                   : Blu-ray
  506. Text #7
  507. ID                                       : 25
  508. ID in the original source medium         : 4775 (0x12A7)
  509. Format                                   : PGS
  510. Muxing mode                              : zlib
  511. Codec ID                                 : S_HDMV/PGS
  512. Codec ID/Info                            : Picture based subtitle format used on BDs/HD-DVDs
  513. Duration                                 : 2 h 3 min
  514. Bit rate                                 : 19.2 kb/s
  515. Frame rate                               : 0.310 FPS
  516. Count of elements                        : 2296
  517. Stream size                              : 16.9 MiB (0%)
  518. Language                                 : Spanish
  519. Default                                  : No
  520. Forced                                   : No
  521. Original source medium                   : Blu-ray
  522. Text #8
  523. ID                                       : 26
  524. ID in the original source medium         : 4776 (0x12A8)
  525. Format                                   : PGS
  526. Muxing mode                              : zlib
  527. Codec ID                                 : S_HDMV/PGS
  528. Codec ID/Info                            : Picture based subtitle format used on BDs/HD-DVDs
  529. Duration                                 : 1 h 57 min
  530. Bit rate                                 : 19.6 kb/s
  531. Frame rate                               : 0.319 FPS
  532. Count of elements                        : 2242
  533. Stream size                              : 16.5 MiB (0%)
  534. Language                                 : Dutch
  535. Default                                  : No
  536. Forced                                   : No
  537. Original source medium                   : Blu-ray
  538. Text #9
  539. ID                                       : 27
  540. ID in the original source medium         : 4777 (0x12A9)
  541. Format                                   : PGS
  542. Muxing mode                              : zlib
  543. Codec ID                                 : S_HDMV/PGS
  544. Codec ID/Info                            : Picture based subtitle format used on BDs/HD-DVDs
  545. Duration                                 : 2 h 3 min
  546. Bit rate                                 : 18.2 kb/s
  547. Frame rate                               : 0.318 FPS
  548. Count of elements                        : 2358
  549. Stream size                              : 16.1 MiB (0%)
  550. Language                                 : Chinese
  551. Default                                  : No
  552. Forced                                   : No
  553. Original source medium                   : Blu-ray
  554. Text #10
  555. ID                                       : 28
  556. ID in the original source medium         : 4778 (0x12AA)
  557. Format                                   : PGS
  558. Muxing mode                              : zlib
  559. Codec ID                                 : S_HDMV/PGS
  560. Codec ID/Info                            : Picture based subtitle format used on BDs/HD-DVDs
  561. Duration                                 : 2 h 4 min
  562. Bit rate                                 : 17.9 kb/s
  563. Frame rate                               : 0.318 FPS
  564. Count of elements                        : 2370
  565. Stream size                              : 15.9 MiB (0%)
  566. Language                                 : Chinese
  567. Default                                  : No
  568. Forced                                   : No
  569. Original source medium                   : Blu-ray
  570. Text #11
  571. ID                                       : 29
  572. ID in the original source medium         : 4779 (0x12AB)
  573. Format                                   : PGS
  574. Muxing mode                              : zlib
  575. Codec ID                                 : S_HDMV/PGS
  576. Codec ID/Info                            : Picture based subtitle format used on BDs/HD-DVDs
  577. Duration                                 : 2 h 3 min
  578. Bit rate                                 : 18.2 kb/s
  579. Frame rate                               : 0.317 FPS
  580. Count of elements                        : 2354
  581. Stream size                              : 16.1 MiB (0%)
  582. Language                                 : Chinese
  583. Default                                  : No
  584. Forced                                   : No
  585. Original source medium                   : Blu-ray
  586. Text #12
  587. ID                                       : 30
  588. ID in the original source medium         : 4780 (0x12AC)
  589. Format                                   : PGS
  590. Muxing mode                              : zlib
  591. Codec ID                                 : S_HDMV/PGS
  592. Codec ID/Info                            : Picture based subtitle format used on BDs/HD-DVDs
  593. Duration                                 : 2 h 3 min
  594. Bit rate                                 : 14.7 kb/s
  595. Frame rate                               : 0.268 FPS
  596. Count of elements                        : 1990
  597. Stream size                              : 13.0 MiB (0%)
  598. Language                                 : Korean
  599. Default                                  : No
  600. Forced                                   : No
  601. Original source medium                   : Blu-ray
  602. Text #13
  603. ID                                       : 31
  604. ID in the original source medium         : 4781 (0x12AD)
  605. Format                                   : PGS
  606. Muxing mode                              : zlib
  607. Codec ID                                 : S_HDMV/PGS
  608. Codec ID/Info                            : Picture based subtitle format used on BDs/HD-DVDs
  609. Duration                                 : 2 h 3 min
  610. Bit rate                                 : 20.9 kb/s
  611. Frame rate                               : 0.317 FPS
  612. Count of elements                        : 2352
  613. Stream size                              : 18.5 MiB (0%)
  614. Language                                 : Spanish
  615. Default                                  : No
  616. Forced                                   : No
  617. Original source medium                   : Blu-ray
  618. Text #14
  619. ID                                       : 32
  620. ID in the original source medium         : 4782 (0x12AE)
  621. Format                                   : PGS
  622. Muxing mode                              : zlib
  623. Codec ID                                 : S_HDMV/PGS
  624. Codec ID/Info                            : Picture based subtitle format used on BDs/HD-DVDs
  625. Duration                                 : 2 h 3 min
  626. Bit rate                                 : 11.1 kb/s
  627. Frame rate                               : 0.310 FPS
  628. Count of elements                        : 2296
  629. Stream size                              : 9.85 MiB (0%)
  630. Language                                 : Arabic
  631. Default                                  : No
  632. Forced                                   : No
  633. Original source medium                   : Blu-ray
  634. Text #15
  635. ID                                       : 33
  636. ID in the original source medium         : 4783 (0x12AF)
  637. Format                                   : PGS
  638. Muxing mode                              : zlib
  639. Codec ID                                 : S_HDMV/PGS
  640. Codec ID/Info                            : Picture based subtitle format used on BDs/HD-DVDs
  641. Duration                                 : 1 h 57 min
  642. Bit rate                                 : 19.3 kb/s
  643. Frame rate                               : 0.326 FPS
  644. Count of elements                        : 2292
  645. Stream size                              : 16.1 MiB (0%)
  646. Language                                 : Czech
  647. Default                                  : No
  648. Forced                                   : No
  649. Original source medium                   : Blu-ray
  650. Text #16
  651. ID                                       : 34
  652. ID in the original source medium         : 4784 (0x12B0)
  653. Format                                   : PGS
  654. Muxing mode                              : zlib
  655. Codec ID                                 : S_HDMV/PGS
  656. Codec ID/Info                            : Picture based subtitle format used on BDs/HD-DVDs
  657. Duration                                 : 2 h 2 min
  658. Bit rate                                 : 19.3 kb/s
  659. Frame rate                               : 0.251 FPS
  660. Count of elements                        : 1842
  661. Stream size                              : 16.9 MiB (0%)
  662. Language                                 : Danish
  663. Default                                  : No
  664. Forced                                   : No
  665. Original source medium                   : Blu-ray
  666. Text #17
  667. ID                                       : 35
  668. ID in the original source medium         : 4785 (0x12B1)
  669. Format                                   : PGS
  670. Muxing mode                              : zlib
  671. Codec ID                                 : S_HDMV/PGS
  672. Codec ID/Info                            : Picture based subtitle format used on BDs/HD-DVDs
  673. Duration                                 : 2 h 2 min
  674. Bit rate                                 : 18.7 kb/s
  675. Frame rate                               : 0.285 FPS
  676. Count of elements                        : 2096
  677. Stream size                              : 16.4 MiB (0%)
  678. Language                                 : Finnish
  679. Default                                  : No
  680. Forced                                   : No
  681. Original source medium                   : Blu-ray
  682. Text #18
  683. ID                                       : 36
  684. ID in the original source medium         : 4786 (0x12B2)
  685. Format                                   : PGS
  686. Muxing mode                              : zlib
  687. Codec ID                                 : S_HDMV/PGS
  688. Codec ID/Info                            : Picture based subtitle format used on BDs/HD-DVDs
  689. Duration                                 : 1 h 57 min
  690. Bit rate                                 : 19.4 kb/s
  691. Frame rate                               : 0.326 FPS
  692. Count of elements                        : 2294
  693. Stream size                              : 16.2 MiB (0%)
  694. Language                                 : Hungarian
  695. Default                                  : No
  696. Forced                                   : No
  697. Original source medium                   : Blu-ray
  698. Text #19
  699. ID                                       : 37
  700. ID in the original source medium         : 4787 (0x12B3)
  701. Format                                   : PGS
  702. Muxing mode                              : zlib
  703. Codec ID                                 : S_HDMV/PGS
  704. Codec ID/Info                            : Picture based subtitle format used on BDs/HD-DVDs
  705. Duration                                 : 1 h 57 min
  706. Bit rate                                 : 18.6 kb/s
  707. Frame rate                               : 0.326 FPS
  708. Count of elements                        : 2292
  709. Stream size                              : 15.6 MiB (0%)
  710. Language                                 : Norwegian
  711. Default                                  : No
  712. Forced                                   : No
  713. Original source medium                   : Blu-ray
  714. Text #20
  715. ID                                       : 38
  716. ID in the original source medium         : 4788 (0x12B4)
  717. Format                                   : PGS
  718. Muxing mode                              : zlib
  719. Codec ID                                 : S_HDMV/PGS
  720. Codec ID/Info                            : Picture based subtitle format used on BDs/HD-DVDs
  721. Duration                                 : 1 h 57 min
  722. Bit rate                                 : 18.0 kb/s
  723. Frame rate                               : 0.326 FPS
  724. Count of elements                        : 2292
  725. Stream size                              : 15.1 MiB (0%)
  726. Language                                 : Polish
  727. Default                                  : No
  728. Forced                                   : No
  729. Original source medium                   : Blu-ray
  730. Text #21
  731. ID                                       : 39
  732. ID in the original source medium         : 4789 (0x12B5)
  733. Format                                   : PGS
  734. Muxing mode                              : zlib
  735. Codec ID                                 : S_HDMV/PGS
  736. Codec ID/Info                            : Picture based subtitle format used on BDs/HD-DVDs
  737. Duration                                 : 2 h 3 min
  738. Bit rate                                 : 19.0 kb/s
  739. Frame rate                               : 0.304 FPS
  740. Count of elements                        : 2256
  741. Stream size                              : 16.8 MiB (0%)
  742. Language                                 : Russian
  743. Default                                  : No
  744. Forced                                   : No
  745. Original source medium                   : Blu-ray
  746. Text #22
  747. ID                                       : 40
  748. ID in the original source medium         : 4790 (0x12B6)
  749. Format                                   : PGS
  750. Muxing mode                              : zlib
  751. Codec ID                                 : S_HDMV/PGS
  752. Codec ID/Info                            : Picture based subtitle format used on BDs/HD-DVDs
  753. Duration                                 : 1 h 57 min
  754. Bit rate                                 : 18.5 kb/s
  755. Frame rate                               : 0.283 FPS
  756. Count of elements                        : 1988
  757. Stream size                              : 15.5 MiB (0%)
  758. Language                                 : Swedish
  759. Default                                  : No
  760. Forced                                   : No
  761. Original source medium                   : Blu-ray
  762. Text #23
  763. ID                                       : 41
  764. ID in the original source medium         : 4791 (0x12B7)
  765. Format                                   : PGS
  766. Muxing mode                              : zlib
  767. Codec ID                                 : S_HDMV/PGS
  768. Codec ID/Info                            : Picture based subtitle format used on BDs/HD-DVDs
  769. Duration                                 : 2 h 3 min
  770. Bit rate                                 : 19.2 kb/s
  771. Frame rate                               : 0.317 FPS
  772. Count of elements                        : 2354
  773. Stream size                              : 16.9 MiB (0%)
  774. Language                                 : Thai
  775. Default                                  : No
  776. Forced                                   : No
  777. Original source medium                   : Blu-ray
  778. Text #24
  779. ID                                       : 42
  780. ID in the original source medium         : 4792 (0x12B8)
  781. Format                                   : PGS
  782. Muxing mode                              : zlib
  783. Codec ID                                 : S_HDMV/PGS
  784. Codec ID/Info                            : Picture based subtitle format used on BDs/HD-DVDs
  785. Duration                                 : 37 min 48 s
  786. Bit rate                                 : 182 b/s
  787. Frame rate                               : 0.004 FPS
  788. Count of elements                        : 10
  789. Stream size                              : 50.5 KiB (0%)
  790. Language                                 : French
  791. Default                                  : No
  792. Forced                                   : No
  793. Original source medium                   : Blu-ray
  794. Text #25
  795. ID                                       : 43
  796. ID in the original source medium         : 4793 (0x12B9)
  797. Format                                   : PGS
  798. Muxing mode                              : zlib
  799. Codec ID                                 : S_HDMV/PGS
  800. Codec ID/Info                            : Picture based subtitle format used on BDs/HD-DVDs
  801. Duration                                 : 1 h 48 min
  802. Bit rate                                 : 474 b/s
  803. Frame rate                               : 0.007 FPS
  804. Count of elements                        : 48
  805. Stream size                              : 378 KiB (0%)
  806. Language                                 : Spanish
  807. Default                                  : No
  808. Forced                                   : No
  809. Original source medium                   : Blu-ray
  810. Text #26
  811. ID                                       : 44
  812. ID in the original source medium         : 4794 (0x12BA)
  813. Format                                   : PGS
  814. Muxing mode                              : zlib
  815. Codec ID                                 : S_HDMV/PGS
  816. Codec ID/Info                            : Picture based subtitle format used on BDs/HD-DVDs
  817. Duration                                 : 1 h 19 min
  818. Bit rate                                 : 355 b/s
  819. Frame rate                               : 0.006 FPS
  820. Count of elements                        : 28
  821. Stream size                              : 206 KiB (0%)
  822. Language                                 : Spanish
  823. Default                                  : No
  824. Forced                                   : No
  825. Original source medium                   : Blu-ray
  826. Text #27
  827. ID                                       : 45
  828. ID in the original source medium         : 4795 (0x12BB)
  829. Format                                   : PGS
  830. Muxing mode                              : zlib
  831. Codec ID                                 : S_HDMV/PGS
  832. Codec ID/Info                            : Picture based subtitle format used on BDs/HD-DVDs
  833. Duration                                 : 1 h 48 min
  834. Bit rate                                 : 376 b/s
  835. Frame rate                               : 0.006 FPS
  836. Count of elements                        : 40
  837. Stream size                              : 300 KiB (0%)
  838. Language                                 : Russian
  839. Default                                  : No
  840. Forced                                   : No
  841. Original source medium                   : Blu-ray
  842. Text #28
  843. ID                                       : 46
  844. ID in the original source medium         : 4796 (0x12BC)
  845. Format                                   : PGS
  846. Muxing mode                              : zlib
  847. Codec ID                                 : S_HDMV/PGS
  848. Codec ID/Info                            : Picture based subtitle format used on BDs/HD-DVDs
  849. Duration                                 : 1 h 48 min
  850. Bit rate                                 : 360 b/s
  851. Frame rate                               : 0.007 FPS
  852. Count of elements                        : 48
  853. Stream size                              : 287 KiB (0%)
  854. Language                                 : Thai
  855. Default                                  : No
  856. Forced                                   : No
  857. Original source medium                   : Blu-ray
  858. Menu
  859. 00:00:00.000                             : en:Chapter 01
  860. 00:03:51.064                             : en:Chapter 02
  861. 00:09:12.385                             : en:Chapter 03
  862. 00:13:25.596                             : en:Chapter 04
  863. 00:15:11.577                             : en:Chapter 05
  864. 00:19:09.356                             : en:Chapter 06
  865. 00:21:00.926                             : en:Chapter 07
  866. 00:24:03.316                             : en:Chapter 08
  867. 00:26:35.677                             : en:Chapter 09
  868. 00:29:12.709                             : en:Chapter 10
  869. 00:31:41.608                             : en:Chapter 11
  870. 00:33:59.203                             : en:Chapter 12
  871. 00:38:42.111                             : en:Chapter 13
  872. 00:39:54.517                             : en:Chapter 14
  873. 00:45:32.104                             : en:Chapter 15
  874. 00:48:47.841                             : en:Chapter 16
  875. 00:50:53.216                             : en:Chapter 17
  876. 00:54:27.806                             : en:Chapter 18
  877. 00:56:23.171                             : en:Chapter 19
  878. 00:59:29.649                             : en:Chapter 20
  879. 01:01:04.952                             : en:Chapter 21
  880. 01:06:00.539                             : en:Chapter 22
  881. 01:07:47.438                             : en:Chapter 23
  882. 01:12:16.707                             : en:Chapter 24
  883. 01:15:58.845                             : en:Chapter 25
  884. 01:20:16.436                             : en:Chapter 26
  885. 01:22:59.766                             : en:Chapter 27
  886. 01:25:40.385                             : en:Chapter 28
  887. 01:28:47.322                             : en:Chapter 29
  888. 01:32:02.016                             : en:Chapter 30
  889. 01:33:25.224                             : en:Chapter 31
  890. 01:35:15.626                             : en:Chapter 32
  891. 01:36:25.070                             : en:Chapter 33
  892. 01:41:21.116                             : en:Chapter 34
  893. 01:44:21.380                             : en:Chapter 35
  894. 01:48:36.510                             : en:Chapter 36
  895. 01:49:53.587                             : en:Chapter 37
  896. 01:51:43.571                             : en:Chapter 38
  897. 01:53:33.598                             : en:Chapter 39
  898. 01:56:28.898                             : en:Chapter 40
  899. 01:57:25.079                             : en:Chapter 41
  900. 01:59:41.632                             : en:Chapter 42
复制代码




                                       
                                       

                                       
                                       
                                       




蝙蝠侠与罗宾 Batman.And.Robin.1997.PROPER.2160p.BluRay.REMUX.HEVC.DTS-HD.MA.TrueHD.7.1.Atmos-FGT 74.70GB

Batman.And.Robin.1997.PROPER.2160p.BluRay.REMUX.HEVC.DTS-HD.MA.TrueHD.7.1.Atmos-.torrent

94.08 KB, 下载次数: 0, 下载积分: 蓝光币 -2

回复

使用道具 举报

您需要登录后才可以回帖 登录 | 立即注册

本版积分规则

QQ|Archiver|手机版|小黑屋|蓝光电影网

GMT+8, 2023-2-1 22:53 , Processed in 0.092848 second(s), 28 queries .

Powered by Discuz! X3.4

Copyright © 2001-2020, Tencent Cloud.

快速回复 返回顶部 返回列表