找回密码
 立即注册

QQ登录

只需一步,快速开始

查看: 93|回复: 0

[其他] 爱情跑调 Sounds.Like.Love.2021.SPANISH.2160p.NF.WEB-DL.x265.10bit.SDR.DDP5.1.Atmos-SMURF 14.35GB

[复制链接]

0

精华

0

好友

2

听众

新手上路

Rank: 2

蓝光币
5
发表于 2022-11-30 07:51:50 | 显示全部楼层 |阅读模式
[img][/img]

◎标  题 爱情跑调
◎译  名 We Were Songs / Sounds Like Love
◎片  名 Fuimos canciones
◎年  代 2021
◎产  地 西班牙
◎类  别 剧情 / 喜剧 / 爱情 / 音乐
◎语  言 西班牙语
◎上映日期 2021-09-29(西班牙)
◎IMDb链接 https://www.imdb.com/title/tt11698662/
◎豆瓣评分 6.0/10 (171人评价)
◎豆瓣链接 https://movie.douban.com/subject/35504041/
◎片  长 112分钟
◎导  演 胡安娜·马西亚斯 Juana Macías
◎演  员 玛利亚·瓦沃德 María Valverde
       亚历克斯·冈萨雷斯 Álex González
       卡洛·科斯坦齐亚 Carlo Costanzia
       苏珊娜·阿巴图纳·戈麦斯 Susana Abaituna Gómez
       伊格纳西奥·蒙特斯 Ignacio Montes
       ‎伊丽莎白·‎‎卡萨诺瓦斯‎ Elisabet Casanovas
       罗杰·贝鲁佐 Roger Berruezo
◎标  签 西班牙 / 爱情 / Netflix / 喜剧 / 西班牙电影 / 2021 / 音乐 / 剧情
◎简  介

  Maca (María Valverde), 30 years old and clumsy by nature, makes the most of life and strives to be happy. Maca's talent is wasted working as an assistant for an oppressive and terrifying fashion influencer and she spends her time with guys with whom she never manages to establish an emotional bond. Together with Jimena (Elísabet Casanovas) and Adriana (Susana Abaitúa), her two ...
  1. Video
  2. ID                                       : 1
  3. Format                                   : HEVC
  4. Format/Info                              : High Efficiency Video Coding
  5. Format profile                           : Main [email protected]@Main
  6. Codec ID                                 : V_MPEGH/ISO/HEVC
  7. Duration                                 : 1 h 51 min
  8. Bit rate                                 : 17.0 Mb/s
  9. Width                                    : 3 840 pixels
  10. Height                                   : 2 160 pixels
  11. Display aspect ratio                     : 16:9
  12. Frame rate mode                          : Constant
  13. Frame rate                               : 24.000 FPS
  14. Color space                              : YUV
  15. Chroma subsampling                       : 4:2:0
  16. Bit depth                                : 10 bits
  17. Bits/(Pixel*Frame)                       : 0.086
  18. Stream size                              : 13.2 GiB (92%)
  19. Language                                 : Spanish
  20. Default                                  : Yes
  21. Forced                                   : No
  22. Color range                              : Limited
  23. Color primaries                          : BT.709
  24. Transfer characteristics                 : BT.709
  25. Matrix coefficients                      : BT.709
  26. Audio #1
  27. ID                                       : 2
  28. Format                                   : E-AC-3 JOC
  29. Format/Info                              : Enhanced AC-3 with Joint Object Coding
  30. Commercial name                          : Dolby Digital Plus with Dolby Atmos
  31. Codec ID                                 : A_EAC3
  32. Duration                                 : 1 h 51 min
  33. Bit rate mode                            : Constant
  34. Bit rate                                 : 768 kb/s
  35. Channel(s)                               : 6 channels
  36. Channel layout                           : L R C LFE Ls Rs
  37. Sampling rate                            : 48.0 kHz
  38. Frame rate                               : 31.250 FPS (1536 SPF)
  39. Compression mode                         : Lossy
  40. Stream size                              : 611 MiB (4%)
  41. Language                                 : Spanish
  42. Service kind                             : Complete Main
  43. Default                                  : Yes
  44. Forced                                   : No
  45. Complexity index                         : 16
  46. Number of dynamic objects                : 15
  47. Bed channel count                        : 1 channel
  48. Bed channel configuration                : LFE
  49. Audio #2
  50. ID                                       : 3
  51. Format                                   : E-AC-3
  52. Format/Info                              : Enhanced AC-3
  53. Commercial name                          : Dolby Digital Plus
  54. Codec ID                                 : A_EAC3
  55. Duration                                 : 1 h 51 min
  56. Bit rate mode                            : Constant
  57. Bit rate                                 : 640 kb/s
  58. Channel(s)                               : 6 channels
  59. Channel layout                           : L R C LFE Ls Rs
  60. Sampling rate                            : 48.0 kHz
  61. Frame rate                               : 31.250 FPS (1536 SPF)
  62. Compression mode                         : Lossy
  63. Stream size                              : 509 MiB (3%)
  64. Language                                 : English
  65. Service kind                             : Complete Main
  66. Default                                  : No
  67. Forced                                   : No
  68. Text #1
  69. ID                                       : 4
  70. Format                                   : UTF-8
  71. Codec ID                                 : S_TEXT/UTF8
  72. Codec ID/Info                            : UTF-8 Plain Text
  73. Duration                                 : 20 min 35 s
  74. Bit rate                                 : 1 b/s
  75. Frame rate                               : 0.006 FPS
  76. Count of elements                        : 8
  77. Stream size                              : 190 Bytes (0%)
  78. Title                                    : Forced
  79. Language                                 : Spanish
  80. Default                                  : Yes
  81. Forced                                   : Yes
  82. Text #2
  83. ID                                       : 5
  84. Format                                   : UTF-8
  85. Codec ID                                 : S_TEXT/UTF8
  86. Codec ID/Info                            : UTF-8 Plain Text
  87. Duration                                 : 1 h 45 min
  88. Bit rate                                 : 63 b/s
  89. Frame rate                               : 0.230 FPS
  90. Count of elements                        : 1452
  91. Stream size                              : 48.7 KiB (0%)
  92. Language                                 : Spanish
  93. Default                                  : No
  94. Forced                                   : No
  95. Text #3
  96. ID                                       : 6
  97. Format                                   : UTF-8
  98. Codec ID                                 : S_TEXT/UTF8
  99. Codec ID/Info                            : UTF-8 Plain Text
  100. Duration                                 : 1 h 49 min
  101. Bit rate                                 : 71 b/s
  102. Frame rate                               : 0.265 FPS
  103. Count of elements                        : 1748
  104. Stream size                              : 57.3 KiB (0%)
  105. Title                                    : SDH
  106. Language                                 : Spanish
  107. Default                                  : No
  108. Forced                                   : No
  109. Text #4
  110. ID                                       : 7
  111. Format                                   : UTF-8
  112. Codec ID                                 : S_TEXT/UTF8
  113. Codec ID/Info                            : UTF-8 Plain Text
  114. Duration                                 : 1 h 45 min
  115. Bit rate                                 : 1 b/s
  116. Frame rate                               : 0.008 FPS
  117. Count of elements                        : 53
  118. Stream size                              : 1.38 KiB (0%)
  119. Title                                    : Forced
  120. Language                                 : English
  121. Default                                  : No
  122. Forced                                   : Yes
  123. Text #5
  124. ID                                       : 8
  125. Format                                   : UTF-8
  126. Codec ID                                 : S_TEXT/UTF8
  127. Codec ID/Info                            : UTF-8 Plain Text
  128. Duration                                 : 1 h 45 min
  129. Bit rate                                 : 68 b/s
  130. Frame rate                               : 0.245 FPS
  131. Count of elements                        : 1554
  132. Stream size                              : 53.0 KiB (0%)
  133. Language                                 : English
  134. Default                                  : No
  135. Forced                                   : No
  136. Text #6
  137. ID                                       : 9
  138. Format                                   : UTF-8
  139. Codec ID                                 : S_TEXT/UTF8
  140. Codec ID/Info                            : UTF-8 Plain Text
  141. Duration                                 : 1 h 45 min
  142. Bit rate                                 : 62 b/s
  143. Frame rate                               : 0.214 FPS
  144. Count of elements                        : 1356
  145. Stream size                              : 48.3 KiB (0%)
  146. Language                                 : English
  147. Default                                  : No
  148. Forced                                   : No
  149. Text #7
  150. ID                                       : 10
  151. Format                                   : UTF-8
  152. Codec ID                                 : S_TEXT/UTF8
  153. Codec ID/Info                            : UTF-8 Plain Text
  154. Duration                                 : 1 h 47 min
  155. Bit rate                                 : 85 b/s
  156. Frame rate                               : 0.294 FPS
  157. Count of elements                        : 1899
  158. Stream size                              : 67.0 KiB (0%)
  159. Title                                    : SDH
  160. Language                                 : English
  161. Default                                  : No
  162. Forced                                   : No
  163. Text #8
  164. ID                                       : 11
  165. Format                                   : UTF-8
  166. Codec ID                                 : S_TEXT/UTF8
  167. Codec ID/Info                            : UTF-8 Plain Text
  168. Duration                                 : 1 h 49 min
  169. Bit rate                                 : 98 b/s
  170. Frame rate                               : 0.206 FPS
  171. Count of elements                        : 1362
  172. Stream size                              : 79.1 KiB (0%)
  173. Language                                 : Arabic
  174. Default                                  : No
  175. Forced                                   : No
  176. Text #9
  177. ID                                       : 12
  178. Format                                   : UTF-8
  179. Codec ID                                 : S_TEXT/UTF8
  180. Codec ID/Info                            : UTF-8 Plain Text
  181. Duration                                 : 1 h 49 min
  182. Bit rate                                 : 58 b/s
  183. Frame rate                               : 0.202 FPS
  184. Count of elements                        : 1335
  185. Stream size                              : 47.0 KiB (0%)
  186. Language                                 : Czech
  187. Default                                  : No
  188. Forced                                   : No
  189. Text #10
  190. ID                                       : 13
  191. Format                                   : UTF-8
  192. Codec ID                                 : S_TEXT/UTF8
  193. Codec ID/Info                            : UTF-8 Plain Text
  194. Duration                                 : 1 h 49 min
  195. Bit rate                                 : 61 b/s
  196. Frame rate                               : 0.207 FPS
  197. Count of elements                        : 1364
  198. Stream size                              : 49.4 KiB (0%)
  199. Language                                 : Danish
  200. Default                                  : No
  201. Forced                                   : No
  202. Text #11
  203. ID                                       : 14
  204. Format                                   : UTF-8
  205. Codec ID                                 : S_TEXT/UTF8
  206. Codec ID/Info                            : UTF-8 Plain Text
  207. Duration                                 : 1 h 49 min
  208. Bit rate                                 : 54 b/s
  209. Frame rate                               : 0.219 FPS
  210. Count of elements                        : 1443
  211. Stream size                              : 43.7 KiB (0%)
  212. Language                                 : German
  213. Default                                  : No
  214. Forced                                   : No
  215. Text #12
  216. ID                                       : 15
  217. Format                                   : UTF-8
  218. Codec ID                                 : S_TEXT/UTF8
  219. Codec ID/Info                            : UTF-8 Plain Text
  220. Duration                                 : 1 h 49 min
  221. Bit rate                                 : 96 b/s
  222. Frame rate                               : 0.207 FPS
  223. Count of elements                        : 1364
  224. Stream size                              : 77.5 KiB (0%)
  225. Language                                 : Greek
  226. Default                                  : No
  227. Forced                                   : No
  228. Text #13
  229. ID                                       : 16
  230. Format                                   : UTF-8
  231. Codec ID                                 : S_TEXT/UTF8
  232. Codec ID/Info                            : UTF-8 Plain Text
  233. Duration                                 : 1 h 49 min
  234. Bit rate                                 : 56 b/s
  235. Frame rate                               : 0.199 FPS
  236. Count of elements                        : 1312
  237. Stream size                              : 45.6 KiB (0%)
  238. Language                                 : Finnish
  239. Default                                  : No
  240. Forced                                   : No
  241. Text #14
  242. ID                                       : 17
  243. Format                                   : UTF-8
  244. Codec ID                                 : S_TEXT/UTF8
  245. Codec ID/Info                            : UTF-8 Plain Text
  246. Duration                                 : 1 h 49 min
  247. Bit rate                                 : 58 b/s
  248. Frame rate                               : 0.201 FPS
  249. Count of elements                        : 1328
  250. Stream size                              : 46.8 KiB (0%)
  251. Language                                 : French
  252. Default                                  : No
  253. Forced                                   : No
  254. Text #15
  255. ID                                       : 18
  256. Format                                   : UTF-8
  257. Codec ID                                 : S_TEXT/UTF8
  258. Codec ID/Info                            : UTF-8 Plain Text
  259. Duration                                 : 1 h 49 min
  260. Bit rate                                 : 94 b/s
  261. Frame rate                               : 0.207 FPS
  262. Count of elements                        : 1363
  263. Stream size                              : 75.9 KiB (0%)
  264. Language                                 : Hebrew
  265. Default                                  : No
  266. Forced                                   : No
  267. Text #16
  268. ID                                       : 19
  269. Format                                   : UTF-8
  270. Codec ID                                 : S_TEXT/UTF8
  271. Codec ID/Info                            : UTF-8 Plain Text
  272. Duration                                 : 1 h 49 min
  273. Bit rate                                 : 52 b/s
  274. Frame rate                               : 0.212 FPS
  275. Count of elements                        : 1396
  276. Stream size                              : 42.1 KiB (0%)
  277. Language                                 : Croatian
  278. Default                                  : No
  279. Forced                                   : No
  280. Text #17
  281. ID                                       : 20
  282. Format                                   : UTF-8
  283. Codec ID                                 : S_TEXT/UTF8
  284. Codec ID/Info                            : UTF-8 Plain Text
  285. Duration                                 : 1 h 49 min
  286. Bit rate                                 : 59 b/s
  287. Frame rate                               : 0.206 FPS
  288. Count of elements                        : 1360
  289. Stream size                              : 47.6 KiB (0%)
  290. Language                                 : Hungarian
  291. Default                                  : No
  292. Forced                                   : No
  293. Text #18
  294. ID                                       : 21
  295. Format                                   : UTF-8
  296. Codec ID                                 : S_TEXT/UTF8
  297. Codec ID/Info                            : UTF-8 Plain Text
  298. Duration                                 : 1 h 49 min
  299. Bit rate                                 : 59 b/s
  300. Frame rate                               : 0.208 FPS
  301. Count of elements                        : 1373
  302. Stream size                              : 47.7 KiB (0%)
  303. Language                                 : Indonesian
  304. Default                                  : No
  305. Forced                                   : No
  306. Text #19
  307. ID                                       : 22
  308. Format                                   : UTF-8
  309. Codec ID                                 : S_TEXT/UTF8
  310. Codec ID/Info                            : UTF-8 Plain Text
  311. Duration                                 : 1 h 49 min
  312. Bit rate                                 : 57 b/s
  313. Frame rate                               : 0.204 FPS
  314. Count of elements                        : 1341
  315. Stream size                              : 46.2 KiB (0%)
  316. Language                                 : Italian
  317. Default                                  : No
  318. Forced                                   : No
  319. Text #20
  320. ID                                       : 23
  321. Format                                   : UTF-8
  322. Codec ID                                 : S_TEXT/UTF8
  323. Codec ID/Info                            : UTF-8 Plain Text
  324. Duration                                 : 1 h 49 min
  325. Bit rate                                 : 52 b/s
  326. Frame rate                               : 0.219 FPS
  327. Count of elements                        : 1443
  328. Stream size                              : 42.3 KiB (0%)
  329. Language                                 : Japanese
  330. Default                                  : No
  331. Forced                                   : No
  332. Text #21
  333. ID                                       : 24
  334. Format                                   : UTF-8
  335. Codec ID                                 : S_TEXT/UTF8
  336. Codec ID/Info                            : UTF-8 Plain Text
  337. Duration                                 : 1 h 49 min
  338. Bit rate                                 : 75 b/s
  339. Frame rate                               : 0.218 FPS
  340. Count of elements                        : 1440
  341. Stream size                              : 60.6 KiB (0%)
  342. Language                                 : Korean
  343. Default                                  : No
  344. Forced                                   : No
  345. Text #22
  346. ID                                       : 25
  347. Format                                   : UTF-8
  348. Codec ID                                 : S_TEXT/UTF8
  349. Codec ID/Info                            : UTF-8 Plain Text
  350. Duration                                 : 1 h 49 min
  351. Bit rate                                 : 55 b/s
  352. Frame rate                               : 0.206 FPS
  353. Count of elements                        : 1357
  354. Stream size                              : 44.7 KiB (0%)
  355. Language                                 : Malay
  356. Default                                  : No
  357. Forced                                   : No
  358. Text #23
  359. ID                                       : 26
  360. Format                                   : UTF-8
  361. Codec ID                                 : S_TEXT/UTF8
  362. Codec ID/Info                            : UTF-8 Plain Text
  363. Duration                                 : 1 h 49 min
  364. Bit rate                                 : 57 b/s
  365. Frame rate                               : 0.200 FPS
  366. Count of elements                        : 1322
  367. Stream size                              : 46.0 KiB (0%)
  368. Language                                 : Norwegian Bokmal
  369. Default                                  : No
  370. Forced                                   : No
  371. Text #24
  372. ID                                       : 27
  373. Format                                   : UTF-8
  374. Codec ID                                 : S_TEXT/UTF8
  375. Codec ID/Info                            : UTF-8 Plain Text
  376. Duration                                 : 1 h 49 min
  377. Bit rate                                 : 55 b/s
  378. Frame rate                               : 0.190 FPS
  379. Count of elements                        : 1252
  380. Stream size                              : 44.9 KiB (0%)
  381. Language                                 : Dutch
  382. Default                                  : No
  383. Forced                                   : No
  384. Text #25
  385. ID                                       : 28
  386. Format                                   : UTF-8
  387. Codec ID                                 : S_TEXT/UTF8
  388. Codec ID/Info                            : UTF-8 Plain Text
  389. Duration                                 : 1 h 49 min
  390. Bit rate                                 : 48 b/s
  391. Frame rate                               : 0.200 FPS
  392. Count of elements                        : 1320
  393. Stream size                              : 38.9 KiB (0%)
  394. Language                                 : Polish
  395. Default                                  : No
  396. Forced                                   : No
  397. Text #26
  398. ID                                       : 29
  399. Format                                   : UTF-8
  400. Codec ID                                 : S_TEXT/UTF8
  401. Codec ID/Info                            : UTF-8 Plain Text
  402. Duration                                 : 1 h 49 min
  403. Bit rate                                 : 55 b/s
  404. Frame rate                               : 0.209 FPS
  405. Count of elements                        : 1378
  406. Stream size                              : 44.9 KiB (0%)
  407. Title                                    : Brazilian
  408. Language                                 : Portuguese
  409. Default                                  : No
  410. Forced                                   : No
  411. Text #27
  412. ID                                       : 30
  413. Format                                   : UTF-8
  414. Codec ID                                 : S_TEXT/UTF8
  415. Codec ID/Info                            : UTF-8 Plain Text
  416. Duration                                 : 1 h 49 min
  417. Bit rate                                 : 56 b/s
  418. Frame rate                               : 0.205 FPS
  419. Count of elements                        : 1350
  420. Stream size                              : 45.7 KiB (0%)
  421. Language                                 : Portuguese
  422. Default                                  : No
  423. Forced                                   : No
  424. Text #28
  425. ID                                       : 31
  426. Format                                   : UTF-8
  427. Codec ID                                 : S_TEXT/UTF8
  428. Codec ID/Info                            : UTF-8 Plain Text
  429. Duration                                 : 1 h 49 min
  430. Bit rate                                 : 63 b/s
  431. Frame rate                               : 0.202 FPS
  432. Count of elements                        : 1334
  433. Stream size                              : 50.8 KiB (0%)
  434. Language                                 : Romanian
  435. Default                                  : No
  436. Forced                                   : No
  437. Text #29
  438. ID                                       : 32
  439. Format                                   : UTF-8
  440. Codec ID                                 : S_TEXT/UTF8
  441. Codec ID/Info                            : UTF-8 Plain Text
  442. Duration                                 : 1 h 49 min
  443. Bit rate                                 : 89 b/s
  444. Frame rate                               : 0.207 FPS
  445. Count of elements                        : 1364
  446. Stream size                              : 71.9 KiB (0%)
  447. Language                                 : Russian
  448. Default                                  : No
  449. Forced                                   : No
  450. Text #30
  451. ID                                       : 33
  452. Format                                   : UTF-8
  453. Codec ID                                 : S_TEXT/UTF8
  454. Codec ID/Info                            : UTF-8 Plain Text
  455. Duration                                 : 1 h 49 min
  456. Bit rate                                 : 56 b/s
  457. Frame rate                               : 0.204 FPS
  458. Count of elements                        : 1348
  459. Stream size                              : 45.8 KiB (0%)
  460. Language                                 : Swedish
  461. Default                                  : No
  462. Forced                                   : No
  463. Text #31
  464. ID                                       : 34
  465. Format                                   : UTF-8
  466. Codec ID                                 : S_TEXT/UTF8
  467. Codec ID/Info                            : UTF-8 Plain Text
  468. Duration                                 : 1 h 49 min
  469. Bit rate                                 : 157 b/s
  470. Frame rate                               : 0.255 FPS
  471. Count of elements                        : 1685
  472. Stream size                              : 127 KiB (0%)
  473. Language                                 : Thai
  474. Default                                  : No
  475. Forced                                   : No
  476. Text #32
  477. ID                                       : 35
  478. Format                                   : UTF-8
  479. Codec ID                                 : S_TEXT/UTF8
  480. Codec ID/Info                            : UTF-8 Plain Text
  481. Duration                                 : 1 h 49 min
  482. Bit rate                                 : 58 b/s
  483. Frame rate                               : 0.196 FPS
  484. Count of elements                        : 1290
  485. Stream size                              : 46.9 KiB (0%)
  486. Language                                 : Turkish
  487. Default                                  : No
  488. Forced                                   : No
  489. Text #33
  490. ID                                       : 36
  491. Format                                   : UTF-8
  492. Codec ID                                 : S_TEXT/UTF8
  493. Codec ID/Info                            : UTF-8 Plain Text
  494. Duration                                 : 1 h 45 min
  495. Bit rate                                 : 96 b/s
  496. Frame rate                               : 0.225 FPS
  497. Count of elements                        : 1428
  498. Stream size                              : 74.4 KiB (0%)
  499. Language                                 : Ukrainian
  500. Default                                  : No
  501. Forced                                   : No
  502. Text #34
  503. ID                                       : 37
  504. Format                                   : UTF-8
  505. Codec ID                                 : S_TEXT/UTF8
  506. Codec ID/Info                            : UTF-8 Plain Text
  507. Duration                                 : 1 h 49 min
  508. Bit rate                                 : 79 b/s
  509. Frame rate                               : 0.217 FPS
  510. Count of elements                        : 1433
  511. Stream size                              : 63.8 KiB (0%)
  512. Language                                 : Vietnamese
  513. Default                                  : No
  514. Forced                                   : No
  515. Text #35
  516. ID                                       : 38
  517. Format                                   : UTF-8
  518. Codec ID                                 : S_TEXT/UTF8
  519. Codec ID/Info                            : UTF-8 Plain Text
  520. Duration                                 : 1 h 49 min
  521. Bit rate                                 : 64 b/s
  522. Frame rate                               : 0.230 FPS
  523. Count of elements                        : 1516
  524. Stream size                              : 52.0 KiB (0%)
  525. Title                                    : Simplified
  526. Language                                 : Chinese
  527. Default                                  : No
  528. Forced                                   : No
  529. Text #36
  530. ID                                       : 39
  531. Format                                   : UTF-8
  532. Codec ID                                 : S_TEXT/UTF8
  533. Codec ID/Info                            : UTF-8 Plain Text
  534. Duration                                 : 1 h 49 min
  535. Bit rate                                 : 59 b/s
  536. Frame rate                               : 0.235 FPS
  537. Count of elements                        : 1548
  538. Stream size                              : 48.1 KiB (0%)
  539. Title                                    : Traditional
  540. Language                                 : Chinese
  541. Default                                  : No
  542. Forced                                   : No
  543. Menu
  544. 01:45:51.000                             : en:End Credits
复制代码




                                       
                                       

                                       
                                       
                                       




Sounds.Like.Love.2021.SPANISH.2160p.NF.WEB-DL.x265.10bit.SDR.DDP5.1.Atmos-SMURF.torrent (18.61 KB, 下载次数: 0)
回复

使用道具 举报

您需要登录后才可以回帖 登录 | 立即注册

本版积分规则

QQ|Archiver|手机版|小黑屋|蓝光电影网

GMT+8, 2023-2-2 00:06 , Processed in 0.057110 second(s), 28 queries .

Powered by Discuz! X3.4

Copyright © 2001-2020, Tencent Cloud.

快速回复 返回顶部 返回列表