找回密码
 立即注册

QQ登录

只需一步,快速开始

查看: 115|回复: 0

[其他] 风云际会 Willow.1988.2160p.WEB-DL.x265.10bit.HDR.DTS-HD.MA.5.1-NOGRP 18.09GB

[复制链接]

0

精华

0

好友

2

听众

新手上路

Rank: 2

蓝光币
5
发表于 2022-11-30 07:51:48 | 显示全部楼层 |阅读模式
[img][/img]

◎标  题 风云际会
◎译  名 小魔仙
◎片  名 Willow
◎年  代 1988
◎产  地 美国
◎类  别 剧情 / 动作 / 爱情 / 奇幻 / 冒险
◎语  言 英语
◎上映日期 1988-12-02(美国)
◎IMDb评分 7.2/10 (110819人评价)
◎IMDb链接 https://www.imdb.com/title/tt0096446/
◎豆瓣评分 6.9/10 (491人评价)
◎豆瓣链接 https://movie.douban.com/subject/1297693/
◎片  长 126 分钟
◎导  演 朗·霍华德 Ron Howard
◎编  剧 乔治·卢卡斯 George Lucas
       鲍勃·多尔曼 Bob Dolman
◎演  员 方·基默 Val Kilmer
       琼妮·威利 Joanne Whalley
       沃维克·戴维斯 Warwick Davis
       吉恩·马修 Jean Marsh
       帕特里夏·海斯 Patricia Hayes
       比利·巴蒂 Billy Barty
       帕特·罗奇 Pat Roach
       加万·奥赫利希 Gavan O'Herlihy
       菲尔·方德卡罗 Phil Fondacaro
       托尼·考克斯 Tony Cox
       凯文·波拉克 Kevin Pollak
       瑞克·欧弗顿 Rick Overton
       肯尼·贝克 Kenny Baker
       萨迪·科尔 Sadie Corre
       鲁斯迪·戈夫 Rusty Goffe
       谢丽尔·霍华德 Cheryl Howard
       大卫·西布利 David Sibley
       阿什利 C.威廉姆斯 Ashley C. Williams
       Mark Northover Mark Northover
       Mark Vande Brake Mark Vande Brake
       Joanna Dickens Joanna Dickens
       Ruth Greenfield Ruth Greenfield
       Kate Greenfield Kate Greenfield
       Edwin Alofs Edwin Alofs
       迈克尔·亨博瑞·巴尔兰 Michael Henbury Ballan
       Gerry Crampton Gerry Crampton
       Nosher Powell Nosher Powell
       杰克·普韦思 Jack Purvis
       Craig Salisbury Craig Salisbury
       乔治·卢卡斯 George Lucas
       乔·庄斯顿 Joe Johnston
       詹姆斯·霍纳 James Horner
       艾德里安·比德尔 Adrian Biddle
       迈克·希尔 Mike Hill
       丹尼尔·P·汉利 Daniel P. Hanley
       简·詹金斯 Jane Jenkins
       珍妮特·希尔森 Janet Hirshenson
       蒂姆·哈钦森 Tim Hutchinson
       金·辛克莱尔 Kim Sinclair
       托尼·里丁 Tony Reading
       马尔科姆·斯托 Malcolm Stone
       Allan Cameron Allan Cameron
       芭芭拉·莱恩 Barbara Lane
       Alan Boyle Alan Boyle
       阿曼达·奈特 Amanda Knight
       Eddie Knight Eddie Knight
       恩雅·芬奈尔 Eithne Fennel
       Tommie Manderson Tommie Manderson
       尼克·杜德曼 Nick Dudman
       史蒂文·E·安德森 Steven E. Anderson
       Trish Cohen Trish Cohen
       迈克尔·D·穆尔 Michael D. Moore
       Terry Pearce Terry Pearce
       李·克利里 Lee Cleary
       爱德华·赫希 Edward Hirsh
       克雷格·海斯 Craig Hayes
       Ned Gorman Ned Gorman
       布莱恩·格南德 Brian Gernand
       斯科特·法勒   Scott Farrar
       克里斯托弗·埃文斯 Christopher Evans
       兰迪·杜特拉 Randy Dutra
       Jay Patterson Jay Patterson
       Kim Bromley Kim Bromley
       芭芭拉·布伦南 Barbara Brennan
       Jean Bolte Jean Bolte
       汤姆·柏提诺 Tom Bertino
       克莱格·巴朗 Craig Barron
       戈登·贝克尔 Gordon Baker
       约翰·阿姆斯特朗 John Allan Armstrong
       乔恩·亚历山大 Jon Alexander
       保罗·哈特森 Paul Huston
       约翰·诺尔 John Knoll
       皮特·科扎齐克 Pete Kozachik
       约翰·埃利斯 John Ellis
       布鲁斯·沃尔特斯 Bruce Walters
       菲尔·蒂贝特 Phil Tippett
       Wes Takahashi Wes Takahashi
       Pat Sweeney Pat Sweeney
       Tom St. Amand Tom St. Amand
       斯科特·斯奎尔斯 Scott Squires
       道格拉斯·斯迈斯 Douglas Smythe
       肯尼斯·史密斯 Kenneth Smith
       托马斯·罗塞特 Thomas Rosseter
       Martin Rosenberg Martin Rosenberg
       洛尔恩·彼得森 Lorne Peterson
       朱利安·帕里 Julian Parry
       Michael Pangrazio Michael Pangrazio
       布鲁斯·尼科尔森 Bruce Nicholson
       迈克尔·J·麦卡利斯特尔 Michael J. McAlister
       布拉德·库恩 Brad Kuehn
       托马斯·J·史密斯 Thomas J. Smith
       Carolyn Ensle Rendu Carolyn Ensle Rendu
       David R. Hardberger David R. Hardberger
       戴夫·埃伦 Dave Allen
       Tony Hudson Tony Hudson
       Michael Gleason Michael Gleason
       斯科特·罗斯 Scott Ross
       约翰·T·范弗利特 John T. Van Vliet
       Blair Clark Blair Clark
       丹尼斯·穆伦 Dennis Muren
◎简  介

  本片描述的是在黑暗的中世纪,女王巴夫莫达听说一个即将诞生的女婴会在将来推翻她的统治成为王位的合法继承人,于是下令将王国内所有的怀孕妇女全部处死。同一时间,一个叫达南的刚出生女婴被送到了木筏上顺流而下,矮小的内尔温族人威洛(沃维克•戴维斯 Warwick Davis 饰)将她救了起来。威洛想将达南送归戴基尼人,于是带着她上路了。巴夫莫达女王得知消息后派出索莎公主和凯尔将军前往抓捕威洛他们。达南最终命运如何,她是否就是那位将来会推翻巴夫莫达统治的人?
  1. Video
  2. ID                                       : 1
  3. Format                                   : HEVC
  4. Format/Info                              : High Efficiency Video Coding
  5. Format profile                           : Main [email protected]@High
  6. HDR format                               : SMPTE ST 2086, HDR10 compatible
  7. Codec ID                                 : V_MPEGH/ISO/HEVC
  8. Duration                                 : 2 h 5 min
  9. Bit rate                                 : 15.6 Mb/s
  10. Width                                    : 3 840 pixels
  11. Height                                   : 2 160 pixels
  12. Display aspect ratio                     : 16:9
  13. Frame rate mode                          : Constant
  14. Frame rate                               : 23.976 (24000/1001/189150) FPS
  15. Color space                              : YUV
  16. Chroma subsampling                       : 4:2:0
  17. Bit depth                                : 10 bits
  18. Bits/(Pixel*Frame)                       : 0.078
  19. Stream size                              : 13.7 GiB (76%)
  20. Default                                  : Yes
  21. Forced                                   : No
  22. Color range                              : Limited
  23. Color primaries                          : BT.2020
  24. Transfer characteristics                 : PQ
  25. Matrix coefficients                      : BT.2020 non-constant
  26. Mastering display color primaries        : Display P3
  27. Mastering display luminance              : min: 0.0010 cd/m2, max: 1000 cd/m2
  28. Audio #1
  29. ID                                       : 2
  30. Format                                   : DTS XLL
  31. Format/Info                              : Digital Theater Systems
  32. Commercial name                          : DTS-HD Master Audio
  33. Codec ID                                 : A_DTS
  34. Duration                                 : 2 h 5 min
  35. Bit rate mode                            : Variable
  36. Bit rate                                 : 4 089 kb/s
  37. Channel(s)                               : 6 channels
  38. Channel layout                           : C L R Ls Rs LFE
  39. Sampling rate                            : 48.0 kHz
  40. Frame rate                               : 93.750 FPS (512 SPF)
  41. Bit depth                                : 24 bits
  42. Compression mode                         : Lossless
  43. Delay relative to video                  : 6 ms
  44. Stream size                              : 3.60 GiB (20%)
  45. Title                                    : DTS-HD MA 5.1
  46. Language                                 : English
  47. Default                                  : Yes
  48. Forced                                   : No
  49. Audio #2
  50. ID                                       : 3
  51. Format                                   : AC-3
  52. Format/Info                              : Audio Coding 3
  53. Commercial name                          : Dolby Digital
  54. Codec ID                                 : A_AC3
  55. Duration                                 : 2 h 5 min
  56. Bit rate mode                            : Constant
  57. Bit rate                                 : 640 kb/s
  58. Channel(s)                               : 6 channels
  59. Channel layout                           : L R C LFE Ls Rs
  60. Sampling rate                            : 48.0 kHz
  61. Frame rate                               : 31.250 FPS (1536 SPF)
  62. Compression mode                         : Lossy
  63. Delay relative to video                  : 28 ms
  64. Stream size                              : 576 MiB (3%)
  65. Title                                    : DD 5.1
  66. Language                                 : English
  67. Service kind                             : Complete Main
  68. Default                                  : No
  69. Forced                                   : No
  70. Audio #3
  71. ID                                       : 4
  72. Format                                   : AC-3
  73. Format/Info                              : Audio Coding 3
  74. Commercial name                          : Dolby Digital
  75. Codec ID                                 : A_AC3
  76. Duration                                 : 2 h 5 min
  77. Bit rate mode                            : Constant
  78. Bit rate                                 : 192 kb/s
  79. Channel(s)                               : 2 channels
  80. Channel layout                           : L R
  81. Sampling rate                            : 48.0 kHz
  82. Frame rate                               : 31.250 FPS (1536 SPF)
  83. Compression mode                         : Lossy
  84. Stream size                              : 173 MiB (1%)
  85. Title                                    : Commentary by actor Warwick Davis
  86. Language                                 : English
  87. Service kind                             : Complete Main
  88. Default                                  : No
  89. Forced                                   : No
  90. Text #1
  91. ID                                       : 5
  92. Format                                   : UTF-8
  93. Codec ID                                 : S_TEXT/UTF8
  94. Codec ID/Info                            : UTF-8 Plain Text
  95. Duration                                 : 1 h 59 min
  96. Bit rate                                 : 36 b/s
  97. Frame rate                               : 0.160 FPS
  98. Count of elements                        : 1152
  99. Stream size                              : 31.8 KiB (0%)
  100. Language                                 : English
  101. Default                                  : No
  102. Forced                                   : No
  103. Text #2
  104. ID                                       : 6
  105. Format                                   : UTF-8
  106. Codec ID                                 : S_TEXT/UTF8
  107. Codec ID/Info                            : UTF-8 Plain Text
  108. Duration                                 : 2 h 0 min
  109. Bit rate                                 : 46 b/s
  110. Frame rate                               : 0.214 FPS
  111. Count of elements                        : 1547
  112. Stream size                              : 40.6 KiB (0%)
  113. Title                                    : SDH
  114. Language                                 : English
  115. Default                                  : No
  116. Forced                                   : No
  117. Text #3
  118. ID                                       : 7
  119. Format                                   : PGS
  120. Muxing mode                              : zlib
  121. Codec ID                                 : S_HDMV/PGS
  122. Codec ID/Info                            : Picture based subtitle format used on BDs/HD-DVDs
  123. Duration                                 : 2 h 4 min
  124. Bit rate                                 : 61.5 kb/s
  125. Frame rate                               : 0.552 FPS
  126. Count of elements                        : 4106
  127. Stream size                              : 54.5 MiB (0%)
  128. Title                                    : Commentary by actor Warwick Davis
  129. Language                                 : English
  130. Default                                  : No
  131. Forced                                   : No
  132. Text #4
  133. ID                                       : 8
  134. Format                                   : PGS
  135. Muxing mode                              : zlib
  136. Codec ID                                 : S_HDMV/PGS
  137. Codec ID/Info                            : Picture based subtitle format used on BDs/HD-DVDs
  138. Duration                                 : 2 h 0 min
  139. Bit rate                                 : 48.5 kb/s
  140. Frame rate                               : 0.370 FPS
  141. Count of elements                        : 2666
  142. Stream size                              : 41.7 MiB (0%)
  143. Language                                 : English
  144. Default                                  : No
  145. Forced                                   : No
  146. Text #5
  147. ID                                       : 9
  148. Format                                   : UTF-8
  149. Codec ID                                 : S_TEXT/UTF8
  150. Codec ID/Info                            : UTF-8 Plain Text
  151. Duration                                 : 1 h 59 min
  152. Bit rate                                 : 33 b/s
  153. Frame rate                               : 0.185 FPS
  154. Count of elements                        : 1324
  155. Stream size                              : 29.1 KiB (0%)
  156. Language                                 : Czech
  157. Default                                  : No
  158. Forced                                   : No
  159. Text #6
  160. ID                                       : 10
  161. Format                                   : UTF-8
  162. Codec ID                                 : S_TEXT/UTF8
  163. Codec ID/Info                            : UTF-8 Plain Text
  164. Duration                                 : 2 h 5 min
  165. Bit rate                                 : 35 b/s
  166. Frame rate                               : 0.137 FPS
  167. Count of elements                        : 1030
  168. Stream size                              : 32.3 KiB (0%)
  169. Language                                 : Danish
  170. Default                                  : No
  171. Forced                                   : No
  172. Text #7
  173. ID                                       : 11
  174. Format                                   : UTF-8
  175. Codec ID                                 : S_TEXT/UTF8
  176. Codec ID/Info                            : UTF-8 Plain Text
  177. Duration                                 : 2 h 0 min
  178. Bit rate                                 : 43 b/s
  179. Frame rate                               : 0.155 FPS
  180. Count of elements                        : 1118
  181. Stream size                              : 38.6 KiB (0%)
  182. Language                                 : German
  183. Default                                  : No
  184. Forced                                   : No
  185. Text #8
  186. ID                                       : 12
  187. Format                                   : UTF-8
  188. Codec ID                                 : S_TEXT/UTF8
  189. Codec ID/Info                            : UTF-8 Plain Text
  190. Duration                                 : 2 h 0 min
  191. Bit rate                                 : 65 b/s
  192. Frame rate                               : 0.188 FPS
  193. Count of elements                        : 1354
  194. Stream size                              : 57.6 KiB (0%)
  195. Language                                 : Greek
  196. Default                                  : No
  197. Forced                                   : No
  198. Text #9
  199. ID                                       : 13
  200. Format                                   : UTF-8
  201. Codec ID                                 : S_TEXT/UTF8
  202. Codec ID/Info                            : UTF-8 Plain Text
  203. Duration                                 : 2 h 5 min
  204. Bit rate                                 : 35 b/s
  205. Frame rate                               : 0.140 FPS
  206. Count of elements                        : 1051
  207. Stream size                              : 32.5 KiB (0%)
  208. Title                                    : Spanish (Latin America)
  209. Language                                 : Spanish
  210. Default                                  : No
  211. Forced                                   : No
  212. Text #10
  213. ID                                       : 14
  214. Format                                   : UTF-8
  215. Codec ID                                 : S_TEXT/UTF8
  216. Codec ID/Info                            : UTF-8 Plain Text
  217. Duration                                 : 2 h 5 min
  218. Bit rate                                 : 36 b/s
  219. Frame rate                               : 0.139 FPS
  220. Count of elements                        : 1044
  221. Stream size                              : 33.5 KiB (0%)
  222. Title                                    : Spanish (Spain)
  223. Language                                 : Spanish
  224. Default                                  : No
  225. Forced                                   : No
  226. Text #11
  227. ID                                       : 15
  228. Format                                   : UTF-8
  229. Codec ID                                 : S_TEXT/UTF8
  230. Codec ID/Info                            : UTF-8 Plain Text
  231. Duration                                 : 2 h 5 min
  232. Bit rate                                 : 32 b/s
  233. Frame rate                               : 0.139 FPS
  234. Count of elements                        : 1047
  235. Stream size                              : 29.5 KiB (0%)
  236. Language                                 : Finnish
  237. Default                                  : No
  238. Forced                                   : No
  239. Text #12
  240. ID                                       : 16
  241. Format                                   : UTF-8
  242. Codec ID                                 : S_TEXT/UTF8
  243. Codec ID/Info                            : UTF-8 Plain Text
  244. Duration                                 : 2 h 5 min
  245. Bit rate                                 : 38 b/s
  246. Frame rate                               : 0.140 FPS
  247. Count of elements                        : 1050
  248. Stream size                              : 35.6 KiB (0%)
  249. Language                                 : French
  250. Default                                  : No
  251. Forced                                   : No
  252. Text #13
  253. ID                                       : 17
  254. Format                                   : UTF-8
  255. Codec ID                                 : S_TEXT/UTF8
  256. Codec ID/Info                            : UTF-8 Plain Text
  257. Duration                                 : 2 h 0 min
  258. Bit rate                                 : 35 b/s
  259. Frame rate                               : 0.189 FPS
  260. Count of elements                        : 1359
  261. Stream size                              : 31.2 KiB (0%)
  262. Language                                 : Hungarian
  263. Default                                  : No
  264. Forced                                   : No
  265. Text #14
  266. ID                                       : 18
  267. Format                                   : UTF-8
  268. Codec ID                                 : S_TEXT/UTF8
  269. Codec ID/Info                            : UTF-8 Plain Text
  270. Duration                                 : 2 h 5 min
  271. Bit rate                                 : 36 b/s
  272. Frame rate                               : 0.138 FPS
  273. Count of elements                        : 1042
  274. Stream size                              : 33.1 KiB (0%)
  275. Language                                 : Italian
  276. Default                                  : No
  277. Forced                                   : No
  278. Text #15
  279. ID                                       : 19
  280. Format                                   : UTF-8
  281. Codec ID                                 : S_TEXT/UTF8
  282. Codec ID/Info                            : UTF-8 Plain Text
  283. Duration                                 : 2 h 5 min
  284. Bit rate                                 : 26 b/s
  285. Frame rate                               : 0.132 FPS
  286. Count of elements                        : 991
  287. Stream size                              : 24.3 KiB (0%)
  288. Language                                 : Japanese
  289. Default                                  : No
  290. Forced                                   : No
  291. Text #16
  292. ID                                       : 20
  293. Format                                   : UTF-8
  294. Codec ID                                 : S_TEXT/UTF8
  295. Codec ID/Info                            : UTF-8 Plain Text
  296. Duration                                 : 2 h 4 min
  297. Bit rate                                 : 40 b/s
  298. Frame rate                               : 0.154 FPS
  299. Count of elements                        : 1149
  300. Stream size                              : 37.3 KiB (0%)
  301. Language                                 : Korean
  302. Default                                  : No
  303. Forced                                   : No
  304. Text #17
  305. ID                                       : 21
  306. Format                                   : UTF-8
  307. Codec ID                                 : S_TEXT/UTF8
  308. Codec ID/Info                            : UTF-8 Plain Text
  309. Duration                                 : 2 h 5 min
  310. Bit rate                                 : 31 b/s
  311. Frame rate                               : 0.139 FPS
  312. Count of elements                        : 1045
  313. Stream size                              : 28.9 KiB (0%)
  314. Language                                 : Dutch
  315. Default                                  : No
  316. Forced                                   : No
  317. Text #18
  318. ID                                       : 22
  319. Format                                   : UTF-8
  320. Codec ID                                 : S_TEXT/UTF8
  321. Codec ID/Info                            : UTF-8 Plain Text
  322. Duration                                 : 2 h 5 min
  323. Bit rate                                 : 30 b/s
  324. Frame rate                               : 0.139 FPS
  325. Count of elements                        : 1049
  326. Stream size                              : 28.3 KiB (0%)
  327. Language                                 : Norwegian
  328. Default                                  : No
  329. Forced                                   : No
  330. Text #19
  331. ID                                       : 23
  332. Format                                   : UTF-8
  333. Codec ID                                 : S_TEXT/UTF8
  334. Codec ID/Info                            : UTF-8 Plain Text
  335. Duration                                 : 2 h 0 min
  336. Bit rate                                 : 35 b/s
  337. Frame rate                               : 0.166 FPS
  338. Count of elements                        : 1199
  339. Stream size                              : 31.0 KiB (0%)
  340. Language                                 : Polish
  341. Default                                  : No
  342. Forced                                   : No
  343. Text #20
  344. ID                                       : 24
  345. Format                                   : UTF-8
  346. Codec ID                                 : S_TEXT/UTF8
  347. Codec ID/Info                            : UTF-8 Plain Text
  348. Duration                                 : 2 h 0 min
  349. Bit rate                                 : 36 b/s
  350. Frame rate                               : 0.145 FPS
  351. Count of elements                        : 1047
  352. Stream size                              : 31.9 KiB (0%)
  353. Title                                    : Portuguese (Brazil)
  354. Language                                 : Portuguese
  355. Default                                  : No
  356. Forced                                   : No
  357. Text #21
  358. ID                                       : 25
  359. Format                                   : UTF-8
  360. Codec ID                                 : S_TEXT/UTF8
  361. Codec ID/Info                            : UTF-8 Plain Text
  362. Duration                                 : 2 h 5 min
  363. Bit rate                                 : 33 b/s
  364. Frame rate                               : 0.154 FPS
  365. Count of elements                        : 1159
  366. Stream size                              : 31.0 KiB (0%)
  367. Title                                    : Portuguese (Portugal)
  368. Language                                 : Portuguese
  369. Default                                  : No
  370. Forced                                   : No
  371. Text #22
  372. ID                                       : 26
  373. Format                                   : UTF-8
  374. Codec ID                                 : S_TEXT/UTF8
  375. Codec ID/Info                            : UTF-8 Plain Text
  376. Duration                                 : 2 h 0 min
  377. Bit
复制代码




                                       
                                       

                                       
                                       
                                       




Willow.1988.2160p.WEB-DL.x265.10bit.HDR.DTS-HD.MA.5.1-NOGRP.torrent (23.25 KB, 下载次数: 0)
回复

使用道具 举报

您需要登录后才可以回帖 登录 | 立即注册

本版积分规则

QQ|Archiver|手机版|小黑屋|蓝光电影网

GMT+8, 2023-2-1 22:55 , Processed in 0.083183 second(s), 28 queries .

Powered by Discuz! X3.4

Copyright © 2001-2020, Tencent Cloud.

快速回复 返回顶部 返回列表