找回密码
 立即注册

QQ登录

只需一步,快速开始

查看: 95|回复: 0

[其他] 泳舞姐妹 The.Swimmers.2022.2160p.NF.WEB-DL.DDP5.1.Atmos.DV.MP4.x265-DVSUX 15.52GB

[复制链接]

0

精华

0

好友

2

听众

新手上路

Rank: 2

蓝光币
5
发表于 2022-11-30 07:51:45 | 显示全部楼层 |阅读模式
[img][/img]

◎标  题 泳舞姐妹
◎译  名 力争上游姊妹花(港) / 泳出新生(台) / 游泳姐妹花
◎片  名 The Swimmers
◎年  代 2022
◎产  地 英国 / 美国
◎类  别 剧情 / 传记 / 运动
◎语  言 英语 / 阿拉伯语
◎上映日期 2022-09-08(多伦多电影节) / 2022-11-23(美国网络)
◎IMDb评分 7.6/10 (165人评价)
◎IMDb链接 https://www.imdb.com/title/tt8745676/
◎豆瓣链接 https://movie.douban.com/subject/35320781/
◎片  长 134分钟
◎导  演 莎莉·埃尔·霍赛尼 Sally El Hosaini
◎编  剧 莎莉·埃尔·霍赛尼 Sally El Hosaini
       杰克·索恩 Jack Thorne
◎演  员 马纳尔·伊萨 Manal Issa
       娜塔莉·伊萨 Nathalie Issa  
       马提亚斯·施维赫夫 Matthias Schweighöfer
       詹姆斯·弗洛伊德 James Floyd
       阿里·苏莱曼 Ali Suliman
       艾哈迈德·马利克 Ahmed Malek
       阿尔弗雷多·塔瓦雷斯 Alfredo Tavares
       金达·阿洛什 Kinda Alloush
       丹尼尔·厄根 Daniel Eghan
       罗德里克·希尔 Roderick Hill
       埃勒米·拉希德·埃勒米 Elmi Rashid Elmi
       伊莎贝尔·伊迪 Isobel Eadie
       苏菲-乔·比曼 Sophie-Jo Beman
◎简  介

  本片讲述了两位热爱游泳的叙利亚姐妹,从饱受战争蹂躏的国土到2016年里约奥运会的路途中经历的苦痛与辛酸。
  1. Video
  2. ID                                       : 1
  3. Format                                   : HEVC
  4. Format/Info                              : High Efficiency Video Coding
  5. Format profile                           : Main [email protected]@Main
  6. HDR format                               : Dolby Vision, Version 1.0, dvhe.05.06, BL+RPU
  7. Codec ID                                 : dvhe
  8. Codec ID/Info                            : High Efficiency Video Coding with Dolby Vision
  9. Duration                                 : 2 h 15 min
  10. Bit rate                                 : 15.6 Mb/s
  11. Width                                    : 3 840 pixels
  12. Height                                   : 2 160 pixels
  13. Display aspect ratio                     : 16:9
  14. Frame rate mode                          : Constant
  15. Frame rate                               : 24.000 FPS
  16. Color space                              : YUV
  17. Chroma subsampling                       : 4:2:0
  18. Bit depth                                : 10 bits
  19. Bits/(Pixel*Frame)                       : 0.078
  20. Stream size                              : 14.8 GiB (95%)
  21. Default                                  : Yes
  22. Alternate group                          : 1
  23. Encoded date                             : UTC 2022-11-29 10:17:16
  24. Tagged date                              : UTC 2022-11-29 10:20:27
  25. Color range                              : Full
  26. Codec configuration box                  : hvcC+dvcC
  27. Audio
  28. ID                                       : 2
  29. Format                                   : E-AC-3 JOC
  30. Format/Info                              : Enhanced AC-3 with Joint Object Coding
  31. Commercial name                          : Dolby Digital Plus with Dolby Atmos
  32. Codec ID                                 : ec-3
  33. Duration                                 : 2 h 15 min
  34. Bit rate mode                            : Constant
  35. Bit rate                                 : 768 kb/s
  36. Maximum bit rate                         : 811 kb/s
  37. Channel(s)                               : 6 channels
  38. Channel layout                           : L R C LFE Ls Rs
  39. Sampling rate                            : 48.0 kHz
  40. Frame rate                               : 31.250 FPS (1536 SPF)
  41. Compression mode                         : Lossy
  42. Stream size                              : 745 MiB (5%)
  43. Title                                    : English
  44. Language                                 : English
  45. Service kind                             : Complete Main
  46. Default                                  : Yes
  47. Alternate group                          : 1
  48. Tagged date                              : UTC 2022-11-29 10:20:27
  49. Complexity index                         : Not present / 16
  50. Number of dynamic objects                : 15
  51. Bed channel count                        : 1 channel
  52. Bed channel configuration                : LFE
  53. Text #1
  54. ID                                       : 3
  55. Format                                   : Timed Text
  56. Codec ID                                 : tx3g
  57. Duration                                 : 1 h 59 min
  58. Bit rate mode                            : Variable
  59. Bit rate                                 : 17 b/s
  60. Frame rate                               : 0.109 FPS
  61. Stream size                              : 14.7 KiB (0%)
  62. Title                                    : English
  63. Language                                 : English
  64. Forced                                   : No
  65. Encoded date                             : UTC 2022-11-29 10:20:24
  66. Tagged date                              : UTC 2022-11-29 10:20:27
  67. Text #2
  68. ID                                       : 4
  69. Format                                   : Timed Text
  70. Codec ID                                 : tx3g
  71. Duration                                 : 2 h 6 min
  72. Bit rate mode                            : Variable
  73. Bit rate                                 : 55 b/s
  74. Frame rate                               : 0.368 FPS
  75. Stream size                              : 51.3 KiB (0%)
  76. Title                                    : English
  77. Language                                 : English
  78. Forced                                   : No
  79. Encoded date                             : UTC 2022-11-29 10:20:24
  80. Tagged date                              : UTC 2022-11-29 10:20:27
  81. Text #3
  82. ID                                       : 5
  83. Format                                   : Timed Text
  84. Codec ID                                 : tx3g
  85. Duration                                 : 2 h 13 min
  86. Bit rate mode                            : Variable
  87. Bit rate                                 : 72 b/s
  88. Frame rate                               : 0.464 FPS
  89. Stream size                              : 70.9 KiB (0%)
  90. Title                                    : English
  91. Language                                 : English
  92. Forced                                   : No
  93. Encoded date                             : UTC 2022-11-29 10:20:24
  94. Tagged date                              : UTC 2022-11-29 10:20:27
  95. Text #4
  96. ID                                       : 6
  97. Format                                   : Timed Text
  98. Codec ID                                 : tx3g
  99. Duration                                 : 2 h 13 min
  100. Bit rate mode                            : Variable
  101. Bit rate                                 : 85 b/s
  102. Frame rate                               : 0.355 FPS
  103. Stream size                              : 83.3 KiB (0%)
  104. Title                                    : Arabic
  105. Language                                 : Arabic
  106. Forced                                   : No
  107. Encoded date                             : UTC 2022-11-29 10:20:24
  108. Tagged date                              : UTC 2022-11-29 10:20:27
  109. Text #5
  110. ID                                       : 7
  111. Format                                   : Timed Text
  112. Codec ID                                 : tx3g
  113. Duration                                 : 2 h 13 min
  114. Bit rate mode                            : Variable
  115. Bit rate                                 : 52 b/s
  116. Frame rate                               : 0.347 FPS
  117. Stream size                              : 51.3 KiB (0%)
  118. Title                                    : Chinese-Simplified
  119. Language                                 : Chinese
  120. Forced                                   : No
  121. Encoded date                             : UTC 2022-11-29 10:20:25
  122. Tagged date                              : UTC 2022-11-29 10:20:27
  123. Text #6
  124. ID                                       : 8
  125. Format                                   : Timed Text
  126. Codec ID                                 : tx3g
  127. Duration                                 : 2 h 13 min
  128. Bit rate mode                            : Variable
  129. Bit rate                                 : 52 b/s
  130. Frame rate                               : 0.378 FPS
  131. Stream size                              : 50.8 KiB (0%)
  132. Title                                    : Chinese-Traditional
  133. Language                                 : Chinese
  134. Forced                                   : No
  135. Encoded date                             : UTC 2022-11-29 10:20:25
  136. Tagged date                              : UTC 2022-11-29 10:20:27
  137. Text #7
  138. ID                                       : 9
  139. Format                                   : Timed Text
  140. Codec ID                                 : tx3g
  141. Duration                                 : 2 h 13 min
  142. Bit rate mode                            : Variable
  143. Bit rate                                 : 47 b/s
  144. Frame rate                               : 0.343 FPS
  145. Stream size                              : 45.8 KiB (0%)
  146. Title                                    : Croatian
  147. Language                                 : Croatian
  148. Forced                                   : No
  149. Encoded date                             : UTC 2022-11-29 10:20:25
  150. Tagged date                              : UTC 2022-11-29 10:20:27
  151. Text #8
  152. ID                                       : 10
  153. Format                                   : Timed Text
  154. Codec ID                                 : tx3g
  155. Duration                                 : 2 h 13 min
  156. Bit rate mode                            : Variable
  157. Bit rate                                 : 51 b/s
  158. Frame rate                               : 0.342 FPS
  159. Stream size                              : 49.8 KiB (0%)
  160. Title                                    : Czech
  161. Language                                 : Czech
  162. Forced                                   : No
  163. Encoded date                             : UTC 2022-11-29 10:20:25
  164. Tagged date                              : UTC 2022-11-29 10:20:27
  165. Text #9
  166. ID                                       : 11
  167. Format                                   : Timed Text
  168. Codec ID                                 : tx3g
  169. Duration                                 : 2 h 13 min
  170. Bit rate mode                            : Variable
  171. Bit rate                                 : 49 b/s
  172. Frame rate                               : 0.332 FPS
  173. Stream size                              : 47.8 KiB (0%)
  174. Title                                    : Danish
  175. Language                                 : Danish
  176. Forced                                   : No
  177. Encoded date                             : UTC 2022-11-29 10:20:25
  178. Tagged date                              : UTC 2022-11-29 10:20:27
  179. Text #10
  180. ID                                       : 12
  181. Format                                   : Timed Text
  182. Codec ID                                 : tx3g
  183. Duration                                 : 2 h 13 min
  184. Bit rate mode                            : Variable
  185. Bit rate                                 : 48 b/s
  186. Frame rate                               : 0.340 FPS
  187. Stream size                              : 46.8 KiB (0%)
  188. Title                                    : Dutch
  189. Language                                 : Dutch
  190. Forced                                   : No
  191. Encoded date                             : UTC 2022-11-29 10:20:25
  192. Tagged date                              : UTC 2022-11-29 10:20:27
  193. Text #11
  194. ID                                       : 13
  195. Format                                   : Timed Text
  196. Codec ID                                 : tx3g
  197. Duration                                 : 2 h 13 min
  198. Bit rate mode                            : Variable
  199. Bit rate                                 : 56 b/s
  200. Frame rate                               : 0.345 FPS
  201. Stream size                              : 54.8 KiB (0%)
  202. Title                                    : Filipino
  203. Language                                 : fil
  204. Forced                                   : No
  205. Encoded date                             : UTC 2022-11-29 10:20:25
  206. Tagged date                              : UTC 2022-11-29 10:20:27
  207. Text #12
  208. ID                                       : 14
  209. Format                                   : Timed Text
  210. Codec ID                                 : tx3g
  211. Duration                                 : 2 h 13 min
  212. Bit rate mode                            : Variable
  213. Bit rate                                 : 44 b/s
  214. Frame rate                               : 0.281 FPS
  215. Stream size                              : 43.5 KiB (0%)
  216. Title                                    : Finnish
  217. Language                                 : Finnish
  218. Forced                                   : No
  219. Encoded date                             : UTC 2022-11-29 10:20:25
  220. Tagged date                              : UTC 2022-11-29 10:20:27
  221. Text #13
  222. ID                                       : 15
  223. Format                                   : Timed Text
  224. Codec ID                                 : tx3g
  225. Duration                                 : 2 h 13 min
  226. Bit rate mode                            : Variable
  227. Bit rate                                 : 51 b/s
  228. Frame rate                               : 0.332 FPS
  229. Stream size                              : 49.8 KiB (0%)
  230. Title                                    : French
  231. Language                                 : French
  232. Forced                                   : No
  233. Encoded date                             : UTC 2022-11-29 10:20:25
  234. Tagged date                              : UTC 2022-11-29 10:20:27
  235. Text #14
  236. ID                                       : 16
  237. Format                                   : Timed Text
  238. Codec ID                                 : tx3g
  239. Duration                                 : 2 h 8 min
  240. Bit rate mode                            : Variable
  241. Bit rate                                 : 53 b/s
  242. Frame rate                               : 0.351 FPS
  243. Stream size                              : 49.7 KiB (0%)
  244. Title                                    : German
  245. Language                                 : German
  246. Forced                                   : No
  247. Encoded date                             : UTC 2022-11-29 10:20:25
  248. Tagged date                              : UTC 2022-11-29 10:20:27
  249. Text #15
  250. ID                                       : 17
  251. Format                                   : Timed Text
  252. Codec ID                                 : tx3g
  253. Duration                                 : 2 h 13 min
  254. Bit rate mode                            : Variable
  255. Bit rate                                 : 81 b/s
  256. Frame rate                               : 0.346 FPS
  257. Stream size                              : 79.8 KiB (0%)
  258. Title                                    : Greek
  259. Language                                 : Greek
  260. Forced                                   : No
  261. Encoded date                             : UTC 2022-11-29 10:20:25
  262. Tagged date                              : UTC 2022-11-29 10:20:27
  263. Text #16
  264. ID                                       : 18
  265. Format                                   : Timed Text
  266. Codec ID                                 : tx3g
  267. Duration                                 : 2 h 13 min
  268. Bit rate mode                            : Variable
  269. Bit rate                                 : 76 b/s
  270. Frame rate                               : 0.349 FPS
  271. Stream size                              : 74.8 KiB (0%)
  272. Title                                    : Hebrew
  273. Language                                 : Hebrew
  274. Forced                                   : No
  275. Encoded date                             : UTC 2022-11-29 10:20:25
  276. Tagged date                              : UTC 2022-11-29 10:20:27
  277. Text #17
  278. ID                                       : 19
  279. Format                                   : Timed Text
  280. Codec ID                                 : tx3g
  281. Duration                                 : 2 h 13 min
  282. Bit rate mode                            : Variable
  283. Bit rate                                 : 52 b/s
  284. Frame rate                               : 0.337 FPS
  285. Stream size                              : 51.2 KiB (0%)
  286. Title                                    : Hungarian
  287. Language                                 : Hungarian
  288. Forced                                   : No
  289. Encoded date                             : UTC 2022-11-29 10:20:25
  290. Tagged date                              : UTC 2022-11-29 10:20:27
  291. Text #18
  292. ID                                       : 20
  293. Format                                   : Timed Text
  294. Codec ID                                 : tx3g
  295. Duration                                 : 2 h 13 min
  296. Bit rate mode                            : Variable
  297. Bit rate                                 : 51 b/s
  298. Frame rate                               : 0.348 FPS
  299. Stream size                              : 50.0 KiB (0%)
  300. Title                                    : Indonesian
  301. Language                                 : Indonesian
  302. Forced                                   : No
  303. Encoded date                             : UTC 2022-11-29 10:20:25
  304. Tagged date                              : UTC 2022-11-29 10:20:27
  305. Text #19
  306. ID                                       : 21
  307. Format                                   : Timed Text
  308. Codec ID                                 : tx3g
  309. Duration                                 : 2 h 13 min
  310. Bit rate mode                            : Variable
  311. Bit rate                                 : 50 b/s
  312. Frame rate                               : 0.348 FPS
  313. Stream size                              : 48.7 KiB (0%)
  314. Title                                    : Italian
  315. Language                                 : Italian
  316. Forced                                   : No
  317. Encoded date                             : UTC 2022-11-29 10:20:26
  318. Tagged date                              : UTC 2022-11-29 10:20:27
  319. Text #20
  320. ID                                       : 22
  321. Format                                   : Timed Text
  322. Codec ID                                 : tx3g
  323. Duration                                 : 2 h 13 min
  324. Bit rate mode                            : Variable
  325. Bit rate                                 : 48 b/s
  326. Frame rate                               : 0.358 FPS
  327. Stream size                              : 46.8 KiB (0%)
  328. Title                                    : Japanese
  329. Language                                 : Japanese
  330. Forced                                   : No
  331. Encoded date                             : UTC 2022-11-29 10:20:26
  332. Tagged date                              : UTC 2022-11-29 10:20:27
  333. Text #21
  334. ID                                       : 23
  335. Format                                   : Timed Text
  336. Codec ID                                 : tx3g
  337. Duration                                 : 2 h 13 min
  338. Bit rate mode                            : Variable
  339. Bit rate                                 : 61 b/s
  340. Frame rate                               : 0.388 FPS
  341. Stream size                              : 59.9 KiB (0%)
  342. Title                                    : Korean
  343. Language                                 : Korean
  344. Forced                                   : No
  345. Encoded date                             : UTC 2022-11-29 10:20:26
  346. Tagged date                              : UTC 2022-11-29 10:20:27
  347. Text #22
  348. ID                                       : 24
  349. Format                                   : Timed Text
  350. Codec ID                                 : tx3g
  351. Duration                                 : 2 h 13 min
  352. Bit rate mode                            : Variable
  353. Bit rate                                 : 52 b/s
  354. Frame rate                               : 0.349 FPS
  355. Stream size                              : 51.0 KiB (0%)
  356. Title                                    : Malay
  357. Language                                 : Malay
  358. Forced                                   : No
  359. Encoded date                             : UTC 2022-11-29 10:20:26
  360. Tagged date                              : UTC 2022-11-29 10:20:27
  361. Text #23
  362. ID                                       : 25
  363. Format                                   : Timed Text
  364. Codec ID                                 : tx3g
  365. Duration                                 : 2 h 13 min
  366. Bit rate mode                            : Variable
  367. Bit rate                                 : 49 b/s
  368. Frame rate                               : 0.324 FPS
  369. Stream size                              : 47.6 KiB (0%)
  370. Title                                    : Norwegian
  371. Language                                 : Norwegian Bokmal
  372. Forced                                   : No
  373. Encoded date                             : UTC 2022-11-29 10:20:26
  374. Tagged date                              : UTC 2022-11-29 10:20:27
  375. Text #24
  376. ID                                       : 26
  377. Format                                   : Timed Text
  378. Codec ID                                 : tx3g
  379. Duration                                 : 2 h 13 min
  380. Bit rate mode                            : Variable
  381. Bit rate                                 : 47 b/s
  382. Frame rate                               : 0.348 FPS
  383. Stream size                              : 46.2 KiB (0%)
  384. Title                                    : Polish
  385. Language                                 : Polish
  386. Forced                                   : No
  387. Encoded date                             : UTC 2022-11-29 10:20:26
  388. Tagged date                              : UTC 2022-11-29 10:20:27
  389. Text #25
  390. ID                                       : 27
  391. Format                                   : Timed Text
  392. Codec ID                                 : tx3g
  393. Duration                                 : 2 h 13 min
  394. Bit rate mode                            : Variable
  395. Bit rate                                 : 51 b/s
  396. Frame rate                               : 0.342 FPS
  397. Stream size                              : 49.8 KiB (0%)
  398. Title                                    : Portuguese
  399. Language                                 : Portuguese
  400. Forced                                   : No
  401. Encoded date                             : UTC 2022-11-29 10:20:26
  402. Tagged date                              : UTC 2022-11-29 10:20:27
  403. Text #26
  404. ID                                       : 28
  405. Format                                   : Timed Text
  406. Codec ID                                 : tx3g
  407. Duration                                 : 2 h 13 min
  408. Bit rate mode                            : Variable
  409. Bit rate                                 : 79 b/s
  410. Frame rate                               : 0.496 FPS
  411. Stream size                              : 77.4 KiB (0%)
  412. Title                                    : Portuguese-BR
  413. Language                                 : Portuguese
  414. Forced                                   : No
  415. Encoded date                             : UTC 2022-11-29 10:20:26
  416. Tagged date                              : UTC 2022-11-29 10:20:27
  417. Text #27
  418. ID                                       : 29
  419. Format                                   : Timed Text
  420. Codec ID                                 : tx3g
  421. Duration                                 : 2 h 13 min
  422. Bit rate mode                            : Variable
  423. Bit rate                                 : 52 b/s
  424. Frame rate                               : 0.346 FPS
  425. Stream size                              : 50.9 KiB (0%)
  426. Title                                    : Portuguese-BR
  427. Language                                 : Portuguese
  428. Forced                                   : No
  429. Encoded date                             : UTC 2022-11-29 10:20:26
  430. Tagged date                              : UTC 2022-11-29 10:20:27
  431. Text #28
  432. ID                                       : 30
  433. Format                                   : Timed Text
  434. Codec ID                                 : tx3g
  435. Duration                                 : 2 h 13 min
  436. Bit rate mode                            : Variable
  437. Bit rate                                 : 63 b/s
  438. Frame rate                               : 0.392 FPS
  439. Stream size                              : 61.2 KiB (0%)
  440. Title                                    : Portuguese-BR
  441. Language                                 : Portuguese
  442. Forced                                   : No
  443. Encoded date                             : UTC 2022-11-29 10:20:26
  444. Tagged date                              : UTC 2022-11-29 10:20:27
  445. Text #29
  446. ID                                       : 31
  447. Format                                   : Timed Text
  448. Codec ID                                 : tx3g
  449. Duration                                 : 2 h 13 min
  450. Bit rate mode                            : Variable
  451. Bit rate                                 : 57 b/s
  452. Frame rate                               : 0.344 FPS
  453. Stream size                              : 56.3 KiB (0%)
  454. Title                                    : Romanian
  455. Language                                 : Romanian
  456. Forced                                   : No
  457. Encoded date                             : UTC 2022-11-29 10:20:26
  458. Tagged date                              : UTC 2022-11-29 10:20:27
  459. Text #30
  460. ID                                       : 32
  461. Format                                   : Timed Text
  462. Codec ID                                 : tx3g
  463. Duration                                 : 2 h 13 min
  464. Bit rate mode                            : Variable
  465. Bit rate                                 : 77 b/s
  466. Frame rate                               : 0.344 FPS
  467. Stream size                              : 75.2 KiB (0%)
  468. Title                                    : Russian
  469. Language                                 : Russian
  470. Forced                                   : No
  471. Encoded date                             : UTC 2022-11-29 10:20:26
  472. Tagged date                              : UTC 2022-11-29 10:20:27
  473. Text #31
  474. ID                                       : 33
  475. Format                                   : Timed Text
  476. Codec ID                                 : tx3g
  477. Duration                                 : 2 h 8 min
  478. Bit rate mode                            : Variable
  479. Bit rate                                 : 69 b/s
  480. Frame rate                               : 0.454 FPS
  481. Stream size                              : 64.8 KiB (0%)
  482. Title                                    : Spanish
  483. Language                                 : Spanish
  484. Forced                                   : No
  485. Encoded date                             : UTC 2022-11-29 10:20:26
  486. Tagged date                              : UTC 2022-11-29 10:20:27
  487. Text #32
  488. ID                                       : 34
  489. Format                                   : Timed Text
  490. Codec ID     
复制代码




                                       
                                       

                                       
                                       
                                       




The.Swimmers.2022.2160p.NF.WEB-DL.DDP5.1.Atmos.DV.MKV.x265-SMURF.torrent (20.04 KB, 下载次数: 0)
回复

使用道具 举报

您需要登录后才可以回帖 登录 | 立即注册

本版积分规则

QQ|Archiver|手机版|小黑屋|蓝光电影网

GMT+8, 2023-2-2 00:08 , Processed in 0.069870 second(s), 28 queries .

Powered by Discuz! X3.4

Copyright © 2001-2020, Tencent Cloud.

快速回复 返回顶部 返回列表