找回密码
 立即注册

QQ登录

只需一步,快速开始

查看: 113|回复: 0

[其他] 红色通缉令 Red.Notice.2021.2160p.NF.WEB-DL.x265.10bit.SDR.DDP5.1.Atmos-SMURF

[复制链接]

0

精华

0

好友

2

听众

新手上路

Rank: 2

蓝光币
5
发表于 2022-11-30 07:51:42 | 显示全部楼层 |阅读模式
[img][/img]

◎标  题 红色通缉令
◎译  名 红色大贱谍
◎片  名 Red Notice
◎年  代 2021
◎产  地 美国
◎类  别 喜剧 / 动作 / 惊悚 / 犯罪
◎语  言 英语
◎上映日期 2021-11-12(美国)
◎IMDb评分 6.4/10 (172136人评价)
◎IMDb链接 https://www.imdb.com/title/tt7991608/
◎豆瓣评分 6.3/10 (51169人评价)
◎豆瓣链接 https://movie.douban.com/subject/30143331/
◎片  长 117分钟
◎导  演 罗森·马歇尔·瑟伯 Rawson Marshall Thurber
◎编  剧 罗森·马歇尔·瑟伯 Rawson Marshall Thurber
◎演  员 瑞安·雷诺兹 Ryan Reynolds
       道恩·强森 Dwayne Johnson
       盖尔·加朵 Gal Gadot
       里图·阿亚 Ritu Arya
       克里斯·迪亚曼托普洛斯 Chris Diamantopoulos
       伊万·姆巴科普 Ivan Mbakop
       温琴佐·阿马托 Vincenzo Amato
       帕斯卡尔·佩塔尔迪 Rafael Petardi
       塞思·迈克尔斯 Seth Michaels
       罗伯特·廷斯利 Robert Tinsley
       汤姆·蔡 Tom Choi
       马丁·威廉·哈里斯 Martin William Harris
       盖·纳尔杜利 Guy Nardulli
       杰伊·古铁雷斯 Jay Gutierrez
       Ray Siegle Ray Siegle
       詹姆斯·威廉·巴拉德 James William Ballard
       埃尔文·费利西达 Erwin Felicilda
       约瑟夫·波多尔斯基 Yosef Podolski
       维多利亚·佩吉·沃特金斯 Victoria Paige Watkins
       塞巴斯蒂安·拉格 Sebastien Large
       罗森·马歇尔·瑟伯 Rawson Marshall Thurber
       达妮·加西亚 Dany Garcia
       海拉姆·加西亚 Hiram Garcia
       道恩·强森 Dwayne Johnson
       斯蒂夫·贾布隆斯基 Steve Jablonsky
       马库斯·福德勒 Markus Förderer
       瑞秋·特纳 Rachel Tenner
       安迪·尼克尔森 Andy Nicholson
       詹森·诺克斯·约翰斯顿 Jason Knox-Johnston
       玛丽·E·沃格特 Mary E. Vogt
◎标  签 喜剧 / 动作 / 犯罪 / 美国 / Netflix / 2021 / 搞笑 / 特工
◎简  介

  当国际刑警发布的红色通缉令(追捕世界头号通缉犯的最高级别通缉令)出炉时,联邦调查局的顶尖犯罪侧写师约翰·哈特利(道恩·强森饰)正在调查此案。在调查一起大胆的抢劫案中,约翰陷入了困境,被迫与世界头号艺术品大盗诺兰·布斯(瑞安·雷诺兹饰)合作,以抓捕世界头号通缉的艺术品窃贼“主教”(盖尔·加朵饰)。激动人心的冒险之旅将带领三人环游世界,他们的经历包括穿过舞池、被困在一个隐蔽的监狱、进入丛林,最糟糕的是,他们彼此间的默契不断增加。里图·阿亚和克里斯·迪亚曼托波洛斯加入了全明星阵容。《红色通缉令》由罗森·马歇尔·瑟伯(《乌龙特工》和《摩天营救》)担任导演和编剧,制片人团队包括 Seven Bucks Productions 的海拉姆·加西亚、道恩·强森和丹妮·加西亚,Flynn Picture Co. 的比尤·弗林,以及 Bad Version, Inc. ...
  1. Video
  2. ID                                       : 1
  3. Format                                   : HEVC
  4. Format/Info                              : High Efficiency Video Coding
  5. Format profile                           : Main [email protected]@Main
  6. Codec ID                                 : V_MPEGH/ISO/HEVC
  7. Duration                                 : 1 h 58 min
  8. Bit rate                                 : 17.2 Mb/s
  9. Width                                    : 3 840 pixels
  10. Height                                   : 2 160 pixels
  11. Display aspect ratio                     : 16:9
  12. Frame rate mode                          : Constant
  13. Frame rate                               : 24.000 FPS
  14. Color space                              : YUV
  15. Chroma subsampling                       : 4:2:0
  16. Bit depth                                : 10 bits
  17. Bits/(Pixel*Frame)                       : 0.086
  18. Stream size                              : 14.2 GiB (96%)
  19. Language                                 : English
  20. Default                                  : Yes
  21. Forced                                   : No
  22. Color range                              : Limited
  23. Color primaries                          : BT.709
  24. Transfer characteristics                 : BT.709
  25. Matrix coefficients                      : BT.709
  26. Audio
  27. ID                                       : 2
  28. Format                                   : E-AC-3 JOC
  29. Format/Info                              : Enhanced AC-3 with Joint Object Coding
  30. Commercial name                          : Dolby Digital Plus with Dolby Atmos
  31. Codec ID                                 : A_EAC3
  32. Duration                                 : 1 h 58 min
  33. Bit rate mode                            : Constant
  34. Bit rate                                 : 768 kb/s
  35. Channel(s)                               : 6 channels
  36. Channel layout                           : L R C LFE Ls Rs
  37. Sampling rate                            : 48.0 kHz
  38. Frame rate                               : 31.250 FPS (1536 SPF)
  39. Compression mode                         : Lossy
  40. Stream size                              : 649 MiB (4%)
  41. Language                                 : English
  42. Service kind                             : Complete Main
  43. Default                                  : Yes
  44. Forced                                   : No
  45. Complexity index                         : 16
  46. Number of dynamic objects                : 15
  47. Bed channel count                        : 1 channel
  48. Bed channel configuration                : LFE
  49. Text #1
  50. ID                                       : 3
  51. Format                                   : UTF-8
  52. Codec ID                                 : S_TEXT/UTF8
  53. Codec ID/Info                            : UTF-8 Plain Text
  54. Duration                                 : 1 h 38 min
  55. Bit rate                                 : 1 b/s
  56. Frame rate                               : 0.006 FPS
  57. Count of elements                        : 33
  58. Stream size                              : 816 Bytes (0%)
  59. Title                                    : Forced
  60. Language                                 : English
  61. Default                                  : Yes
  62. Forced                                   : Yes
  63. Text #2
  64. ID                                       : 4
  65. Format                                   : UTF-8
  66. Codec ID                                 : S_TEXT/UTF8
  67. Codec ID/Info                            : UTF-8 Plain Text
  68. Duration                                 : 1 h 54 min
  69. Bit rate                                 : 60 b/s
  70. Frame rate                               : 0.203 FPS
  71. Count of elements                        : 1399
  72. Stream size                              : 50.7 KiB (0%)
  73. Language                                 : English
  74. Default                                  : No
  75. Forced                                   : No
  76. Text #3
  77. ID                                       : 5
  78. Format                                   : UTF-8
  79. Codec ID                                 : S_TEXT/UTF8
  80. Codec ID/Info                            : UTF-8 Plain Text
  81. Duration                                 : 1 h 54 min
  82. Bit rate                                 : 70 b/s
  83. Frame rate                               : 0.249 FPS
  84. Count of elements                        : 1718
  85. Stream size                              : 59.2 KiB (0%)
  86. Title                                    : SDH
  87. Language                                 : English
  88. Default                                  : No
  89. Forced                                   : No
  90. Text #4
  91. ID                                       : 6
  92. Format                                   : UTF-8
  93. Codec ID                                 : S_TEXT/UTF8
  94. Codec ID/Info                            : UTF-8 Plain Text
  95. Duration                                 : 1 h 55 min
  96. Bit rate                                 : 95 b/s
  97. Frame rate                               : 0.211 FPS
  98. Count of elements                        : 1456
  99. Stream size                              : 80.7 KiB (0%)
  100. Language                                 : Arabic
  101. Default                                  : No
  102. Forced                                   : No
  103. Text #5
  104. ID                                       : 7
  105. Format                                   : UTF-8
  106. Codec ID                                 : S_TEXT/UTF8
  107. Codec ID/Info                            : UTF-8 Plain Text
  108. Duration                                 : 1 h 55 min
  109. Bit rate                                 : 49 b/s
  110. Frame rate                               : 0.198 FPS
  111. Count of elements                        : 1370
  112. Stream size                              : 42.0 KiB (0%)
  113. Language                                 : Czech
  114. Default                                  : No
  115. Forced                                   : No
  116. Text #6
  117. ID                                       : 8
  118. Format                                   : UTF-8
  119. Codec ID                                 : S_TEXT/UTF8
  120. Codec ID/Info                            : UTF-8 Plain Text
  121. Duration                                 : 1 h 54 min
  122. Bit rate                                 : 65 b/s
  123. Frame rate                               : 0.210 FPS
  124. Count of elements                        : 1444
  125. Stream size                              : 54.7 KiB (0%)
  126. Language                                 : Welsh
  127. Default                                  : No
  128. Forced                                   : No
  129. Text #7
  130. ID                                       : 9
  131. Format                                   : UTF-8
  132. Codec ID                                 : S_TEXT/UTF8
  133. Codec ID/Info                            : UTF-8 Plain Text
  134. Duration                                 : 1 h 55 min
  135. Bit rate                                 : 49 b/s
  136. Frame rate                               : 0.186 FPS
  137. Count of elements                        : 1282
  138. Stream size                              : 41.9 KiB (0%)
  139. Language                                 : Danish
  140. Default                                  : No
  141. Forced                                   : No
  142. Text #8
  143. ID                                       : 10
  144. Format                                   : UTF-8
  145. Codec ID                                 : S_TEXT/UTF8
  146. Codec ID/Info                            : UTF-8 Plain Text
  147. Duration                                 : 1 h 55 min
  148. Bit rate                                 : 52 b/s
  149. Frame rate                               : 0.198 FPS
  150. Count of elements                        : 1369
  151. Stream size                              : 43.8 KiB (0%)
  152. Language                                 : German
  153. Default                                  : No
  154. Forced                                   : No
  155. Text #9
  156. ID                                       : 11
  157. Format                                   : UTF-8
  158. Codec ID                                 : S_TEXT/UTF8
  159. Codec ID/Info                            : UTF-8 Plain Text
  160. Duration                                 : 1 h 55 min
  161. Bit rate                                 : 88 b/s
  162. Frame rate                               : 0.207 FPS
  163. Count of elements                        : 1430
  164. Stream size                              : 74.3 KiB (0%)
  165. Language                                 : Greek
  166. Default                                  : No
  167. Forced                                   : No
  168. Text #10
  169. ID                                       : 12
  170. Format                                   : UTF-8
  171. Codec ID                                 : S_TEXT/UTF8
  172. Codec ID/Info                            : UTF-8 Plain Text
  173. Duration                                 : 1 h 55 min
  174. Bit rate                                 : 51 b/s
  175. Frame rate                               : 0.206 FPS
  176. Count of elements                        : 1422
  177. Stream size                              : 43.2 KiB (0%)
  178. Title                                    : Latin American
  179. Language                                 : Spanish
  180. Default                                  : No
  181. Forced                                   : No
  182. Text #11
  183. ID                                       : 13
  184. Format                                   : UTF-8
  185. Codec ID                                 : S_TEXT/UTF8
  186. Codec ID/Info                            : UTF-8 Plain Text
  187. Duration                                 : 1 h 55 min
  188. Bit rate                                 : 49 b/s
  189. Frame rate                               : 0.201 FPS
  190. Count of elements                        : 1390
  191. Stream size                              : 41.9 KiB (0%)
  192. Language                                 : Spanish
  193. Default                                  : No
  194. Forced                                   : No
  195. Text #12
  196. ID                                       : 14
  197. Format                                   : UTF-8
  198. Codec ID                                 : S_TEXT/UTF8
  199. Codec ID/Info                            : UTF-8 Plain Text
  200. Duration                                 : 1 h 55 min
  201. Bit rate                                 : 49 b/s
  202. Frame rate                               : 0.174 FPS
  203. Count of elements                        : 1198
  204. Stream size                              : 41.9 KiB (0%)
  205. Language                                 : Finnish
  206. Default                                  : No
  207. Forced                                   : No
  208. Text #13
  209. ID                                       : 15
  210. Format                                   : UTF-8
  211. Codec ID                                 : S_TEXT/UTF8
  212. Codec ID/Info                            : UTF-8 Plain Text
  213. Duration                                 : 1 h 55 min
  214. Bit rate                                 : 49 b/s
  215. Frame rate                               : 0.204 FPS
  216. Count of elements                        : 1406
  217. Stream size                              : 41.8 KiB (0%)
  218. Language                                 : fil
  219. Default                                  : No
  220. Forced                                   : No
  221. Text #14
  222. ID                                       : 16
  223. Format                                   : UTF-8
  224. Codec ID                                 : S_TEXT/UTF8
  225. Codec ID/Info                            : UTF-8 Plain Text
  226. Duration                                 : 1 h 55 min
  227. Bit rate                                 : 54 b/s
  228. Frame rate                               : 0.207 FPS
  229. Count of elements                        : 1426
  230. Stream size                              : 45.7 KiB (0%)
  231. Language                                 : French
  232. Default                                  : No
  233. Forced                                   : No
  234. Text #15
  235. ID                                       : 17
  236. Format                                   : UTF-8
  237. Codec ID                                 : S_TEXT/UTF8
  238. Codec ID/Info                            : UTF-8 Plain Text
  239. Duration                                 : 1 h 55 min
  240. Bit rate                                 : 79 b/s
  241. Frame rate                               : 0.204 FPS
  242. Count of elements                        : 1408
  243. Stream size                              : 67.0 KiB (0%)
  244. Language                                 : Hebrew
  245. Default                                  : No
  246. Forced                                   : No
  247. Text #16
  248. ID                                       : 18
  249. Format                                   : UTF-8
  250. Codec ID                                 : S_TEXT/UTF8
  251. Codec ID/Info                            : UTF-8 Plain Text
  252. Duration                                 : 1 h 55 min
  253. Bit rate                                 : 48 b/s
  254. Frame rate                               : 0.207 FPS
  255. Count of elements                        : 1429
  256. Stream size                              : 41.2 KiB (0%)
  257. Language                                 : Croatian
  258. Default                                  : No
  259. Forced                                   : No
  260. Text #17
  261. ID                                       : 19
  262. Format                                   : UTF-8
  263. Codec ID                                 : S_TEXT/UTF8
  264. Codec ID/Info                            : UTF-8 Plain Text
  265. Duration                                 : 1 h 55 min
  266. Bit rate                                 : 51 b/s
  267. Frame rate                               : 0.198 FPS
  268. Count of elements                        : 1369
  269. Stream size                              : 43.7 KiB (0%)
  270. Language                                 : Hungarian
  271. Default                                  : No
  272. Forced                                   : No
  273. Text #18
  274. ID                                       : 20
  275. Format                                   : UTF-8
  276. Codec ID                                 : S_TEXT/UTF8
  277. Codec ID/Info                            : UTF-8 Plain Text
  278. Duration                                 : 1 h 55 min
  279. Bit rate                                 : 51 b/s
  280. Frame rate                               : 0.204 FPS
  281. Count of elements                        : 1405
  282. Stream size                              : 43.8 KiB (0%)
  283. Language                                 : Indonesian
  284. Default                                  : No
  285. Forced                                   : No
  286. Text #19
  287. ID                                       : 21
  288. Format                                   : UTF-8
  289. Codec ID                                 : S_TEXT/UTF8
  290. Codec ID/Info                            : UTF-8 Plain Text
  291. Duration                                 : 1 h 55 min
  292. Bit rate                                 : 51 b/s
  293. Frame rate                               : 0.192 FPS
  294. Count of elements                        : 1324
  295. Stream size                              : 43.3 KiB (0%)
  296. Language                                 : Italian
  297. Default                                  : No
  298. Forced                                   : No
  299. Text #20
  300. ID                                       : 22
  301. Format                                   : UTF-8
  302. Codec ID                                 : S_TEXT/UTF8
  303. Codec ID/Info                            : UTF-8 Plain Text
  304. Duration                                 : 1 h 55 min
  305. Bit rate                                 : 45 b/s
  306. Frame rate                               : 0.192 FPS
  307. Count of elements                        : 1328
  308. Stream size                              : 38.2 KiB (0%)
  309. Language                                 : Japanese
  310. Default                                  : No
  311. Forced                                   : No
  312. Text #21
  313. ID                                       : 23
  314. Format                                   : UTF-8
  315. Codec ID                                 : S_TEXT/UTF8
  316. Codec ID/Info                            : UTF-8 Plain Text
  317. Duration                                 : 1 h 55 min
  318. Bit rate                                 : 60 b/s
  319. Frame rate                               : 0.205 FPS
  320. Count of elements                        : 1416
  321. Stream size                              : 50.7 KiB (0%)
  322. Language                                 : Korean
  323. Default                                  : No
  324. Forced                                   : No
  325. Text #22
  326. ID                                       : 24
  327. Format                                   : UTF-8
  328. Codec ID                                 : S_TEXT/UTF8
  329. Codec ID/Info                            : UTF-8 Plain Text
  330. Duration                                 : 1 h 55 min
  331. Bit rate                                 : 51 b/s
  332. Frame rate                               : 0.200 FPS
  333. Count of elements                        : 1378
  334. Stream size                              : 43.6 KiB (0%)
  335. Language                                 : Malay
  336. Default                                  : No
  337. Forced                                   : No
  338. Text #23
  339. ID                                       : 25
  340. Format                                   : UTF-8
  341. Codec ID                                 : S_TEXT/UTF8
  342. Codec ID/Info                            : UTF-8 Plain Text
  343. Duration                                 : 1 h 55 min
  344. Bit rate                                 : 50 b/s
  345. Frame rate                               : 0.183 FPS
  346. Count of elements                        : 1265
  347. Stream size                              : 42.6 KiB (0%)
  348. Language                                 : Norwegian Bokmal
  349. Default                                  : No
  350. Forced                                   : No
  351. Text #24
  352. ID                                       : 26
  353. Format                                   : UTF-8
  354. Codec ID                                 : S_TEXT/UTF8
  355. Codec ID/Info                            : UTF-8 Plain Text
  356. Duration                                 : 1 h 55 min
  357. Bit rate                                 : 47 b/s
  358. Frame rate                               : 0.169 FPS
  359. Count of elements                        : 1167
  360. Stream size                              : 39.8 KiB (0%)
  361. Language                                 : Dutch
  362. Default                                  : No
  363. Forced                                   : No
  364. Text #25
  365. ID                                       : 27
  366. Format                                   : UTF-8
  367. Codec ID                                 : S_TEXT/UTF8
  368. Codec ID/Info                            : UTF-8 Plain Text
  369. Duration                                 : 1 h 54 min
  370. Bit rate                                 : 49 b/s
  371. Frame rate                               : 0.204 FPS
  372. Count of elements                        : 1407
  373. Stream size                              : 42.0 KiB (0%)
  374. Language                                 : Polish
  375. Default                                  : No
  376. Forced                                   : No
  377. Text #26
  378. ID                                       : 28
  379. Format                                   : UTF-8
  380. Codec ID                                 : S_TEXT/UTF8
  381. Codec ID/Info                            : UTF-8 Plain Text
  382. Duration                                 : 1 h 54 min
  383. Bit rate                                 : 60 b/s
  384. Frame rate                               : 0.200 FPS
  385. Count of elements                        : 1376
  386. Stream size                              : 51.0 KiB (0%)
  387. Title                                    : Brazilian
  388. Language                                 : Portuguese
  389. Default                                  : No
  390. Forced                                   : No
  391. Text #27
  392. ID                                       : 29
  393. Format                                   : UTF-8
  394. Codec ID                                 : S_TEXT/UTF8
  395. Codec ID/Info                            : UTF-8 Plain Text
  396. Duration                                 : 1 h 55 min
  397. Bit rate                                 : 52 b/s
  398. Frame rate                               : 0.194 FPS
  399. Count of elements                        : 1342
  400. Stream size                              : 43.8 KiB (0%)
  401. Title                                    : Brazilian
  402. Language                                 : Portuguese
  403. Default                                  : No
  404. Forced                                   : No
  405. Text #28
  406. ID                                       : 30
  407. Format                                   : UTF-8
  408. Codec ID                                 : S_TEXT/UTF8
  409. Codec ID/Info                            : UTF-8 Plain Text
  410. Duration                                 : 1 h 54 min
  411. Bit rate                                 : 75 b/s
  412. Frame rate                               : 0.271 FPS
  413. Count of elements                        : 1870
  414. Stream size                              : 63.2 KiB (0%)
  415. Title                                    : Brazilian (SDH)
  416. Language                                 : Portuguese
  417. Default                                  : No
  418. Forced                                   : No
  419. Text #29
  420. ID                                       : 31
  421. Format                                   : UTF-8
  422. Codec ID                                 : S_TEXT/UTF8
  423. Codec ID/Info                            : UTF-8 Plain Text
  424. Duration                                 : 1 h 55 min
  425. Bit rate                                 : 55 b/s
  426. Frame rate                               : 0.199 FPS
  427. Count of elements                        : 1376
  428. Stream size                              : 47.0 KiB (0%)
  429. Language                                 : Portuguese
  430. Default                                  : No
  431. Forced                                   : No
  432. Text #30
  433. ID                                       : 32
  434. Format                                   : UTF-8
  435. Codec ID                                 : S_TEXT/UTF8
  436. Codec ID/Info                            : UTF-8 Plain Text
  437. Duration                                 : 1 h 55 min
  438. Bit rate                                 : 57 b/s
  439. Frame rate                               : 0.191 FPS
  440. Count of elements                        : 1319
  441. Stream size                              : 48.6 KiB (0%)
  442. Language                                 : Romanian
  443. Default                                  : No
  444. Forced                                   : No
  445. Text #31
  446. ID                                       : 33
  447. Format                                   : UTF-8
  448. Codec ID                                 : S_TEXT/UTF8
  449. Codec ID/Info                            : UTF-8 Plain Text
  450. Duration                                 : 1 h 55 min
  451. Bit rate                                 : 81 b/s
  452. Frame rate                               : 0.201 FPS
  453. Count of elements                        : 1385
  454. Stream size                              : 68.6 KiB (0%)
  455. Language                                 : Russian
  456. Default                                  : No
  457. Forced                                   : No
  458. Text #32
  459. ID                                       : 34
  460. Format                                   : UTF-8
  461. Codec ID                                 : S_TEXT/UTF8
  462. Codec ID/Info                            : UTF-8 Plain Text
  463. Duration                                 : 1 h 55 min
  464. Bit rate                                 : 52 b/s
  465. Frame rate                               : 0.179 FPS
  466. Count of elements                        : 1237
  467. Stream size                              : 44.4 KiB (0%)
  468. Language                                 : Swedish
  469. Default                                  : No
  470. Forced                                   : No
  471. Text #33
  472. ID                                       : 35
  473. Format                                   : UTF-8
  474. Codec ID                                 : S_TEXT/UTF8
  475. Codec ID/Info                            : UTF-8 Plain Text
  476. Duration                                 : 1 h 55 min
  477. Bit rate                                 : 134 b/s
  478. Frame rate                               : 0.205 FPS
  479. Count of elements                        : 1415
  480. Stream size                              : 113 KiB (0%)
  481. Language                                 : Thai
  482. Default                                  : No
  483. Forced                                   : No
  484. Text #34
  485. ID                                       : 36
  486. Format                                   : UTF-8
  487. Codec ID                                 : S_TEXT/UTF8
  488. Codec ID/Info                            : UTF-8 Plain Text
  489. Duration                                 : 1 h 55 min
  490. Bit rate                                 : 53 b/s
  491. Frame rate                               : 0.204 FPS
  492. Count of elements                        : 1411
  493. Stream size                              : 45.2 KiB (0%)
  494. Language                                 : Turkish
  495. Default                                  : No
  496. Forced                                   : No
  497. Text #35
  498. ID                                       : 37
  499. Format                                   : UTF-8
  500. Codec ID                                 : S_TEXT/UTF8
  501. Codec ID/Info                            : UTF-8 Plain Text
  502. Duration                                 : 1 h 55 min
  503. Bit rate                                 : 85 b/s
  504. Frame rate                               : 0.204 FPS
  505. Count of elements                        : 1410
  506. Stream size                              : 72.2 KiB (0%)
  507. Language                                 : Ukrainian
  508. Default                                  : No
  509. Forced                                   : No
  510. Text #36
  511. ID                                       : 38
  512. Format                                   : UTF-8
  513. Codec ID                                 : S_TEXT/UTF8
  514. Codec ID/Info                            : UTF-8 Plain Text
  515. Duration                                 : 1 h 55 min
  516. Bit rate                                 : 75 b/s
  517. Frame rate                               : 0.206 FPS
  518. Count of elements                        : 1421
  519. Stream size                              : 63.3 KiB (0%)
  520. Language                                 : Vietnamese
  521. Default                                  : No
  522. Forced                                   : No
  523. Text #37
  524. ID                                       : 39
  525. Format                                   : UTF-8
  526. Codec ID                                 : S_TEXT/UTF8
  527. Codec ID/Info                            : UTF-8 Plain Text
  528. Duration                                 : 1 h 55 min
  529. Bit rate                                 : 55 b/s
  530. Frame rate                               : 0.206 FPS
  531. Count of elements                        : 1424
  532. Stream size                              : 46.3 KiB (0%)
  533. Title                                    : Simplified
  534. Language                                 : Chinese
  535. Default                                  : No
  536. Forced                                   : No
  537. Text #38
  538. ID                                       : 40
  539. Format                                   : UTF-8
  540. Codec ID                                 : S_TEXT/UTF8
  541. Codec ID/Info                            : UTF-8 Plain Text
  542. Duration                                 : 1 h 55 min
  543. Bit rate                                 : 49 b/s
  544. Frame rate                               : 0.215 FPS
  545. Count of elements                        : 1487
  546. Stream size                              : 41.4 KiB (0%)
  547. Title                                    : Traditional
  548. Language                                 : Chinese
  549. Default                                  : No
  550. Forced                                   : No
  551. Menu
  552. 01:49:01.000                             : en:End Credits
复制代码




                                       
                                       

                                       
                                       
                                       




Red.Notice.2021.2160p.NF.WEB-DL.x265.10bit.SDR.DDP5.1.Atmos-SMURF.torrent (19.17 KB, 下载次数: 5)
回复

使用道具 举报

您需要登录后才可以回帖 登录 | 立即注册

本版积分规则

QQ|Archiver|手机版|小黑屋|蓝光电影网

GMT+8, 2023-2-1 22:58 , Processed in 0.059827 second(s), 28 queries .

Powered by Discuz! X3.4

Copyright © 2001-2020, Tencent Cloud.

快速回复 返回顶部 返回列表