找回密码
 立即注册

QQ登录

只需一步,快速开始

查看: 90|回复: 0

[其他] 泳舞姐妹 The.Swimmers.2022.2160p.NF.WEB-DL.x265.10bit.HDR.DDP5.1.Atmos-SMURF 15.25GB

[复制链接]

0

精华

0

好友

2

听众

新手上路

Rank: 2

蓝光币
5
发表于 2022-11-30 07:51:39 | 显示全部楼层 |阅读模式
[img][/img]

◎标  题 泳舞姐妹
◎译  名 力争上游姊妹花(港) / 泳出新生(台) / 游泳姐妹花
◎片  名 The Swimmers
◎年  代 2022
◎产  地 英国 / 美国
◎类  别 剧情 / 传记 / 运动
◎语  言 英语 / 阿拉伯语
◎上映日期 2022-09-08(多伦多电影节) / 2022-11-23(美国网络)
◎IMDb评分 7.6/10 (165人评价)
◎IMDb链接 https://www.imdb.com/title/tt8745676/
◎豆瓣链接 https://movie.douban.com/subject/35320781/
◎片  长 134分钟
◎导  演 莎莉·埃尔·霍赛尼 Sally El Hosaini
◎编  剧 莎莉·埃尔·霍赛尼 Sally El Hosaini
       杰克·索恩 Jack Thorne
◎演  员 马纳尔·伊萨 Manal Issa
       娜塔莉·伊萨 Nathalie Issa  
       马提亚斯·施维赫夫 Matthias Schweighöfer
       詹姆斯·弗洛伊德 James Floyd
       阿里·苏莱曼 Ali Suliman
       艾哈迈德·马利克 Ahmed Malek
       阿尔弗雷多·塔瓦雷斯 Alfredo Tavares
       金达·阿洛什 Kinda Alloush
       丹尼尔·厄根 Daniel Eghan
       罗德里克·希尔 Roderick Hill
       埃勒米·拉希德·埃勒米 Elmi Rashid Elmi
       伊莎贝尔·伊迪 Isobel Eadie
       苏菲-乔·比曼 Sophie-Jo Beman
◎简  介

  本片讲述了两位热爱游泳的叙利亚姐妹,从饱受战争蹂躏的国土到2016年里约奥运会的路途中经历的苦痛与辛酸。
  1. Video
  2. ID                                       : 1
  3. Format                                   : HEVC
  4. Format/Info                              : High Efficiency Video Coding
  5. Format profile                           : Main [email protected]@Main
  6. HDR format                               : Dolby Vision, Version 1.0, dvhe.08.06, BL+RPU, HDR10 compatible / SMPTE ST 2086, HDR10 compatible
  7. Codec ID                                 : V_MPEGH/ISO/HEVC
  8. Duration                                 : 2 h 14 min
  9. Bit rate                                 : 15.5 Mb/s
  10. Width                                    : 3 840 pixels
  11. Height                                   : 2 160 pixels
  12. Display aspect ratio                     : 16:9
  13. Frame rate mode                          : Constant
  14. Frame rate                               : 24.000 FPS
  15. Color space                              : YUV
  16. Chroma subsampling                       : 4:2:0 (Type 2)
  17. Bit depth                                : 10 bits
  18. Bits/(Pixel*Frame)                       : 0.078
  19. Stream size                              : 14.5 GiB (95%)
  20. Default                                  : Yes
  21. Forced                                   : No
  22. Color range                              : Limited
  23. Color primaries                          : BT.2020
  24. Transfer characteristics                 : PQ
  25. Matrix coefficients                      : BT.2020 non-constant
  26. Mastering display color primaries        : Display P3
  27. Mastering display luminance              : min: 0.0001 cd/m2, max: 1000 cd/m2
  28. Maximum Content Light Level              : 1242 cd/m2
  29. Maximum Frame-Average Light Level        : 668 cd/m2
  30. Audio
  31. ID                                       : 2
  32. Format                                   : E-AC-3 JOC
  33. Format/Info                              : Enhanced AC-3 with Joint Object Coding
  34. Commercial name                          : Dolby Digital Plus with Dolby Atmos
  35. Codec ID                                 : A_EAC3
  36. Duration                                 : 2 h 15 min
  37. Bit rate mode                            : Constant
  38. Bit rate                                 : 768 kb/s
  39. Channel(s)                               : 6 channels
  40. Channel layout                           : L R C LFE Ls Rs
  41. Sampling rate                            : 48.0 kHz
  42. Frame rate                               : 31.250 FPS (1536 SPF)
  43. Compression mode                         : Lossy
  44. Stream size                              : 745 MiB (5%)
  45. Language                                 : English
  46. Service kind                             : Complete Main
  47. Default                                  : Yes
  48. Forced                                   : No
  49. Complexity index                         : 16
  50. Number of dynamic objects                : 15
  51. Bed channel count                        : 1 channel
  52. Bed channel configuration                : LFE
  53. Text #1
  54. ID                                       : 3
  55. Format                                   : UTF-8
  56. Codec ID                                 : S_TEXT/UTF8
  57. Codec ID/Info                            : UTF-8 Plain Text
  58. Duration                                 : 1 h 56 min
  59. Bit rate                                 : 14 b/s
  60. Frame rate                               : 0.056 FPS
  61. Count of elements                        : 390
  62. Stream size                              : 12.5 KiB (0%)
  63. Title                                    : Forced
  64. Language                                 : English
  65. Default                                  : Yes
  66. Forced                                   : Yes
  67. Text #2
  68. ID                                       : 4
  69. Format                                   : UTF-8
  70. Codec ID                                 : S_TEXT/UTF8
  71. Codec ID/Info                            : UTF-8 Plain Text
  72. Duration                                 : 2 h 4 min
  73. Bit rate                                 : 47 b/s
  74. Frame rate                               : 0.187 FPS
  75. Count of elements                        : 1394
  76. Stream size                              : 43.6 KiB (0%)
  77. Language                                 : English
  78. Default                                  : No
  79. Forced                                   : No
  80. Text #3
  81. ID                                       : 5
  82. Format                                   : UTF-8
  83. Codec ID                                 : S_TEXT/UTF8
  84. Codec ID/Info                            : UTF-8 Plain Text
  85. Duration                                 : 2 h 13 min
  86. Bit rate                                 : 61 b/s
  87. Frame rate                               : 0.233 FPS
  88. Count of elements                        : 1863
  89. Stream size                              : 60.2 KiB (0%)
  90. Title                                    : SDH
  91. Language                                 : English
  92. Default                                  : No
  93. Forced                                   : No
  94. Text #4
  95. ID                                       : 6
  96. Format                                   : UTF-8
  97. Codec ID                                 : S_TEXT/UTF8
  98. Codec ID/Info                            : UTF-8 Plain Text
  99. Duration                                 : 2 h 13 min
  100. Bit rate                                 : 79 b/s
  101. Frame rate                               : 0.178 FPS
  102. Count of elements                        : 1427
  103. Stream size                              : 78.1 KiB (0%)
  104. Language                                 : Arabic
  105. Default                                  : No
  106. Forced                                   : No
  107. Text #5
  108. ID                                       : 7
  109. Format                                   : UTF-8
  110. Codec ID                                 : S_TEXT/UTF8
  111. Codec ID/Info                            : UTF-8 Plain Text
  112. Duration                                 : 2 h 13 min
  113. Bit rate                                 : 44 b/s
  114. Frame rate                               : 0.173 FPS
  115. Count of elements                        : 1382
  116. Stream size                              : 43.3 KiB (0%)
  117. Language                                 : Catalan
  118. Default                                  : No
  119. Forced                                   : No
  120. Text #6
  121. ID                                       : 8
  122. Format                                   : UTF-8
  123. Codec ID                                 : S_TEXT/UTF8
  124. Codec ID/Info                            : UTF-8 Plain Text
  125. Duration                                 : 2 h 13 min
  126. Bit rate                                 : 43 b/s
  127. Frame rate                               : 0.171 FPS
  128. Count of elements                        : 1372
  129. Stream size                              : 42.4 KiB (0%)
  130. Language                                 : Czech
  131. Default                                  : No
  132. Forced                                   : No
  133. Text #7
  134. ID                                       : 9
  135. Format                                   : UTF-8
  136. Codec ID                                 : S_TEXT/UTF8
  137. Codec ID/Info                            : UTF-8 Plain Text
  138. Duration                                 : 2 h 13 min
  139. Bit rate                                 : 41 b/s
  140. Frame rate                               : 0.166 FPS
  141. Count of elements                        : 1332
  142. Stream size                              : 40.7 KiB (0%)
  143. Language                                 : Danish
  144. Default                                  : No
  145. Forced                                   : No
  146. Text #8
  147. ID                                       : 10
  148. Format                                   : UTF-8
  149. Codec ID                                 : S_TEXT/UTF8
  150. Codec ID/Info                            : UTF-8 Plain Text
  151. Duration                                 : 2 h 8 min
  152. Bit rate                                 : 45 b/s
  153. Frame rate                               : 0.176 FPS
  154. Count of elements                        : 1351
  155. Stream size                              : 42.4 KiB (0%)
  156. Language                                 : German
  157. Default                                  : No
  158. Forced                                   : No
  159. Text #9
  160. ID                                       : 11
  161. Format                                   : UTF-8
  162. Codec ID                                 : S_TEXT/UTF8
  163. Codec ID/Info                            : UTF-8 Plain Text
  164. Duration                                 : 2 h 13 min
  165. Bit rate                                 : 74 b/s
  166. Frame rate                               : 0.174 FPS
  167. Count of elements                        : 1390
  168. Stream size                              : 72.7 KiB (0%)
  169. Language                                 : Greek
  170. Default                                  : No
  171. Forced                                   : No
  172. Text #10
  173. ID                                       : 12
  174. Format                                   : UTF-8
  175. Codec ID                                 : S_TEXT/UTF8
  176. Codec ID/Info                            : UTF-8 Plain Text
  177. Duration                                 : 2 h 8 min
  178. Bit rate                                 : 49 b/s
  179. Frame rate                               : 0.192 FPS
  180. Count of elements                        : 1477
  181. Stream size                              : 46.8 KiB (0%)
  182. Title                                    : Latin American
  183. Language                                 : Spanish
  184. Default                                  : No
  185. Forced                                   : No
  186. Text #11
  187. ID                                       : 13
  188. Format                                   : UTF-8
  189. Codec ID                                 : S_TEXT/UTF8
  190. Codec ID/Info                            : UTF-8 Plain Text
  191. Duration                                 : 2 h 13 min
  192. Bit rate                                 : 43 b/s
  193. Frame rate                               : 0.173 FPS
  194. Count of elements                        : 1385
  195. Stream size                              : 42.4 KiB (0%)
  196. Title                                    : Latin American
  197. Language                                 : Spanish
  198. Default                                  : No
  199. Forced                                   : No
  200. Text #12
  201. ID                                       : 14
  202. Format                                   : UTF-8
  203. Codec ID                                 : S_TEXT/UTF8
  204. Codec ID/Info                            : UTF-8 Plain Text
  205. Duration                                 : 2 h 8 min
  206. Bit rate                                 : 59 b/s
  207. Frame rate                               : 0.228 FPS
  208. Count of elements                        : 1749
  209. Stream size                              : 55.6 KiB (0%)
  210. Title                                    : Latin American (SDH)
  211. Language                                 : Spanish
  212. Default                                  : No
  213. Forced                                   : No
  214. Text #13
  215. ID                                       : 15
  216. Format                                   : UTF-8
  217. Codec ID                                 : S_TEXT/UTF8
  218. Codec ID/Info                            : UTF-8 Plain Text
  219. Duration                                 : 2 h 13 min
  220. Bit rate                                 : 42 b/s
  221. Frame rate                               : 0.179 FPS
  222. Count of elements                        : 1432
  223. Stream size                              : 42.0 KiB (0%)
  224. Language                                 : Spanish
  225. Default                                  : No
  226. Forced                                   : No
  227. Text #14
  228. ID                                       : 16
  229. Format                                   : UTF-8
  230. Codec ID                                 : S_TEXT/UTF8
  231. Codec ID/Info                            : UTF-8 Plain Text
  232. Duration                                 : 2 h 13 min
  233. Bit rate                                 : 46 b/s
  234. Frame rate                               : 0.173 FPS
  235. Count of elements                        : 1387
  236. Stream size                              : 45.5 KiB (0%)
  237. Language                                 : Basque
  238. Default                                  : No
  239. Forced                                   : No
  240. Text #15
  241. ID                                       : 17
  242. Format                                   : UTF-8
  243. Codec ID                                 : S_TEXT/UTF8
  244. Codec ID/Info                            : UTF-8 Plain Text
  245. Duration                                 : 2 h 13 min
  246. Bit rate                                 : 38 b/s
  247. Frame rate                               : 0.141 FPS
  248. Count of elements                        : 1127
  249. Stream size                              : 37.7 KiB (0%)
  250. Language                                 : Finnish
  251. Default                                  : No
  252. Forced                                   : No
  253. Text #16
  254. ID                                       : 18
  255. Format                                   : UTF-8
  256. Codec ID                                 : S_TEXT/UTF8
  257. Codec ID/Info                            : UTF-8 Plain Text
  258. Duration                                 : 2 h 13 min
  259. Bit rate                                 : 46 b/s
  260. Frame rate                               : 0.173 FPS
  261. Count of elements                        : 1384
  262. Stream size                              : 45.7 KiB (0%)
  263. Language                                 : fil
  264. Default                                  : No
  265. Forced                                   : No
  266. Text #17
  267. ID                                       : 19
  268. Format                                   : UTF-8
  269. Codec ID                                 : S_TEXT/UTF8
  270. Codec ID/Info                            : UTF-8 Plain Text
  271. Duration                                 : 2 h 13 min
  272. Bit rate                                 : 43 b/s
  273. Frame rate                               : 0.166 FPS
  274. Count of elements                        : 1331
  275. Stream size                              : 42.2 KiB (0%)
  276. Language                                 : French
  277. Default                                  : No
  278. Forced                                   : No
  279. Text #18
  280. ID                                       : 20
  281. Format                                   : UTF-8
  282. Codec ID                                 : S_TEXT/UTF8
  283. Codec ID/Info                            : UTF-8 Plain Text
  284. Duration                                 : 2 h 13 min
  285. Bit rate                                 : 40 b/s
  286. Frame rate                               : 0.173 FPS
  287. Count of elements                        : 1383
  288. Stream size                              : 40.0 KiB (0%)
  289. Language                                 : Galician
  290. Default                                  : No
  291. Forced                                   : No
  292. Text #19
  293. ID                                       : 21
  294. Format                                   : UTF-8
  295. Codec ID                                 : S_TEXT/UTF8
  296. Codec ID/Info                            : UTF-8 Plain Text
  297. Duration                                 : 2 h 13 min
  298. Bit rate                                 : 71 b/s
  299. Frame rate                               : 0.175 FPS
  300. Count of elements                        : 1400
  301. Stream size                              : 69.7 KiB (0%)
  302. Language                                 : Hebrew
  303. Default                                  : No
  304. Forced                                   : No
  305. Text #20
  306. ID                                       : 22
  307. Format                                   : UTF-8
  308. Codec ID                                 : S_TEXT/UTF8
  309. Codec ID/Info                            : UTF-8 Plain Text
  310. Duration                                 : 2 h 13 min
  311. Bit rate                                 : 39 b/s
  312. Frame rate                               : 0.172 FPS
  313. Count of elements                        : 1379
  314. Stream size                              : 38.2 KiB (0%)
  315. Language                                 : Croatian
  316. Default                                  : No
  317. Forced                                   : No
  318. Text #21
  319. ID                                       : 23
  320. Format                                   : UTF-8
  321. Codec ID                                 : S_TEXT/UTF8
  322. Codec ID/Info                            : UTF-8 Plain Text
  323. Duration                                 : 2 h 13 min
  324. Bit rate                                 : 44 b/s
  325. Frame rate                               : 0.169 FPS
  326. Count of elements                        : 1352
  327. Stream size                              : 43.8 KiB (0%)
  328. Language                                 : Hungarian
  329. Default                                  : No
  330. Forced                                   : No
  331. Text #22
  332. ID                                       : 24
  333. Format                                   : UTF-8
  334. Codec ID                                 : S_TEXT/UTF8
  335. Codec ID/Info                            : UTF-8 Plain Text
  336. Duration                                 : 2 h 13 min
  337. Bit rate                                 : 42 b/s
  338. Frame rate                               : 0.175 FPS
  339. Count of elements                        : 1398
  340. Stream size                              : 41.8 KiB (0%)
  341. Language                                 : Indonesian
  342. Default                                  : No
  343. Forced                                   : No
  344. Text #23
  345. ID                                       : 25
  346. Format                                   : UTF-8
  347. Codec ID                                 : S_TEXT/UTF8
  348. Codec ID/Info                            : UTF-8 Plain Text
  349. Duration                                 : 2 h 13 min
  350. Bit rate                                 : 42 b/s
  351. Frame rate                               : 0.174 FPS
  352. Count of elements                        : 1397
  353. Stream size                              : 41.1 KiB (0%)
  354. Language                                 : Italian
  355. Default                                  : No
  356. Forced                                   : No
  357. Text #24
  358. ID                                       : 26
  359. Format                                   : UTF-8
  360. Codec ID                                 : S_TEXT/UTF8
  361. Codec ID/Info                            : UTF-8 Plain Text
  362. Duration                                 : 2 h 13 min
  363. Bit rate                                 : 42 b/s
  364. Frame rate                               : 0.180 FPS
  365. Count of elements                        : 1441
  366. Stream size                              : 41.4 KiB (0%)
  367. Language                                 : Japanese
  368. Default                                  : No
  369. Forced                                   : No
  370. Text #25
  371. ID                                       : 27
  372. Format                                   : UTF-8
  373. Codec ID                                 : S_TEXT/UTF8
  374. Codec ID/Info                            : UTF-8 Plain Text
  375. Duration                                 : 2 h 13 min
  376. Bit rate                                 : 55 b/s
  377. Frame rate                               : 0.194 FPS
  378. Count of elements                        : 1556
  379. Stream size                              : 54.2 KiB (0%)
  380. Language                                 : Korean
  381. Default                                  : No
  382. Forced                                   : No
  383. Text #26
  384. ID                                       : 28
  385. Format                                   : UTF-8
  386. Codec ID                                 : S_TEXT/UTF8
  387. Codec ID/Info                            : UTF-8 Plain Text
  388. Duration                                 : 2 h 13 min
  389. Bit rate                                 : 44 b/s
  390. Frame rate                               : 0.175 FPS
  391. Count of elements                        : 1403
  392. Stream size                              : 43.6 KiB (0%)
  393. Language                                 : Malay
  394. Default                                  : No
  395. Forced                                   : No
  396. Text #27
  397. ID                                       : 29
  398. Format                                   : UTF-8
  399. Codec ID                                 : S_TEXT/UTF8
  400. Codec ID/Info                            : UTF-8 Plain Text
  401. Duration                                 : 2 h 13 min
  402. Bit rate                                 : 41 b/s
  403. Frame rate                               : 0.162 FPS
  404. Count of elements                        : 1300
  405. Stream size                              : 40.7 KiB (0%)
  406. Language                                 : Norwegian Bokmal
  407. Default                                  : No
  408. Forced                                   : No
  409. Text #28
  410. ID                                       : 30
  411. Format                                   : UTF-8
  412. Codec ID                                 : S_TEXT/UTF8
  413. Codec ID/Info                            : UTF-8 Plain Text
  414. Duration                                 : 2 h 13 min
  415. Bit rate                                 : 42 b/s
  416. Frame rate                               : 0.171 FPS
  417. Count of elements                        : 1367
  418. Stream size                              : 41.4 KiB (0%)
  419. Language                                 : Dutch
  420. Default                                  : No
  421. Forced                                   : No
  422. Text #29
  423. ID                                       : 31
  424. Format                                   : UTF-8
  425. Codec ID                                 : S_TEXT/UTF8
  426. Codec ID/Info                            : UTF-8 Plain Text
  427. Duration                                 : 2 h 13 min
  428. Bit rate                                 : 39 b/s
  429. Frame rate                               : 0.175 FPS
  430. Count of elements                        : 1399
  431. Stream size                              : 38.7 KiB (0%)
  432. Language                                 : Polish
  433. Default                                  : No
  434. Forced                                   : No
  435. Text #30
  436. ID                                       : 32
  437. Format                                   : UTF-8
  438. Codec ID                                 : S_TEXT/UTF8
  439. Codec ID/Info                            : UTF-8 Plain Text
  440. Duration                                 : 2 h 13 min
  441. Bit rate                                 : 54 b/s
  442. Frame rate                               : 0.197 FPS
  443. Count of elements                        : 1573
  444. Stream size                              : 52.9 KiB (0%)
  445. Title                                    : Brazilian
  446. Language                                 : Portuguese
  447. Default                                  : No
  448. Forced                                   : No
  449. Text #31
  450. ID                                       : 33
  451. Format                                   : UTF-8
  452. Codec ID                                 : S_TEXT/UTF8
  453. Codec ID/Info                            : UTF-8 Plain Text
  454. Duration                                 : 2 h 13 min
  455. Bit rate                                 : 44 b/s
  456. Frame rate                               : 0.173 FPS
  457. Count of elements                        : 1388
  458. Stream size                              : 43.1 KiB (0%)
  459. Title                                    : Brazilian
  460. Language                                 : Portuguese
  461. Default                                  : No
  462. Forced                                   : No
  463. Text #32
  464. ID                                       : 34
  465. Format                                   : UTF-8
  466. Codec ID                                 : S_TEXT/UTF8
  467. Codec ID/Info                            : UTF-8 Plain Text
  468. Duration                                 : 2 h 13 min
  469. Bit rate                                 : 68 b/s
  470. Frame rate                               : 0.248 FPS
  471. Count of elements                        : 1987
  472. Stream size                              : 67.3 KiB (0%)
  473. Title                                    : Brazilian (SDH)
  474. Language                                 : Portuguese
  475. Default                                  : No
  476. Forced                                   : No
  477. Text #33
  478. ID                                       : 35
  479. Format                                   : UTF-8
  480. Codec ID                                 : S_TEXT/UTF8
  481. Codec ID/Info                            : UTF-8 Plain Text
  482. Duration                                 : 2 h 13 min
  483. Bit rate                                 : 43 b/s
  484. Frame rate                               : 0.171 FPS
  485. Count of elements                        : 1372
  486. Stream size                              : 42.8 KiB (0%)
  487. Language                                 : Portuguese
  488. Default                                  : No
  489. Forced                                   : No
  490. Text #34
  491. ID                                       : 36
  492. Format                                   : UTF-8
  493. Codec ID                                 : S_TEXT/UTF8
  494. Codec ID/Info                            : UTF-8 Plain Text
  495. Duration                                 : 2 h 13 min
  496. Bit rate                                 : 49 b/s
  497. Frame rate                               : 0.173 FPS
  498. Count of elements                        : 1383
  499. Stream size                              : 48.5 KiB (0%)
  500. Language                                 : Romanian
  501. Default                                  : No
  502. Forced                                   : No
  503. Text #35
  504. ID                                       : 37
  505. Format                                   : UTF-8
  506. Codec ID                                 : S_TEXT/UTF8
  507. Codec ID/Info                            : UTF-8 Plain Text
  508. Duration                                 : 2 h 13 min
  509. Bit rate                                 : 69 b/s
  510. Frame rate                               : 0.172 FPS
  511. Count of elements                        : 1381
  512. Stream size                              : 68.1 KiB (0%)
  513. Language                                 : Russian
  514. Default                                  : No
  515. Forced                                   : No
  516. Text #36
  517. ID                                       : 38
  518. Format                                   : UTF-8
  519. Codec ID                                 : S_TEXT/UTF8
  520. Codec ID/Info                            : UTF-8 Plain Text
  521. Duration                                 : 2 h 13 min
  522. Bit rate                                 : 42 b/s
  523. Frame rate                               : 0.160 FPS
  524. Count of elements                        : 1280
  525. Stream size                              : 41.4 KiB (0%)
  526. Language                                 : Swedish
  527. Default                                  : No
  528. Forced                                   : No
  529. Text #37
  530. ID                                       : 39
  531. Format                                   : UTF-8
  532. Codec ID                                 : S_TEXT/UTF8
  533. Codec ID/Info                            : UTF-8 Plain Text
  534. Duration                                 : 2 h 13 min
  535. Bit rate                                 : 109 b/s
  536. Frame rate                               : 0.176 FPS
  537. Count of elements                        : 1406
  538. Stream size                              : 107 KiB (0%)
  539. Language                                 : Thai
  540. Default                                  : No
  541. Forced                                   : No
  542. Text #38
  543. ID                                       : 40
  544. Format                                   : UTF-8
  545. Codec ID                                 : S_TEXT/UTF8
  546. Codec ID/Info                            : UTF-8 Plain Text
  547. Duration                                 : 2 h 13 min
  548. Bit rate                                 : 44 b/s
  549. Frame rate                               : 0.170 FPS
  550. Count of elements                        : 1360
  551. Stream size                              : 43.6 KiB (0%)
  552. Language                                 : Turkish
  553. Default                                  : No
  554. Forced                                   : No
  555. Text #39
  556. ID                                       : 41
  557. Format                                   : UTF-8
  558. Codec ID                                 : S_TEXT/UTF8
  559. Codec ID/Info                            : UTF-8 Plain Text
  560. Duration                                 : 2 h 13 min
  561. Bit rate                                 : 67 b/s
  562. Frame rate                               : 0.174 FPS
  563. Count of elements                        : 1396
  564. Stream size                              : 65.9 KiB (0%)
  565. Language                                 : Ukrainian
  566. Default                                  : No
  567. Forced                                   : No
  568. Text #40
  569. ID                                       : 42
  570. Format                                   : UTF-8
  571. Codec ID                                 : S_TEXT/UTF8
  572. Codec ID/Info                            : UTF-8 Plain Text
  573. Duration                                 : 2 h 13 min
  574. Bit rate                                 : 62 b/s
  575. Frame rate                               : 0.174 FPS
  576. Count of elements                        : 1392
  577. Stream size                              : 61.4 KiB (0%)
  578. Language                                 : Vietnamese
  579. Default                                  : No
  580. Forced                                   : No
  581. Text #41
  582. ID                                       : 43
  583. Format                                   : UTF-8
  584. Codec ID                                 : S_TEXT/UTF8
  585. Codec ID/Info                            : UTF-8 Plain Text
  586. Duration                                 : 2 h 13 min
  587. Bit rate                                 : 47 b/s
  588. Frame rate                               : 0.174 FPS
  589. Count of elements                        : 1395
  590. Stream size                              : 46.1 KiB (0%)
  591. Title                                    : Simplified
  592. Language                                 : Chinese
  593. Default                                  : No
  594. Forced                                   : No
  595. Text #42
  596. ID                                       : 44
  597. Format                                   : UTF-8
  598. Codec ID                                 : S_TEXT/UTF8
  599. Codec ID/Info                            : UTF-8 Plain Text
  600. Duration                                 : 2 h 13 min
  601. Bit rate                                 : 46 b/s
  602. Frame rate                               : 0.190 FPS
  603. Count of elements                        : 1519
  604. Stream size                              : 45.1 KiB (0%)
  605. Title                                    : Traditional
  606. Language                                 : Chinese
  607. Default                                  : No
  608. Forced                                   : No
  609. Menu
  610. 02:08:24.000                             : en:End Credits
复制代码




                                       
                                       

                                       
                                       
                                       




The.Swimmers.2022.2160p.NF.WEB-DL.x265.10bit.HDR.DDP5.1.Atmos-SMURF.torrent (19.71 KB, 下载次数: 0)
回复

使用道具 举报

您需要登录后才可以回帖 登录 | 立即注册

本版积分规则

QQ|Archiver|手机版|小黑屋|蓝光电影网

GMT+8, 2023-2-1 23:00 , Processed in 0.086806 second(s), 28 queries .

Powered by Discuz! X3.4

Copyright © 2001-2020, Tencent Cloud.

快速回复 返回顶部 返回列表