找回密码
 立即注册

QQ登录

只需一步,快速开始

查看: 71|回复: 0

[喜剧片] 天堂门票 Ticket.to.Paradise.2022.1080p.BluRay.x264-KNiVES 12.80GB

[复制链接]

0

精华

0

好友

2

听众

新手上路

Rank: 2

蓝光币
5
发表于 2022-11-30 07:06:24 | 显示全部楼层 |阅读模式
[img][/img]

◎标  题 天堂门票
◎译  名 幸福入场券(台) / 天堂的门票 / 通天票
◎片  名 Ticket To Paradise
◎年  代 2022
◎产  地 美国
◎类  别 喜剧 / 爱情
◎语  言 英语
◎上映日期 2022-09-14(澳大利亚) / 2022-10-21(美国)
◎IMDb评分 6.2/10 (496人评价)
◎IMDb链接 https://www.imdb.com/title/tt14109724/
◎豆瓣链接 https://movie.douban.com/subject/35382459/
◎片  长 104分钟
◎导  演 欧·帕克 Ol Parker
◎编  剧 欧·帕克 Ol Parker
       丹尼尔·皮普斯基 Daniel Pipski
◎演  员 朱莉娅·罗伯茨 Julia Roberts
       乔治·克鲁尼 George Clooney
       凯特琳·德弗 Kaitlyn Dever
       马克西姆·布蒂尔 Maxime Bouttier
       比莉·洛德 Billie Lourd
       卢卡斯·布哈沃 Lucas Bravo
       塞纳·梅布拉图 Senayt Mebrahtu
       塔拉·森图尔克 Talha Şentürk
       穆兰·凯恩 Murran Kain
       肖恩·林奇 Sean Lynch
       艾萨克·普瑞斯特 Isaac Priest
       罗米·普利耶 Romy Poulier
       凡妮莎·埃弗里特 Vanesa Everett
       辛提亚·达玛扬提 Cintya Dharmayanti
       罗温··查普曼 Rowan Chapman
       易卜拉欣·伊西克塔斯 Ibrahim Isiktas
       阿曼达·奥登普西 Amanda O'Dempsey
◎简  介

  乔治·克鲁尼、朱莉娅·罗伯茨大银幕再度合体,饰演一对早已离婚的夫妻被迫携手合作,试图阻止他们被爱冲昏了头的女儿犯下他们曾经犯过的错误。本片是一部关于第二次机会带来的甜美惊喜的爱情喜剧片。
  1. Video
  2. ID                                       : 1
  3. Format                                   : AVC
  4. Format/Info                              : Advanced Video Codec
  5. Format profile                           : [email protected]
  6. Format settings                          : CABAC / 5 Ref Frames
  7. Format settings, CABAC                   : Yes
  8. Format settings, Reference frames        : 5 frames
  9. Codec ID                                 : V_MPEG4/ISO/AVC
  10. Duration                                 : 1 h 44 min
  11. Bit rate                                 : 12.8 Mb/s
  12. Width                                    : 1 920 pixels
  13. Height                                   : 804 pixels
  14. Display aspect ratio                     : 2.40:1
  15. Frame rate mode                          : Constant
  16. Frame rate                               : 23.976 (24000/1001/189150) FPS
  17. Color space                              : YUV
  18. Chroma subsampling                       : 4:2:0
  19. Bit depth                                : 8 bits
  20. Scan type                                : Progressive
  21. Bits/(Pixel*Frame)                       : 0.347
  22. Stream size                              : 9.32 GiB (73%)
  23. Writing library                          : x264 core 164 r3101 b093bbe
  24. Encoding settings                        : cabac=1 / ref=5 / deblock=1:-3:-3 / analyse=0x3:0x133 / me=umh / subme=9 / psy=1 / psy_rd=1.00:0.00 / mixed_ref=1 / me_range=16 / chroma_me=1 / trellis=2 / 8x8dct=1 / cqm=0 / deadzone=21,11 / fast_pskip=0 / chroma_qp_offset=-2 / threads=25 / lookahead_threads=2 / sliced_threads=0 / nr=0 / decimate=1 / interlaced=0 / bluray_compat=0 / constrained_intra=0 / bframes=3 / b_pyramid=2 / b_adapt=2 / b_bias=0 / direct=3 / weightb=1 / open_gop=0 / weightp=2 / keyint=250 / keyint_min=23 / scenecut=40 / intra_refresh=0 / rc_lookahead=60 / rc=crf / mbtree=1 / crf=14.0 / qcomp=0.60 / qpmin=0 / qpmax=69 / qpstep=4 / ip_ratio=1.40 / aq=1:1.00
  25. Language                                 : English
  26. Default                                  : Yes
  27. Forced                                   : No

  28. Audio #1
  29. ID                                       : 2
  30. ID in the original source medium         : 4352 (0x1100)
  31. Format                                   : DTS XLL
  32. Format/Info                              : Digital Theater Systems
  33. Commercial name                          : DTS-HD Master Audio
  34. Codec ID                                 : A_DTS
  35. Duration                                 : 1 h 44 min
  36. Bit rate mode                            : Variable
  37. Bit rate                                 : 4 550 kb/s
  38. Channel(s)                               : 8 channels
  39. Channel layout                           : C L R LFE Lb Rb Lss Rss
  40. Sampling rate                            : 48.0 kHz
  41. Frame rate                               : 93.750 FPS (512 SPF)
  42. Bit depth                                : 24 bits
  43. Compression mode                         : Lossless
  44. Stream size                              : 3.31 GiB (26%)
  45. Language                                 : English
  46. Default                                  : Yes
  47. Forced                                   : No
  48. Original source medium                   : Blu-ray

  49. Audio #2
  50. ID                                       : 3
  51. Format                                   : AAC LC
  52. Format/Info                              : Advanced Audio Codec Low Complexity
  53. Codec ID                                 : A_AAC-2
  54. Duration                                 : 1 h 44 min
  55. Bit rate                                 : 122 kb/s
  56. Channel(s)                               : 2 channels
  57. Channel layout                           : L R
  58. Sampling rate                            : 48.0 kHz
  59. Frame rate                               : 46.875 FPS (1024 SPF)
  60. Compression mode                         : Lossy
  61. Delay relative to video                  : 9 ms
  62. Stream size                              : 90.5 MiB (1%)
  63. Title                                    : commentary
  64. Language                                 : English
  65. Default                                  : No
  66. Forced                                   : No

  67. Text #1
  68. ID                                       : 4
  69. Format                                   : UTF-8
  70. Codec ID                                 : S_TEXT/UTF8
  71. Codec ID/Info                            : UTF-8 Plain Text
  72. Duration                                 : 19 min 22 s
  73. Bit rate                                 : 3 b/s
  74. Count of elements                        : 16
  75. Stream size                              : 437 Bytes (0%)
  76. Language                                 : English
  77. Default                                  : Yes
  78. Forced                                   : Yes

  79. Text #2
  80. ID                                       : 5
  81. ID in the original source medium         : 4608 (0x1200)
  82. Format                                   : PGS
  83. Muxing mode                              : zlib
  84. Codec ID                                 : S_HDMV/PGS
  85. Codec ID/Info                            : Picture based subtitle format used on BDs/HD-DVDs
  86. Duration                                 : 1 h 38 min
  87. Bit rate                                 : 55.9 kb/s
  88. Count of elements                        : 3662
  89. Stream size                              : 39.5 MiB (0%)
  90. Language                                 : English
  91. Default                                  : No
  92. Forced                                   : No
  93. Original source medium                   : Blu-ray

  94. Text #3
  95. ID                                       : 6
  96. ID in the original source medium         : 4609 (0x1201)
  97. Format                                   : PGS
  98. Muxing mode                              : zlib
  99. Codec ID                                 : S_HDMV/PGS
  100. Codec ID/Info                            : Picture based subtitle format used on BDs/HD-DVDs
  101. Duration                                 : 1 h 43 min
  102. Bit rate                                 : 36.9 kb/s
  103. Count of elements                        : 2944
  104. Stream size                              : 27.3 MiB (0%)
  105. Language                                 : French
  106. Default                                  : No
  107. Forced                                   : No
  108. Original source medium                   : Blu-ray

  109. Text #4
  110. ID                                       : 7
  111. ID in the original source medium         : 4610 (0x1202)
  112. Format                                   : PGS
  113. Muxing mode                              : zlib
  114. Codec ID                                 : S_HDMV/PGS
  115. Codec ID/Info                            : Picture based subtitle format used on BDs/HD-DVDs
  116. Duration                                 : 1 h 43 min
  117. Bit rate                                 : 42.5 kb/s
  118. Count of elements                        : 2628
  119. Stream size                              : 31.4 MiB (0%)
  120. Language                                 : German
  121. Default                                  : No
  122. Forced                                   : No
  123. Original source medium                   : Blu-ray

  124. Text #5
  125. ID                                       : 8
  126. ID in the original source medium         : 4611 (0x1203)
  127. Format                                   : PGS
  128. Muxing mode                              : zlib
  129. Codec ID                                 : S_HDMV/PGS
  130. Codec ID/Info                            : Picture based subtitle format used on BDs/HD-DVDs
  131. Duration                                 : 1 h 43 min
  132. Bit rate                                 : 42.3 kb/s
  133. Count of elements                        : 2966
  134. Stream size                              : 31.3 MiB (0%)
  135. Language                                 : Italian
  136. Default                                  : No
  137. Forced                                   : No
  138. Original source medium                   : Blu-ray

  139. Text #6
  140. ID                                       : 9
  141. ID in the original source medium         : 4612 (0x1204)
  142. Format                                   : PGS
  143. Muxing mode                              : zlib
  144. Codec ID                                 : S_HDMV/PGS
  145. Codec ID/Info                            : Picture based subtitle format used on BDs/HD-DVDs
  146. Duration                                 : 1 h 43 min
  147. Bit rate                                 : 35.0 kb/s
  148. Count of elements                        : 2068
  149. Stream size                              : 25.9 MiB (0%)
  150. Language                                 : Dutch
  151. Default                                  : No
  152. Forced                                   : No
  153. Original source medium                   : Blu-ray

  154. Text #7
  155. ID                                       : 10
  156. ID in the original source medium         : 4613 (0x1205)
  157. Format                                   : PGS
  158. Muxing mode                              : zlib
  159. Codec ID                                 : S_HDMV/PGS
  160. Codec ID/Info                            : Picture based subtitle format used on BDs/HD-DVDs
  161. Duration                                 : 19 min 22 s
  162. Bit rate                                 : 1 675 b/s
  163. Count of elements                        : 32
  164. Stream size                              : 238 KiB (0%)
  165. Language                                 : English
  166. Default                                  : No
  167. Forced                                   : No
  168. Original source medium                   : Blu-ray

  169. Text #8
  170. ID                                       : 11
  171. ID in the original source medium         : 4614 (0x1206)
  172. Format                                   : PGS
  173. Muxing mode                              : zlib
  174. Codec ID                                 : S_HDMV/PGS
  175. Codec ID/Info                            : Picture based subtitle format used on BDs/HD-DVDs
  176. Duration                                 : 1 h 37 min
  177. Bit rate                                 : 565 b/s
  178. Count of elements                        : 44
  179. Stream size                              : 403 KiB (0%)
  180. Language                                 : French
  181. Default                                  : No
  182. Forced                                   : No
  183. Original source medium                   : Blu-ray

  184. Text #9
  185. ID                                       : 12
  186. ID in the original source medium         : 4615 (0x1207)
  187. Format                                   : PGS
  188. Muxing mode                              : zlib
  189. Codec ID                                 : S_HDMV/PGS
  190. Codec ID/Info                            : Picture based subtitle format used on BDs/HD-DVDs
  191. Duration                                 : 1 h 37 min
  192. Bit rate                                 : 688 b/s
  193. Count of elements                        : 46
  194. Stream size                              : 490 KiB (0%)
  195. Language                                 : German
  196. Default                                  : No
  197. Forced                                   : No
  198. Original source medium                   : Blu-ray

  199. Text #10
  200. ID                                       : 13
  201. ID in the original source medium         : 4616 (0x1208)
  202. Format                                   : PGS
  203. Muxing mode                              : zlib
  204. Codec ID                                 : S_HDMV/PGS
  205. Codec ID/Info                            : Picture based subtitle format used on BDs/HD-DVDs
  206. Duration                                 : 1 h 37 min
  207. Bit rate                                 : 724 b/s
  208. Count of elements                        : 50
  209. Stream size                              : 517 KiB (0%)
  210. Language                                 : Italian
  211. Default                                  : No
  212. Forced                                   : No
  213. Original source medium                   : Blu-ray

  214. Menu
  215. 00:00:00.000                             : en:Chapter 01
  216. 00:07:12.641                             : en:Chapter 02
  217. 00:13:54.834                             : en:Chapter 03
  218. 00:19:13.277                             : en:Chapter 04
  219. 00:23:44.673                             : en:Chapter 05
  220. 00:31:39.564                             : en:Chapter 06
  221. 00:36:49.499                             : en:Chapter 07
  222. 00:40:25.757                             : en:Chapter 08
  223. 00:43:05.833                             : en:Chapter 09
  224. 00:46:51.308                             : en:Chapter 10
  225. 00:50:38.327                             : en:Chapter 11
  226. 00:55:08.805                             : en:Chapter 12
  227. 00:58:03.146                             : en:Chapter 13
  228. 01:05:08.488                             : en:Chapter 14
  229. 01:09:40.718                             : en:Chapter 15
  230. 01:14:56.450                             : en:Chapter 16
  231. 01:21:05.027                             : en:Chapter 17
  232. 01:24:07.709                             : en:Chapter 18
  233. 01:33:20.386                             : en:Chapter 19
  234. 01:37:16.664                             : en:Chapter 20
复制代码




                                       
                                       

                                       
                                       
                                       




Ticket.to.Paradise.2022.1080p.BluRay.x264-KNiVES.torrent (16.73 KB, 下载次数: 1)
回复

使用道具 举报

您需要登录后才可以回帖 登录 | 立即注册

本版积分规则

QQ|Archiver|手机版|小黑屋|蓝光电影网

GMT+8, 2023-2-2 00:18 , Processed in 0.057465 second(s), 28 queries .

Powered by Discuz! X3.4

Copyright © 2001-2020, Tencent Cloud.

快速回复 返回顶部 返回列表