找回密码
 立即注册

QQ登录

只需一步,快速开始

查看: 74|回复: 0

[喜剧片] 天堂门票 Ticket.to.Paradise.2022.720p.BluRay.x264-KNiVES 3.01GB

[复制链接]

0

精华

0

好友

2

听众

新手上路

Rank: 2

蓝光币
5
发表于 2022-11-30 06:50:32 | 显示全部楼层 |阅读模式
[img][/img]

◎标  题 天堂门票
◎译  名 幸福入场券(台) / 天堂的门票 / 通天票
◎片  名 Ticket To Paradise
◎年  代 2022
◎产  地 美国
◎类  别 喜剧 / 爱情
◎语  言 英语
◎上映日期 2022-09-14(澳大利亚) / 2022-10-21(美国)
◎IMDb评分 6.2/10 (496人评价)
◎IMDb链接 https://www.imdb.com/title/tt14109724/
◎豆瓣链接 https://movie.douban.com/subject/35382459/
◎片  长 104分钟
◎导  演 欧·帕克 Ol Parker
◎编  剧 欧·帕克 Ol Parker
       丹尼尔·皮普斯基 Daniel Pipski
◎演  员 朱莉娅·罗伯茨 Julia Roberts
       乔治·克鲁尼 George Clooney
       凯特琳·德弗 Kaitlyn Dever
       马克西姆·布蒂尔 Maxime Bouttier
       比莉·洛德 Billie Lourd
       卢卡斯·布哈沃 Lucas Bravo
       塞纳·梅布拉图 Senayt Mebrahtu
       塔拉·森图尔克 Talha Şentürk
       穆兰·凯恩 Murran Kain
       肖恩·林奇 Sean Lynch
       艾萨克·普瑞斯特 Isaac Priest
       罗米·普利耶 Romy Poulier
       凡妮莎·埃弗里特 Vanesa Everett
       辛提亚·达玛扬提 Cintya Dharmayanti
       罗温··查普曼 Rowan Chapman
       易卜拉欣·伊西克塔斯 Ibrahim Isiktas
       阿曼达·奥登普西 Amanda O'Dempsey
◎简  介

  乔治·克鲁尼、朱莉娅·罗伯茨大银幕再度合体,饰演一对早已离婚的夫妻被迫携手合作,试图阻止他们被爱冲昏了头的女儿犯下他们曾经犯过的错误。本片是一部关于第二次机会带来的甜美惊喜的爱情喜剧片。
  1. Video
  2. ID                                       : 1
  3. Format                                   : AVC
  4. Format/Info                              : Advanced Video Codec
  5. Format profile                           : [email protected]
  6. Format settings                          : CABAC / 8 Ref Frames
  7. Format settings, CABAC                   : Yes
  8. Format settings, Reference frames        : 8 frames
  9. Codec ID                                 : V_MPEG4/ISO/AVC
  10. Duration                                 : 1 h 44 min
  11. Bit rate                                 : 3 273 kb/s
  12. Width                                    : 1 280 pixels
  13. Height                                   : 536 pixels
  14. Display aspect ratio                     : 2.40:1
  15. Frame rate mode                          : Constant
  16. Frame rate                               : 23.976 (24000/1001/189150) FPS
  17. Color space                              : YUV
  18. Chroma subsampling                       : 4:2:0
  19. Bit depth                                : 8 bits
  20. Scan type                                : Progressive
  21. Bits/(Pixel*Frame)                       : 0.199
  22. Stream size                              : 2.38 GiB (79%)
  23. Writing library                          : x264 core 164 r3101 b093bbe
  24. Encoding settings                        : cabac=1 / ref=8 / deblock=1:-3:-3 / analyse=0x3:0x133 / me=umh / subme=9 / psy=1 / psy_rd=1.00:0.00 / mixed_ref=1 / me_range=16 / chroma_me=1 / trellis=2 / 8x8dct=1 / cqm=0 / deadzone=21,11 / fast_pskip=0 / chroma_qp_offset=-2 / threads=17 / lookahead_threads=1 / sliced_threads=0 / nr=0 / decimate=1 / interlaced=0 / bluray_compat=0 / constrained_intra=0 / bframes=3 / b_pyramid=2 / b_adapt=2 / b_bias=0 / direct=3 / weightb=1 / open_gop=0 / weightp=2 / keyint=250 / keyint_min=23 / scenecut=40 / intra_refresh=0 / rc_lookahead=60 / rc=crf / mbtree=1 / crf=17.0 / qcomp=0.60 / qpmin=0 / qpmax=69 / qpstep=4 / ip_ratio=1.40 / aq=1:1.00
  25. Language                                 : English
  26. Default                                  : Yes
  27. Forced                                   : No

  28. Audio #1
  29. ID                                       : 2
  30. Format                                   : AC-3
  31. Format/Info                              : Audio Coding 3
  32. Commercial name                          : Dolby Digital
  33. Codec ID                                 : A_AC3
  34. Duration                                 : 1 h 44 min
  35. Bit rate mode                            : Constant
  36. Bit rate                                 : 640 kb/s
  37. Channel(s)                               : 6 channels
  38. Channel layout                           : L R C LFE Ls Rs
  39. Sampling rate                            : 48.0 kHz
  40. Frame rate                               : 31.250 FPS (1536 SPF)
  41. Compression mode                         : Lossy
  42. Stream size                              : 476 MiB (15%)
  43. Language                                 : English
  44. Service kind                             : Complete Main
  45. Default                                  : Yes
  46. Forced                                   : No

  47. Audio #2
  48. ID                                       : 3
  49. Format                                   : AAC LC
  50. Format/Info                              : Advanced Audio Codec Low Complexity
  51. Codec ID                                 : A_AAC-2
  52. Duration                                 : 1 h 44 min
  53. Bit rate                                 : 122 kb/s
  54. Channel(s)                               : 2 channels
  55. Channel layout                           : L R
  56. Sampling rate                            : 48.0 kHz
  57. Frame rate                               : 46.875 FPS (1024 SPF)
  58. Compression mode                         : Lossy
  59. Delay relative to video                  : 9 ms
  60. Stream size                              : 90.5 MiB (3%)
  61. Title                                    : commentary
  62. Language                                 : English
  63. Default                                  : No
  64. Forced                                   : No

  65. Text #1
  66. ID                                       : 4
  67. Format                                   : UTF-8
  68. Codec ID                                 : S_TEXT/UTF8
  69. Codec ID/Info                            : UTF-8 Plain Text
  70. Duration                                 : 19 min 22 s
  71. Bit rate                                 : 3 b/s
  72. Count of elements                        : 16
  73. Stream size                              : 437 Bytes (0%)
  74. Language                                 : English
  75. Default                                  : Yes
  76. Forced                                   : Yes

  77. Text #2
  78. ID                                       : 5
  79. ID in the original source medium         : 4608 (0x1200)
  80. Format                                   : PGS
  81. Muxing mode                              : zlib
  82. Codec ID                                 : S_HDMV/PGS
  83. Codec ID/Info                            : Picture based subtitle format used on BDs/HD-DVDs
  84. Duration                                 : 1 h 38 min
  85. Bit rate                                 : 55.9 kb/s
  86. Count of elements                        : 3662
  87. Stream size                              : 39.5 MiB (1%)
  88. Language                                 : English
  89. Default                                  : No
  90. Forced                                   : No
  91. Original source medium                   : Blu-ray

  92. Text #3
  93. ID                                       : 6
  94. ID in the original source medium         : 4609 (0x1201)
  95. Format                                   : PGS
  96. Muxing mode                              : zlib
  97. Codec ID                                 : S_HDMV/PGS
  98. Codec ID/Info                            : Picture based subtitle format used on BDs/HD-DVDs
  99. Duration                                 : 1 h 43 min
  100. Bit rate                                 : 36.9 kb/s
  101. Count of elements                        : 2944
  102. Stream size                              : 27.3 MiB (1%)
  103. Language                                 : French
  104. Default                                  : No
  105. Forced                                   : No
  106. Original source medium                   : Blu-ray

  107. Text #4
  108. ID                                       : 7
  109. ID in the original source medium         : 4610 (0x1202)
  110. Format                                   : PGS
  111. Muxing mode                              : zlib
  112. Codec ID                                 : S_HDMV/PGS
  113. Codec ID/Info                            : Picture based subtitle format used on BDs/HD-DVDs
  114. Duration                                 : 1 h 43 min
  115. Bit rate                                 : 42.5 kb/s
  116. Count of elements                        : 2628
  117. Stream size                              : 31.4 MiB (1%)
  118. Language                                 : German
  119. Default                                  : No
  120. Forced                                   : No
  121. Original source medium                   : Blu-ray

  122. Text #5
  123. ID                                       : 8
  124. ID in the original source medium         : 4611 (0x1203)
  125. Format                                   : PGS
  126. Muxing mode                              : zlib
  127. Codec ID                                 : S_HDMV/PGS
  128. Codec ID/Info                            : Picture based subtitle format used on BDs/HD-DVDs
  129. Duration                                 : 1 h 43 min
  130. Bit rate                                 : 42.3 kb/s
  131. Count of elements                        : 2966
  132. Stream size                              : 31.3 MiB (1%)
  133. Language                                 : Italian
  134. Default                                  : No
  135. Forced                                   : No
  136. Original source medium                   : Blu-ray

  137. Text #6
  138. ID                                       : 9
  139. ID in the original source medium         : 4612 (0x1204)
  140. Format                                   : PGS
  141. Muxing mode                              : zlib
  142. Codec ID                                 : S_HDMV/PGS
  143. Codec ID/Info                            : Picture based subtitle format used on BDs/HD-DVDs
  144. Duration                                 : 1 h 43 min
  145. Bit rate                                 : 35.0 kb/s
  146. Count of elements                        : 2068
  147. Stream size                              : 25.9 MiB (1%)
  148. Language                                 : Dutch
  149. Default                                  : No
  150. Forced                                   : No
  151. Original source medium                   : Blu-ray

  152. Text #7
  153. ID                                       : 10
  154. ID in the original source medium         : 4613 (0x1205)
  155. Format                                   : PGS
  156. Muxing mode                              : zlib
  157. Codec ID                                 : S_HDMV/PGS
  158. Codec ID/Info                            : Picture based subtitle format used on BDs/HD-DVDs
  159. Duration                                 : 19 min 22 s
  160. Bit rate                                 : 1 675 b/s
  161. Count of elements                        : 32
  162. Stream size                              : 238 KiB (0%)
  163. Language                                 : English
  164. Default                                  : No
  165. Forced                                   : No
  166. Original source medium                   : Blu-ray

  167. Text #8
  168. ID                                       : 11
  169. ID in the original source medium         : 4614 (0x1206)
  170. Format                                   : PGS
  171. Muxing mode                              : zlib
  172. Codec ID                                 : S_HDMV/PGS
  173. Codec ID/Info                            : Picture based subtitle format used on BDs/HD-DVDs
  174. Duration                                 : 1 h 37 min
  175. Bit rate                                 : 565 b/s
  176. Count of elements                        : 44
  177. Stream size                              : 403 KiB (0%)
  178. Language                                 : French
  179. Default                                  : No
  180. Forced                                   : No
  181. Original source medium                   : Blu-ray

  182. Text #9
  183. ID                                       : 12
  184. ID in the original source medium         : 4615 (0x1207)
  185. Format                                   : PGS
  186. Muxing mode                              : zlib
  187. Codec ID                                 : S_HDMV/PGS
  188. Codec ID/Info                            : Picture based subtitle format used on BDs/HD-DVDs
  189. Duration                                 : 1 h 37 min
  190. Bit rate                                 : 688 b/s
  191. Count of elements                        : 46
  192. Stream size                              : 490 KiB (0%)
  193. Language                                 : German
  194. Default                                  : No
  195. Forced                                   : No
  196. Original source medium                   : Blu-ray

  197. Text #10
  198. ID                                       : 13
  199. ID in the original source medium         : 4616 (0x1208)
  200. Format                                   : PGS
  201. Muxing mode                              : zlib
  202. Codec ID                                 : S_HDMV/PGS
  203. Codec ID/Info                            : Picture based subtitle format used on BDs/HD-DVDs
  204. Duration                                 : 1 h 37 min
  205. Bit rate                                 : 724 b/s
  206. Count of elements                        : 50
  207. Stream size                              : 517 KiB (0%)
  208. Language                                 : Italian
  209. Default                                  : No
  210. Forced                                   : No
  211. Original source medium                   : Blu-ray

  212. Menu
  213. 00:00:00.000                             : en:Chapter 01
  214. 00:07:12.641                             : en:Chapter 02
  215. 00:13:54.834                             : en:Chapter 03
  216. 00:19:13.277                             : en:Chapter 04
  217. 00:23:44.673                             : en:Chapter 05
  218. 00:31:39.564                             : en:Chapter 06
  219. 00:36:49.499                             : en:Chapter 07
  220. 00:40:25.757                             : en:Chapter 08
  221. 00:43:05.833                             : en:Chapter 09
  222. 00:46:51.308                             : en:Chapter 10
  223. 00:50:38.327                             : en:Chapter 11
  224. 00:55:08.805                             : en:Chapter 12
  225. 00:58:03.146                             : en:Chapter 13
  226. 01:05:08.488                             : en:Chapter 14
  227. 01:09:40.718                             : en:Chapter 15
  228. 01:14:56.450                             : en:Chapter 16
  229. 01:21:05.027                             : en:Chapter 17
  230. 01:24:07.709                             : en:Chapter 18
  231. 01:33:20.386                             : en:Chapter 19
  232. 01:37:16.664                             : en:Chapter 20
复制代码




                                       
                                       

                                       
                                       
                                       




Ticket.to.Paradise.2022.720p.BluRay.x264-KNiVES.torrent (15.79 KB, 下载次数: 2)
回复

使用道具 举报

您需要登录后才可以回帖 登录 | 立即注册

本版积分规则

QQ|Archiver|手机版|小黑屋|蓝光电影网

GMT+8, 2023-2-1 23:08 , Processed in 0.059057 second(s), 28 queries .

Powered by Discuz! X3.4

Copyright © 2001-2020, Tencent Cloud.

快速回复 返回顶部 返回列表