找回密码
 立即注册

QQ登录

只需一步,快速开始

查看: 58|回复: 0

[剧情片] 萨拉丁 Saladin.1963.ARABIC.1080p.WEBRip.x264-VXT 3.70GB

[复制链接]

0

精华

0

好友

2

听众

新手上路

Rank: 2

蓝光币
5
发表于 2022-11-30 06:29:44 | 显示全部楼层 |阅读模式
[img][/img]

◎标  题 萨拉丁
◎译  名 Saladin and the Great Crusades
◎片  名 El Naser Salah el Dine
◎年  代 1963
◎产  地 埃及
◎类  别 剧情 / 动作 / 冒险
◎语  言 阿拉伯语
◎上映日期 1963-07(莫斯科电影节)
◎IMDb评分 7.6/10 (2584人评价)
◎IMDb链接 https://www.imdb.com/title/tt0057357/
◎豆瓣评分 7.6/10 (124人评价)
◎豆瓣链接 https://movie.douban.com/subject/3240140/
◎片  长 175 分钟(Lebanon)
◎导  演 尤瑟夫·夏因 Youssef Chahine
◎编  剧 尤瑟夫·夏因 Youssef Chahine
       Naguib Mahfouz Naguib Mahfouz
       伊泽丁·祖勒菲卡尔 Ezzel Dine Zulficar
◎演  员 Ahmed Mazhar Ahmed Mazhar
       纳迪娅·卢特菲 Nadia Lutfi
       Salah Zulfikar Salah Zulfikar
       Hussein Riad Hussein Riad
       Tewfik El Dekn Tewfik El Dekn
       Mahmoud El-Meliguy Mahmoud El-Meliguy
       Omar El-Hariri Omar El-Hariri
       Nahed Sabri Nahed Sabri
       尤瑟夫·夏因 Youssef Chahine
       安杰洛·弗朗切斯科·拉瓦尼诺 Angelo Francesco Lavagnino
◎简  介

  11世纪末,以英、法、德等国组成的十字军发动了第三次东征,大肆侵略阿拉伯土地。埃及军民在萨拉丁苏丹(即国王)的亲自率领下,奋起反抗。在亚历山大港一战中,击退了十字军的进攻,给十字军以沉重打击。为了收复圣地耶路撒冷,萨拉丁积极准备,联合阿拉伯各国军队,共同对敌。在赫淀山战役中,萨拉丁派主将阿瓦姆夜袭敌营,捣毁敌军的蓄水罐,引敌下山,采用“火墙战术”,打得十字军落花流水。结果,狂妄自大的法军首领里诺被俘,并得到了应有的惩罚。                                       
                                    为了实现占有耶路撒冷的野心,法军首领里诺的妻子弗吉尼亚从欧洲请来以英王理查为首的各国援军。十字军凭借战略优势向阿克要塞进攻,由于阿克城总督利欲熏心,卖身投敌,阿拉伯军民虽经苦战,但阿克城最终失守。十字军占领了阿克城,继而又发动了对阿什克伦城的进攻,英王理查急于取胜,动用大型战车攻城。萨拉丁面对强敌,暂时弃城而走,诱敌于沼泽地带,变被...
  1. Video
  2. ID                                       : 1
  3. Format                                   : AVC
  4. Format/Info                              : Advanced Video Codec
  5. Format profile                           : [email protected]
  6. Format settings                          : CABAC / 4 Ref Frames
  7. Format settings, CABAC                   : Yes
  8. Format settings, Reference frames        : 4 frames
  9. Codec ID                                 : avc1
  10. Codec ID/Info                            : Advanced Video Coding
  11. Duration                                 : 3 h 14 min
  12. Bit rate                                 : 2 500 kb/s
  13. Width                                    : 1 920 pixels
  14. Height                                   : 816 pixels
  15. Display aspect ratio                     : 2.35:1
  16. Frame rate mode                          : Constant
  17. Frame rate                               : 24.000 FPS
  18. Color space                              : YUV
  19. Chroma subsampling                       : 4:2:0
  20. Bit depth                                : 8 bits
  21. Scan type                                : Progressive
  22. Bits/(Pixel*Frame)                       : 0.066
  23. Stream size                              : 3.39 GiB (92%)
  24. Writing library                          : x264 core 152 r2851M ba24899
  25. Encoding settings                        : cabac=1 / ref=4 / deblock=1:-1:-1 / analyse=0x3:0x113 / me=umh / subme=9 / psy=1 / psy_rd=1.00:0.15 / mixed_ref=1 / me_range=24 / chroma_me=1 / trellis=2 / 8x8dct=1 / cqm=0 / deadzone=21,11 / fast_pskip=1 / chroma_qp_offset=-3 / threads=16 / lookahead_threads=4 / sliced_threads=0 / nr=0 / decimate=1 / interlaced=0 / bluray_compat=0 / constrained_intra=0 / bframes=3 / b_pyramid=2 / b_adapt=2 / b_bias=0 / direct=3 / weightb=1 / open_gop=0 / weightp=2 / keyint=250 / keyint_min=25 / scenecut=40 / intra_refresh=0 / rc_lookahead=50 / rc=2pass / mbtree=1 / bitrate=2500 / ratetol=1.0 / qcomp=0.60 / qpmin=0 / qpmax=69 / qpstep=4 / cplxblur=20.0 / qblur=0.5 / vbv_maxrate=31250 / vbv_bufsize=31250 / nal_hrd=none / filler=0 / ip_ratio=1.40 / aq=3:1.00
  26. Encoded date                             : UTC 2022-11-29 12:43:05
  27. Tagged date                              : UTC 2022-11-29 12:43:05
  28. Codec configuration box                  : avcC
  29. Audio
  30. ID                                       : 2
  31. Format                                   : AAC LC
  32. Format/Info                              : Advanced Audio Codec Low Complexity
  33. Codec ID                                 : mp4a-40-2
  34. Duration                                 : 3 h 14 min
  35. Duration_LastFrame                       : -11 ms
  36. Bit rate mode                            : Constant
  37. Bit rate                                 : 224 kb/s
  38. Channel(s)                               : 2 channels
  39. Channel layout                           : L R
  40. Sampling rate                            : 48.0 kHz
  41. Frame rate                               : 46.875 FPS (1024 SPF)
  42. Compression mode                         : Lossy
  43. Stream size                              : 311 MiB (8%)
  44. Language                                 : Arabic
  45. Default                                  : Yes
  46. Alternate group                          : 1
  47. Encoded date                             : UTC 2022-11-29 12:43:05
  48. Tagged date                              : UTC 2022-11-29 12:43:05
复制代码




                                       
                                       

                                       
                                       
                                       




Saladin.1963.ARABIC.1080p.WEBRip.x264-VXT.torrent (19.24 KB, 下载次数: 0)
回复

使用道具 举报

您需要登录后才可以回帖 登录 | 立即注册

本版积分规则

QQ|Archiver|手机版|小黑屋|蓝光电影网

GMT+8, 2023-2-1 23:11 , Processed in 0.112299 second(s), 28 queries .

Powered by Discuz! X3.4

Copyright © 2001-2020, Tencent Cloud.

快速回复 返回顶部 返回列表