找回密码
 立即注册

QQ登录

只需一步,快速开始

查看: 112|回复: 0

[其他] 解禁男女 Love.and.Leashes.2022.KOREAN.2160p.NF.WEB-DL.x265.10bit.HDR.DDP5.1.Atmos-MARK 15.48GB

[复制链接]

0

精华

0

好友

2

听众

新手上路

Rank: 2

蓝光币
5
发表于 2022-11-29 07:50:20 | 显示全部楼层 |阅读模式
[img][/img]

◎标  题 解禁男女
◎译  名 道德感 / Moral Sense / Love and Leashes
◎片  名 모럴 센스
◎年  代 2022
◎产  地 韩国
◎类  别 喜剧 / 爱情
◎语  言 韩语
◎上映日期 2022-02-11(韩国网络)
◎IMDb评分 6.3/10 (3838人评价)
◎IMDb链接 https://www.imdb.com/title/tt15553956/
◎豆瓣评分 6.6/10 (29025人评价)
◎豆瓣链接 https://movie.douban.com/subject/35241052/
◎片  长 118分钟
◎导  演 朴贤真 Hyeon-jin Park
◎编  剧 朴贤真 Hyeon-jin Park
◎演  员 徐贤 Seohyun
       李濬荣 Joon-young Lee
       李艾 Elle Lee
       徐贤宇 Seo Hyeon-woo
       白贤珠 Hyunjoo Baek
       金汉娜 Han-na Kim
       安承钧 Seung-gyun An
       金宝罗 Bora Kim
       李世亨 Lee Suk Hyeong
       冯翠杏 Nicole Fong
       达伦·凯兰 Darren Keilan
       哈里森·徐 Harrison Xu
◎简  介

  郑智厚(李浚荣 饰)是刚刚专职到公关部的代理,巧合的是,在公关部有一个名叫郑智宥(徐珠贤 饰)的职员,两人的名字竟然意外的相似。因为名字相似,某日,郑智宥误收了寄给郑智厚的包裹,打开之后震惊的发现里面竟然是一条情趣狗链,不过,这两人的关系因为这场社死而意外的变得亲密起来,郑智宥对于郑智厚开始有了别样的感觉。                                    
                                一天,郑智厚向郑智宥提出了请求,希望她能够成为自己的主人,出于对对方的感情,郑智宥答应了这个请求,并且开始了对于BDSM领域的探索,两人定下了为期三个月的契约,在这三个月里,郑智宥将每周对郑智厚进行一次调教活动。
  1. Video
  2. ID                                       : 1
  3. Format                                   : HEVC
  4. Format/Info                              : High Efficiency Video Coding
  5. Format profile                           : Main [email protected]@Main
  6. HDR format                               : Dolby Vision, Version 1.0, dvhe.08.06, BL+RPU, HDR10 compatible / SMPTE ST 2086, HDR10 compatible
  7. Codec ID                                 : V_MPEGH/ISO/HEVC
  8. Duration                                 : 1 h 57 min
  9. Bit rate                                 : 18.1 Mb/s
  10. Width                                    : 3 840 pixels
  11. Height                                   : 2 160 pixels
  12. Display aspect ratio                     : 16:9
  13. Frame rate mode                          : Constant
  14. Frame rate                               : 23.976 (24000/1001/189150) FPS
  15. Color space                              : YUV
  16. Chroma subsampling                       : 4:2:0 (Type 2)
  17. Bit depth                                : 10 bits
  18. Bits/(Pixel*Frame)                       : 0.091
  19. Stream size                              : 14.8 GiB (96%)
  20. Default                                  : Yes
  21. Forced                                   : No
  22. Color range                              : Limited
  23. Color primaries                          : BT.2020
  24. Transfer characteristics                 : PQ
  25. Matrix coefficients                      : BT.2020 non-constant
  26. Mastering display color primaries        : Display P3
  27. Mastering display luminance              : min: 0.0001 cd/m2, max: 1000 cd/m2
  28. Maximum Content Light Level              : 850 cd/m2
  29. Maximum Frame-Average Light Level        : 169 cd/m2

  30. Audio
  31. ID                                       : 2
  32. Format                                   : E-AC-3 JOC
  33. Format/Info                              : Enhanced AC-3 with Joint Object Coding
  34. Commercial name                          : Dolby Digital Plus with Dolby Atmos
  35. Codec ID                                 : A_EAC3
  36. Duration                                 : 1 h 58 min
  37. Bit rate mode                            : Constant
  38. Bit rate                                 : 768 kb/s
  39. Channel(s)                               : 6 channels
  40. Channel layout                           : L R C LFE Ls Rs
  41. Sampling rate                            : 48.0 kHz
  42. Frame rate                               : 31.250 FPS (1536 SPF)
  43. Compression mode                         : Lossy
  44. Stream size                              : 652 MiB (4%)
  45. Language                                 : Korean
  46. Service kind                             : Complete Main
  47. Default                                  : Yes
  48. Forced                                   : No
  49. Complexity index                         : 16
  50. Number of dynamic objects                : 15
  51. Bed channel count                        : 1 channel
  52. Bed channel configuration                : LFE

  53. Text #1
  54. ID                                       : 3
  55. Format                                   : UTF-8
  56. Codec ID                                 : S_TEXT/UTF8
  57. Codec ID/Info                            : UTF-8 Plain Text
  58. Duration                                 : 43 min 36 s
  59. Bit rate                                 : 0 b/s
  60. Frame rate                               : 0.002 FPS
  61. Count of elements                        : 6
  62. Stream size                              : 153 Bytes (0%)
  63. Title                                    : Forced
  64. Language                                 : Korean
  65. Default                                  : Yes
  66. Forced                                   : Yes

  67. Text #2
  68. ID                                       : 4
  69. Format                                   : UTF-8
  70. Codec ID                                 : S_TEXT/UTF8
  71. Codec ID/Info                            : UTF-8 Plain Text
  72. Duration                                 : 1 h 56 min
  73. Bit rate                                 : 68 b/s
  74. Frame rate                               : 0.263 FPS
  75. Count of elements                        : 1842
  76. Stream size                              : 58.7 KiB (0%)
  77. Language                                 : Korean
  78. Default                                  : No
  79. Forced                                   : No

  80. Text #3
  81. ID                                       : 5
  82. Format                                   : UTF-8
  83. Codec ID                                 : S_TEXT/UTF8
  84. Codec ID/Info                            : UTF-8 Plain Text
  85. Duration                                 : 1 h 56 min
  86. Bit rate                                 : 83 b/s
  87. Frame rate                               : 0.263 FPS
  88. Count of elements                        : 1842
  89. Stream size                              : 71.2 KiB (0%)
  90. Title                                    : SDH
  91. Language                                 : Korean
  92. Default                                  : No
  93. Forced                                   : No

  94. Text #4
  95. ID                                       : 6
  96. Format                                   : UTF-8
  97. Codec ID                                 : S_TEXT/UTF8
  98. Codec ID/Info                            : UTF-8 Plain Text
  99. Duration                                 : 1 h 56 min
  100. Bit rate                                 : 82 b/s
  101. Frame rate                               : 0.194 FPS
  102. Count of elements                        : 1357
  103. Stream size                              : 70.8 KiB (0%)
  104. Language                                 : Arabic
  105. Default                                  : No
  106. Forced                                   : No

  107. Text #5
  108. ID                                       : 7
  109. Format                                   : UTF-8
  110. Codec ID                                 : S_TEXT/UTF8
  111. Codec ID/Info                            : UTF-8 Plain Text
  112. Duration                                 : 1 h 56 min
  113. Bit rate                                 : 46 b/s
  114. Frame rate                               : 0.193 FPS
  115. Count of elements                        : 1349
  116. Stream size                              : 39.5 KiB (0%)
  117. Language                                 : Czech
  118. Default                                  : No
  119. Forced                                   : No

  120. Text #6
  121. ID                                       : 8
  122. Format                                   : UTF-8
  123. Codec ID                                 : S_TEXT/UTF8
  124. Codec ID/Info                            : UTF-8 Plain Text
  125. Duration                                 : 1 h 56 min
  126. Bit rate                                 : 42 b/s
  127. Frame rate                               : 0.187 FPS
  128. Count of elements                        : 1311
  129. Stream size                              : 36.3 KiB (0%)
  130. Language                                 : Danish
  131. Default                                  : No
  132. Forced                                   : No

  133. Text #7
  134. ID                                       : 9
  135. Format                                   : UTF-8
  136. Codec ID                                 : S_TEXT/UTF8
  137. Codec ID/Info                            : UTF-8 Plain Text
  138. Duration                                 : 1 h 56 min
  139. Bit rate                                 : 47 b/s
  140. Frame rate                               : 0.197 FPS
  141. Count of elements                        : 1378
  142. Stream size                              : 41.0 KiB (0%)
  143. Language                                 : German
  144. Default                                  : No
  145. Forced                                   : No

  146. Text #8
  147. ID                                       : 10
  148. Format                                   : UTF-8
  149. Codec ID                                 : S_TEXT/UTF8
  150. Codec ID/Info                            : UTF-8 Plain Text
  151. Duration                                 : 1 h 56 min
  152. Bit rate                                 : 81 b/s
  153. Frame rate                               : 0.192 FPS
  154. Count of elements                        : 1342
  155. Stream size                              : 69.5 KiB (0%)
  156. Language                                 : Greek
  157. Default                                  : No
  158. Forced                                   : No

  159. Text #9
  160. ID                                       : 11
  161. Format                                   : UTF-8
  162. Codec ID                                 : S_TEXT/UTF8
  163. Codec ID/Info                            : UTF-8 Plain Text
  164. Duration                                 : 1 h 53 min
  165. Bit rate                                 : 56 b/s
  166. Frame rate                               : 0.224 FPS
  167. Count of elements                        : 1531
  168. Stream size                              : 46.8 KiB (0%)
  169. Language                                 : English
  170. Default                                  : No
  171. Forced                                   : No

  172. Text #10
  173. ID                                       : 12
  174. Format                                   : UTF-8
  175. Codec ID                                 : S_TEXT/UTF8
  176. Codec ID/Info                            : UTF-8 Plain Text
  177. Duration                                 : 1 h 56 min
  178. Bit rate                                 : 64 b/s
  179. Frame rate                               : 0.276 FPS
  180. Count of elements                        : 1933
  181. Stream size                              : 55.5 KiB (0%)
  182. Title                                    : SDH
  183. Language                                 : English
  184. Default                                  : No
  185. Forced                                   : No

  186. Text #11
  187. ID                                       : 13
  188. Format                                   : UTF-8
  189. Codec ID                                 : S_TEXT/UTF8
  190. Codec ID/Info                            : UTF-8 Plain Text
  191. Duration                                 : 1 h 53 min
  192. Bit rate                                 : 56 b/s
  193. Frame rate                               : 0.224 FPS
  194. Count of elements                        : 1530
  195. Stream size                              : 46.7 KiB (0%)
  196. Language                                 : English
  197. Default                                  : No
  198. Forced                                   : No

  199. Text #12
  200. ID                                       : 14
  201. Format                                   : UTF-8
  202. Codec ID                                 : S_TEXT/UTF8
  203. Codec ID/Info                            : UTF-8 Plain Text
  204. Duration                                 : 1 h 53 min
  205. Bit rate                                 : 48 b/s
  206. Frame rate                               : 0.199 FPS
  207. Count of elements                        : 1354
  208. Stream size                              : 40.4 KiB (0%)
  209. Language                                 : English
  210. Default                                  : No
  211. Forced                                   : No

  212. Text #13
  213. ID                                       : 15
  214. Format                                   : UTF-8
  215. Codec ID                                 : S_TEXT/UTF8
  216. Codec ID/Info                            : UTF-8 Plain Text
  217. Duration                                 : 1 h 56 min
  218. Bit rate                                 : 45 b/s
  219. Frame rate                               : 0.195 FPS
  220. Count of elements                        : 1363
  221. Stream size                              : 39.0 KiB (0%)
  222. Language                                 : Spanish
  223. Default                                  : No
  224. Forced                                   : No

  225. Text #14
  226. ID                                       : 16
  227. Format                                   : UTF-8
  228. Codec ID                                 : S_TEXT/UTF8
  229. Codec ID/Info                            : UTF-8 Plain Text
  230. Duration                                 : 1 h 56 min
  231. Bit rate                                 : 48 b/s
  232. Frame rate                               : 0.195 FPS
  233. Count of elements                        : 1363
  234. Stream size                              : 41.4 KiB (0%)
  235. Title                                    : European
  236. Language                                 : Spanish
  237. Default                                  : No
  238. Forced                                   : No

  239. Text #15
  240. ID                                       : 17
  241. Format                                   : UTF-8
  242. Codec ID                                 : S_TEXT/UTF8
  243. Codec ID/Info                            : UTF-8 Plain Text
  244. Duration                                 : 1 h 56 min
  245. Bit rate                                 : 43 b/s
  246. Frame rate                               : 0.163 FPS
  247. Count of elements                        : 1140
  248. Stream size                              : 37.0 KiB (0%)
  249. Language                                 : Finnish
  250. Default                                  : No
  251. Forced                                   : No

  252. Text #16
  253. ID                                       : 18
  254. Format                                   : UTF-8
  255. Codec ID                                 : S_TEXT/UTF8
  256. Codec ID/Info                            : UTF-8 Plain Text
  257. Duration                                 : 1 h 56 min
  258. Bit rate                                 : 46 b/s
  259. Frame rate                               : 0.188 FPS
  260. Count of elements                        : 1315
  261. Stream size                              : 39.5 KiB (0%)
  262. Language                                 : fil
  263. Default                                  : No
  264. Forced                                   : No

  265. Text #17
  266. ID                                       : 19
  267. Format                                   : UTF-8
  268. Codec ID                                 : S_TEXT/UTF8
  269. Codec ID/Info                            : UTF-8 Plain Text
  270. Duration                                 : 1 h 56 min
  271. Bit rate                                 : 47 b/s
  272. Frame rate                               : 0.195 FPS
  273. Count of elements                        : 1366
  274. Stream size                              : 41.0 KiB (0%)
  275. Language                                 : French
  276. Default                                  : No
  277. Forced                                   : No

  278. Text #18
  279. ID                                       : 20
  280. Format                                   : UTF-8
  281. Codec ID                                 : S_TEXT/UTF8
  282. Codec ID/Info                            : UTF-8 Plain Text
  283. Duration                                 : 1 h 56 min
  284. Bit rate                                 : 79 b/s
  285. Frame rate                               : 0.192 FPS
  286. Count of elements                        : 1344
  287. Stream size                              : 68.1 KiB (0%)
  288. Language                                 : Hebrew
  289. Default                                  : No
  290. Forced                                   : No

  291. Text #19
  292. ID                                       : 21
  293. Format                                   : UTF-8
  294. Codec ID                                 : S_TEXT/UTF8
  295. Codec ID/Info                            : UTF-8 Plain Text
  296. Duration                                 : 1 h 56 min
  297. Bit rate                                 : 41 b/s
  298. Frame rate                               : 0.194 FPS
  299. Count of elements                        : 1356
  300. Stream size                              : 35.7 KiB (0%)
  301. Language                                 : Croatian
  302. Default                                  : No
  303. Forced                                   : No

  304. Text #20
  305. ID                                       : 22
  306. Format                                   : UTF-8
  307. Codec ID                                 : S_TEXT/UTF8
  308. Codec ID/Info                            : UTF-8 Plain Text
  309. Duration                                 : 1 h 56 min
  310. Bit rate                                 : 44 b/s
  311. Frame rate                               : 0.195 FPS
  312. Count of elements                        : 1363
  313. Stream size                              : 37.9 KiB (0%)
  314. Language                                 : Hungarian
  315. Default                                  : No
  316. Forced                                   : No

  317. Text #21
  318. ID                                       : 23
  319. Format                                   : UTF-8
  320. Codec ID                                 : S_TEXT/UTF8
  321. Codec ID/Info                            : UTF-8 Plain Text
  322. Duration                                 : 1 h 56 min
  323. Bit rate                                 : 42 b/s
  324. Frame rate                               : 0.220 FPS
  325. Count of elements                        : 1543
  326. Stream size                              : 36.3 KiB (0%)
  327. Language                                 : Indonesian
  328. Default                                  : No
  329. Forced                                   : No

  330. Text #22
  331. ID                                       : 24
  332. Format                                   : UTF-8
  333. Codec ID                                 : S_TEXT/UTF8
  334. Codec ID/Info                            : UTF-8 Plain Text
  335. Duration                                 : 1 h 56 min
  336. Bit rate                                 : 52 b/s
  337. Frame rate                               : 0.196 FPS
  338. Count of elements                        : 1371
  339. Stream size                              : 45.2 KiB (0%)
  340. Language                                 : Italian
  341. Default                                  : No
  342. Forced                                   : No

  343. Text #23
  344. ID                                       : 25
  345. Format                                   : UTF-8
  346. Codec ID                                 : S_TEXT/UTF8
  347. Codec ID/Info                            : UTF-8 Plain Text
  348. Duration                                 : 1 h 56 min
  349. Bit rate                                 : 43 b/s
  350. Frame rate                               : 0.198 FPS
  351. Count of elements                        : 1386
  352. Stream size                              : 37.3 KiB (0%)
  353. Language                                 : Japanese
  354. Default                                  : No
  355. Forced                                   : No

  356. Text #24
  357. ID                                       : 26
  358. Format                                   : UTF-8
  359. Codec ID                                 : S_TEXT/UTF8
  360. Codec ID/Info                            : UTF-8 Plain Text
  361. Duration                                 : 1 h 56 min
  362. Bit rate                                 : 41 b/s
  363. Frame rate                               : 0.200 FPS
  364. Count of elements                        : 1398
  365. Stream size                              : 35.5 KiB (0%)
  366. Language                                 : Malay
  367. Default                                  : No
  368. Forced                                   : No

  369. Text #25
  370. ID                                       : 27
  371. Format                                   : UTF-8
  372. Codec ID                                 : S_TEXT/UTF8
  373. Codec ID/Info                            : UTF-8 Plain Text
  374. Duration                                 : 1 h 56 min
  375. Bit rate                                 : 44 b/s
  376. Frame rate                               : 0.183 FPS
  377. Count of elements                        : 1285
  378. Stream size                              : 38.1 KiB (0%)
  379. Language                                 : Norwegian Bokmal
  380. Default                                  : No
  381. Forced                                   : No

  382. Text #26
  383. ID                                       : 28
  384. Format                                   : UTF-8
  385. Codec ID                                 : S_TEXT/UTF8
  386. Codec ID/Info                            : UTF-8 Plain Text
  387. Duration                                 : 1 h 56 min
  388. Bit rate                                 : 41 b/s
  389. Frame rate                               : 0.173 FPS
  390. Count of elements                        : 1215
  391. Stream size                              : 35.9 KiB (0%)
  392. Language                                 : Dutch
  393. Default                                  : No
  394. Forced                                   : No

  395. Text #27
  396. ID                                       : 29
  397. Format                                   : UTF-8
  398. Codec ID                                 : S_TEXT/UTF8
  399. Codec ID/Info                            : UTF-8 Plain Text
  400. Duration                                 : 1 h 56 min
  401. Bit rate                                 : 44 b/s
  402. Frame rate                               : 0.193 FPS
  403. Count of elements                        : 1350
  404. Stream size                              : 38.0 KiB (0%)
  405. Language                                 : Polish
  406. Default                                  : No
  407. Forced                                   : No

  408. Text #28
  409. ID                                       : 30
  410. Format                                   : UTF-8
  411. Codec ID                                 : S_TEXT/UTF8
  412. Codec ID/Info                            : UTF-8 Plain Text
  413. Duration                                 : 1 h 56 min
  414. Bit rate                                 : 44 b/s
  415. Frame rate                               : 0.195 FPS
  416. Count of elements                        : 1365
  417. Stream size                              : 38.2 KiB (0%)
  418. Language                                 : Portuguese
  419. Default                                  : No
  420. Forced                                   : No

  421. Text #29
  422. ID                                       : 31
  423. Format                                   : UTF-8
  424. Codec ID                                 : S_TEXT/UTF8
  425. Codec ID/Info                            : UTF-8 Plain Text
  426. Duration                                 : 1 h 56 min
  427. Bit rate                                 : 48 b/s
  428. Frame rate                               : 0.190 FPS
  429. Count of elements                        : 1327
  430. Stream size                              : 41.1 KiB (0%)
  431. Title                                    : Brazilian
  432. Language                                 : Portuguese
  433. Default                                  : No
  434. Forced                                   : No

  435. Text #30
  436. ID                                       : 32
  437. Format                                   : UTF-8
  438. Codec ID                                 : S_TEXT/UTF8
  439. Codec ID/Info                            : UTF-8 Plain Text
  440. Duration                                 : 1 h 56 min
  441. Bit rate                                 : 50 b/s
  442. Frame rate                               : 0.193 FPS
  443. Count of elements                        : 1352
  444. Stream size                              : 43.2 KiB (0%)
  445. Language                                 : Romanian
  446. Default                                  : No
  447. Forced                                   : No

  448. Text #31
  449. ID                                       : 33
  450. Format                                   : UTF-8
  451. Codec ID                                 : S_TEXT/UTF8
  452. Codec ID/Info                            : UTF-8 Plain Text
  453. Duration                                 : 1 h 56 min
  454. Bit rate                                 : 82 b/s
  455. Frame rate                               : 0.195 FPS
  456. Count of elements                        : 1366
  457. Stream size                              : 70.6 KiB (0%)
  458. Language                                 : Russian
  459. Default                                  : No
  460. Forced                                   : No

  461. Text #32
  462. ID                                       : 34
  463. Format                                   : UTF-8
  464. Codec ID                                 : S_TEXT/UTF8
  465. Codec ID/Info                            : UTF-8 Plain Text
  466. Duration                                 : 1 h 53 min
  467. Bit rate                                 : 49 b/s
  468. Frame rate                               : 0.170 FPS
  469. Count of elements                        : 1160
  470. Stream size                              : 41.0 KiB (0%)
  471. Language                                 : Swedish
  472. Default                                  : No
  473. Forced                                   : No

  474. Text #33
  475. ID                                       : 35
  476. Format                                   : UTF-8
  477. Codec ID                                 : S_TEXT/UTF8
  478. Codec ID/Info                            : UTF-8 Plain Text
  479. Duration                                 : 1 h 56 min
  480. Bit rate                                 : 135 b/s
  481. Frame rate                               : 0.219 FPS
  482. Count of elements                        : 1533
  483. Stream size                              : 116 KiB (0%)
  484. Language                                 : Thai
  485. Default                                  : No
  486. Forced                                   : No

  487. Text #34
  488. ID                                       : 36
  489. Format                                   : UTF-8
  490. Codec ID                                 : S_TEXT/UTF8
  491. Codec ID/Info                            : UTF-8 Plain Text
  492. Duration                                 : 1 h 56 min
  493. Bit rate                                 : 46 b/s
  494. Frame rate                               : 0.184 FPS
  495. Count of elements                        : 1293
  496. Stream size                              : 39.9 KiB (0%)
  497. Language                                 : Turkish
  498. Default                                  : No
  499. Forced                                   : No

  500. Text #35
  501. ID                                       : 37
  502. Format                                   : UTF-8
  503. Codec ID                                 : S_TEXT/UTF8
  504. Codec ID/Info                            : UTF-8 Plain Text
  505. Duration                                 : 1 h 56 min
  506. Bit rate                                 : 81 b/s
  507. Frame rate                               : 0.195 FPS
  508. Count of elements                        : 1368
  509. Stream size                              : 69.4 KiB (0%)
  510. Language                                 : Ukrainian
  511. Default                                  : No
  512. Forced                                   : No

  513. Text #36
  514. ID                                       : 38
  515. Format                                   : UTF-8
  516. Codec ID                                 : S_TEXT/UTF8
  517. Codec ID/Info                            : UTF-8 Plain Text
  518. Duration                                 : 1 h 56 min
  519. Bit rate                                 : 74 b/s
  520. Frame rate                               : 0.193 FPS
  521. Count of elements                        : 1353
  522. Stream size                              : 63.4 KiB (0%)
  523. Language                                 : Vietnamese
  524. Default                                  : No
  525. Forced                                   : No

  526. Text #37
  527. ID                                       : 39
  528. Format                                   : UTF-8
  529. Codec ID                                 : S_TEXT/UTF8
  530. Codec ID/Info                            : UTF-8 Plain Text
  531. Duration                                 : 1 h 56 min
  532. Bit rate                                 : 52 b/s
  533. Frame rate                               : 0.224 FPS
  534. Count of elements                        : 1566
  535. Stream size                              : 45.1 KiB (0%)
  536. Title                                    : Simplified
  537. Language                                 : Chinese
  538. Default                                  : No
  539. Forced                                   : No

  540. Text #38
  541. ID                                       : 40
  542. Format                                   : UTF-8
  543. Codec ID                                 : S_TEXT/UTF8
  544. Codec ID/Info                            : UTF-8 Plain Text
  545. Duration                                 : 1 h 56 min
  546. Bit rate                                 : 51 b/s
  547. Frame rate                               : 0.212 FPS
  548. Count of elements                        : 1483
  549. Stream size                              : 44.4 KiB (0%)
  550. Title                                    : Traditional
  551. Language                                 : Chinese
  552. Default                                  : No
  553. Forced                                   : No

  554. Menu
  555. 01:54:09.000                             : en:End Credits
复制代码




                                       
                                       

                                       
                                       
                                       




Love.and.Leashes.2022.KOREAN.2160p.NF.WEB-DL.x265.10bit.HDR.DDP5.1.Atmos-MARK.torrent (20.01 KB, 下载次数: 2)
回复

使用道具 举报

您需要登录后才可以回帖 登录 | 立即注册

本版积分规则

QQ|Archiver|手机版|小黑屋|蓝光电影网

GMT+8, 2023-2-1 23:03 , Processed in 0.086471 second(s), 28 queries .

Powered by Discuz! X3.4

Copyright © 2001-2020, Tencent Cloud.

快速回复 返回顶部 返回列表