找回密码
 立即注册

QQ登录

只需一步,快速开始

查看: 98|回复: 0

[其他] 灰影人 The.Gray.Man.2022.22160p.NF.WEB-DL.x265.10bit.HDR.DDP5.1.Atmos-APEX 13.43GB

[复制链接]

0

精华

0

好友

2

听众

新手上路

Rank: 2

蓝光币
5
发表于 2022-11-29 07:50:17 | 显示全部楼层 |阅读模式
[img][/img]

◎标  题 灰影人
◎译  名 灰色人 / 灰人
◎片  名 The Gray Man
◎年  代 2022
◎产  地 美国
◎类  别 动作 / 惊悚
◎语  言 英语
◎上映日期 2022-07-15(美国) / 2022-07-22(美国网络)
◎IMDb评分 6.8/10 (2421人评价)
◎IMDb链接 https://www.imdb.com/title/tt1649418/
◎豆瓣链接 https://movie.douban.com/subject/7051806/
◎片  长 122分钟
◎导  演 安东尼·罗素 Anthony Russo
       乔·罗素 Joe Russo
◎编  剧 乔·罗素 Joe Russo
       克里斯托弗·马库斯 Christopher Markus
       斯蒂芬·麦克菲利 Stephen McFeely
       马克·格里尼 Mark Greaney
◎演  员 瑞恩·高斯林 Ryan Gosling
       克里斯·埃文斯 Chris Evans
       安娜·德·阿玛斯 Ana de Armas
       雷吉-让·佩吉 Regé-Jean Page
       比利·鲍伯·松顿 Billy Bob Thornton
       杰西卡·亨维克 Jessica Henwick
       丹努什 Dhanush
       瓦格纳·马拉 Wagner Moura
       阿尔法·伍达德 Alfre Woodard
       茱莉亚·巴特斯 Julia Butters
       卡兰·马尔韦 Callan Mulvey
       斯科特·黑兹 Scott Haze
       罗伯特·卡辛斯基 Robert Kazinsky
       道比·欧帕瑞 Deobia Oparei
       艾米·伊库瓦克 Eme Ikwuakor
       吉米·让-刘易斯 Jimmy Jean-Louis
       Daz Crawford Daz Crawford
       凯伦金贝克 Karen Jin Beck
       凯特·布朗伯格 Kate Blumberg
       马修·弗林·贝罗斯 Matthew Flynn Bellows
       贝基·吴 Becky Wu
       肯德尔·威尔斯 Kendall Wells
       马丁·威廉·哈里斯 Martin William Harris
       纳迪夫·莫尔乔 Nadiv Molcho
       斯特芬·杰科 Steffen Dziczek
       玛丽亚·达金娜 Maria Darkina
       Kaipo Schwab Kaipo Schwab
       法乌齐·卜拉希米 Faouzi Brahimi
       Michel Carliez Michel Carliez
       乔·罗斯 Joe Roth
       朱迪安娜·马科夫斯基 Judianna Makovsky
◎简  介

  《灰影人》由Netflix和AGBO合制,剧情讲述人称“灰影人”的寇特·詹特利(瑞恩·高斯林 饰)为中情局效命,特务代号“山岭六号”。上线唐纳德·菲茨罗伊(比利·鲍伯·松顿 饰)当初将他弄出联邦监狱,让他成为局里钦点的精锐死亡佣兵。如今风水轮流转,六号反倒沦为头号目标,中情局前同事洛伊德·汉森(克里斯·埃文斯 饰)为了铲除他,无所不用其极地发动全球围攻,特工达妮·米兰达(安娜·德·阿玛斯 饰)却总能在他千钧一发之际伸出援手。
  1. Video
  2. ID                                       : 1
  3. Format                                   : HEVC
  4. Format/Info                              : High Efficiency Video Coding
  5. Format profile                           : Main [email protected]@Main
  6. HDR format                               : Dolby Vision, Version 1.0, dvhe.08.06, BL+RPU, HDR10 compatible / SMPTE ST 2086, HDR10 compatible
  7. Codec ID                                 : V_MPEGH/ISO/HEVC
  8. Duration                                 : 2 h 6 min
  9. Bit rate                                 : 14.4 Mb/s
  10. Width                                    : 3 840 pixels
  11. Height                                   : 2 160 pixels
  12. Display aspect ratio                     : 16:9
  13. Frame rate mode                          : Constant
  14. Frame rate                               : 24.000 FPS
  15. Color space                              : YUV
  16. Chroma subsampling                       : 4:2:0 (Type 2)
  17. Bit depth                                : 10 bits
  18. Bits/(Pixel*Frame)                       : 0.072
  19. Stream size                              : 12.7 GiB (95%)
  20. Default                                  : Yes
  21. Forced                                   : No
  22. Color range                              : Limited
  23. Color primaries                          : BT.2020
  24. Transfer characteristics                 : PQ
  25. Matrix coefficients                      : BT.2020 non-constant
  26. Mastering display color primaries        : Display P3
  27. Mastering display luminance              : min: 0.0001 cd/m2, max: 1000 cd/m2
  28. Maximum Content Light Level              : 861 cd/m2
  29. Maximum Frame-Average Light Level        : 413 cd/m2

  30. Audio
  31. ID                                       : 2
  32. Format                                   : E-AC-3 JOC
  33. Format/Info                              : Enhanced AC-3 with Joint Object Coding
  34. Commercial name                          : Dolby Digital Plus with Dolby Atmos
  35. Codec ID                                 : A_EAC3
  36. Duration                                 : 2 h 9 min
  37. Bit rate mode                            : Constant
  38. Bit rate                                 : 768 kb/s
  39. Channel(s)                               : 6 channels
  40. Channel layout                           : L R C LFE Ls Rs
  41. Sampling rate                            : 48.0 kHz
  42. Frame rate                               : 31.250 FPS (1536 SPF)
  43. Compression mode                         : Lossy
  44. Stream size                              : 709 MiB (5%)
  45. Language                                 : English
  46. Service kind                             : Complete Main
  47. Default                                  : No
  48. Forced                                   : No
  49. Complexity index                         : 16
  50. Number of dynamic objects                : 15
  51. Bed channel count                        : 1 channel
  52. Bed channel configuration                : LFE

  53. Text #1
  54. ID                                       : 3
  55. Format                                   : UTF-8
  56. Codec ID                                 : S_TEXT/UTF8
  57. Codec ID/Info                            : UTF-8 Plain Text
  58. Duration                                 : 1 h 53 min
  59. Bit rate                                 : 49 b/s
  60. Frame rate                               : 0.189 FPS
  61. Count of elements                        : 1286
  62. Stream size                              : 41.4 KiB (0%)
  63. Language                                 : English
  64. Default                                  : No
  65. Forced                                   : No

  66. Text #2
  67. ID                                       : 4
  68. Format                                   : UTF-8
  69. Codec ID                                 : S_TEXT/UTF8
  70. Codec ID/Info                            : UTF-8 Plain Text
  71. Duration                                 : 2 h 6 min
  72. Bit rate                                 : 61 b/s
  73. Frame rate                               : 0.239 FPS
  74. Count of elements                        : 1813
  75. Stream size                              : 56.8 KiB (0%)
  76. Title                                    : SDH
  77. Language                                 : English
  78. Default                                  : No
  79. Forced                                   : No

  80. Text #3
  81. ID                                       : 5
  82. Format                                   : UTF-8
  83. Codec ID                                 : S_TEXT/UTF8
  84. Codec ID/Info                            : UTF-8 Plain Text
  85. Duration                                 : 2 h 6 min
  86. Bit rate                                 : 48 b/s
  87. Frame rate                               : 0.163 FPS
  88. Count of elements                        : 1234
  89. Stream size                              : 44.9 KiB (0%)
  90. Language                                 : German
  91. Default                                  : No
  92. Forced                                   : No

  93. Text #4
  94. ID                                       : 6
  95. Format                                   : UTF-8
  96. Codec ID                                 : S_TEXT/UTF8
  97. Codec ID/Info                            : UTF-8 Plain Text
  98. Duration                                 : 2 h 6 min
  99. Bit rate                                 : 39 b/s
  100. Frame rate                               : 0.166 FPS
  101. Count of elements                        : 1254
  102. Stream size                              : 36.4 KiB (0%)
  103. Language                                 : Malay
  104. Default                                  : No
  105. Forced                                   : No

  106. Text #5
  107. ID                                       : 7
  108. Format                                   : UTF-8
  109. Codec ID                                 : S_TEXT/UTF8
  110. Codec ID/Info                            : UTF-8 Plain Text
  111. Duration                                 : 1 h 56 min
  112. Bit rate                                 : 49 b/s
  113. Frame rate                               : 0.181 FPS
  114. Count of elements                        : 1263
  115. Stream size                              : 42.3 KiB (0%)
  116. Language                                 : Spanish
  117. Default                                  : No
  118. Forced                                   : No

  119. Text #6
  120. ID                                       : 8
  121. Format                                   : UTF-8
  122. Codec ID                                 : S_TEXT/UTF8
  123. Codec ID/Info                            : UTF-8 Plain Text
  124. Duration                                 : 2 h 6 min
  125. Bit rate                                 : 39 b/s
  126. Frame rate                               : 0.166 FPS
  127. Count of elements                        : 1255
  128. Stream size                              : 36.8 KiB (0%)
  129. Language                                 : Danish
  130. Default                                  : No
  131. Forced                                   : No

  132. Text #7
  133. ID                                       : 9
  134. Format                                   : UTF-8
  135. Codec ID                                 : S_TEXT/UTF8
  136. Codec ID/Info                            : UTF-8 Plain Text
  137. Duration                                 : 1 h 56 min
  138. Bit rate                                 : 47 b/s
  139. Frame rate                               : 0.182 FPS
  140. Count of elements                        : 1267
  141. Stream size                              : 40.2 KiB (0%)
  142. Language                                 : Italian
  143. Default                                  : No
  144. Forced                                   : No

  145. Text #8
  146. ID                                       : 10
  147. Format                                   : UTF-8
  148. Codec ID                                 : S_TEXT/UTF8
  149. Codec ID/Info                            : UTF-8 Plain Text
  150. Duration                                 : 2 h 6 min
  151. Bit rate                                 : 33 b/s
  152. Frame rate                               : 0.181 FPS
  153. Count of elements                        : 1369
  154. Stream size                              : 31.4 KiB (0%)
  155. Language                                 : Japanese
  156. Default                                  : No
  157. Forced                                   : No

  158. Text #9
  159. ID                                       : 11
  160. Format                                   : UTF-8
  161. Codec ID                                 : S_TEXT/UTF8
  162. Codec ID/Info                            : UTF-8 Plain Text
  163. Duration                                 : 2 h 6 min
  164. Bit rate                                 : 64 b/s
  165. Frame rate                               : 0.169 FPS
  166. Count of elements                        : 1277
  167. Stream size                              : 59.9 KiB (0%)
  168. Language                                 : Ukrainian
  169. Default                                  : No
  170. Forced                                   : No

  171. Text #10
  172. ID                                       : 12
  173. Format                                   : UTF-8
  174. Codec ID                                 : S_TEXT/UTF8
  175. Codec ID/Info                            : UTF-8 Plain Text
  176. Duration                                 : 1 h 56 min
  177. Bit rate                                 : 46 b/s
  178. Frame rate                               : 0.187 FPS
  179. Count of elements                        : 1306
  180. Stream size                              : 39.7 KiB (0%)
  181. Title                                    : European
  182. Language                                 : Spanish
  183. Default                                  : No
  184. Forced                                   : No

  185. Text #11
  186. ID                                       : 13
  187. Format                                   : UTF-8
  188. Codec ID                                 : S_TEXT/UTF8
  189. Codec ID/Info                            : UTF-8 Plain Text
  190. Duration                                 : 2 h 6 min
  191. Bit rate                                 : 41 b/s
  192. Frame rate                               : 0.172 FPS
  193. Count of elements                        : 1304
  194. Stream size                              : 38.3 KiB (0%)
  195. Language                                 : Korean
  196. Default                                  : No
  197. Forced                                   : No

  198. Text #12
  199. ID                                       : 14
  200. Format                                   : UTF-8
  201. Codec ID                                 : S_TEXT/UTF8
  202. Codec ID/Info                            : UTF-8 Plain Text
  203. Duration                                 : 2 h 6 min
  204. Bit rate                                 : 39 b/s
  205. Frame rate                               : 0.161 FPS
  206. Count of elements                        : 1221
  207. Stream size                              : 36.9 KiB (0%)
  208. Title                                    : Brazilian
  209. Language                                 : Portuguese
  210. Default                                  : No
  211. Forced                                   : No

  212. Text #13
  213. ID                                       : 15
  214. Format                                   : UTF-8
  215. Codec ID                                 : S_TEXT/UTF8
  216. Codec ID/Info                            : UTF-8 Plain Text
  217. Duration                                 : 2 h 6 min
  218. Bit rate                                 : 38 b/s
  219. Frame rate                               : 0.168 FPS
  220. Count of elements                        : 1268
  221. Stream size                              : 35.9 KiB (0%)
  222. Language                                 : Polish
  223. Default                                  : No
  224. Forced                                   : No

  225. Text #14
  226. ID                                       : 16
  227. Format                                   : UTF-8
  228. Codec ID                                 : S_TEXT/UTF8
  229. Codec ID/Info                            : UTF-8 Plain Text
  230. Duration                                 : 2 h 6 min
  231. Bit rate                                 : 43 b/s
  232. Frame rate                               : 0.139 FPS
  233. Count of elements                        : 1050
  234. Stream size                              : 40.1 KiB (0%)
  235. Language                                 : Czech
  236. Default                                  : No
  237. Forced                                   : No

  238. Text #15
  239. ID                                       : 17
  240. Format                                   : UTF-8
  241. Codec ID                                 : S_TEXT/UTF8
  242. Codec ID/Info                            : UTF-8 Plain Text
  243. Duration                                 : 2 h 6 min
  244. Bit rate                                 : 40 b/s
  245. Frame rate                               : 0.172 FPS
  246. Count of elements                        : 1302
  247. Stream size                              : 37.0 KiB (0%)
  248. Title                                    : Simplified
  249. Language                                 : Chinese
  250. Default                                  : No
  251. Forced                                   : No

  252. Text #16
  253. ID                                       : 18
  254. Format                                   : UTF-8
  255. Codec ID                                 : S_TEXT/UTF8
  256. Codec ID/Info                            : UTF-8 Plain Text
  257. Duration                                 : 2 h 6 min
  258. Bit rate                                 : 38 b/s
  259. Frame rate                               : 0.124 FPS
  260. Count of elements                        : 939
  261. Stream size                              : 35.3 KiB (0%)
  262. Language                                 : Swedish
  263. Default                                  : No
  264. Forced                                   : No

  265. Text #17
  266. ID                                       : 19
  267. Format                                   : UTF-8
  268. Codec ID                                 : S_TEXT/UTF8
  269. Codec ID/Info                            : UTF-8 Plain Text
  270. Duration                                 : 2 h 6 min
  271. Bit rate                                 : 38 b/s
  272. Frame rate                               : 0.169 FPS
  273. Count of elements                        : 1276
  274. Stream size                              : 35.5 KiB (0%)
  275. Language                                 : Croatian
  276. Default                                  : No
  277. Forced                                   : No

  278. Text #18
  279. ID                                       : 20
  280. Format                                   : UTF-8
  281. Codec ID                                 : S_TEXT/UTF8
  282. Codec ID/Info                            : UTF-8 Plain Text
  283. Duration                                 : 2 h 6 min
  284. Bit rate                                 : 37 b/s
  285. Frame rate                               : 0.168 FPS
  286. Count of elements                        : 1269
  287. Stream size                              : 34.5 KiB (0%)
  288. Language                                 : Hungarian
  289. Default                                  : No
  290. Forced                                   : No

  291. Text #19
  292. ID                                       : 21
  293. Format                                   : UTF-8
  294. Codec ID                                 : S_TEXT/UTF8
  295. Codec ID/Info                            : UTF-8 Plain Text
  296. Duration                                 : 2 h 6 min
  297. Bit rate                                 : 37 b/s
  298. Frame rate                               : 0.171 FPS
  299. Count of elements                        : 1290
  300. Stream size                              : 34.4 KiB (0%)
  301. Language                                 : Basque
  302. Default                                  : No
  303. Forced                                   : No

  304. Text #20
  305. ID                                       : 22
  306. Format                                   : UTF-8
  307. Codec ID                                 : S_TEXT/UTF8
  308. Codec ID/Info                            : UTF-8 Plain Text
  309. Duration                                 : 2 h 6 min
  310. Bit rate                                 : 88 b/s
  311. Frame rate                               : 0.168 FPS
  312. Count of elements                        : 1274
  313. Stream size                              : 81.6 KiB (0%)
  314. Language                                 : Thai
  315. Default                                  : No
  316. Forced                                   : No

  317. Text #21
  318. ID                                       : 23
  319. Format                                   : UTF-8
  320. Codec ID                                 : S_TEXT/UTF8
  321. Codec ID/Info                            : UTF-8 Plain Text
  322. Duration                                 : 1 h 53 min
  323. Bit rate                                 : 51 b/s
  324. Frame rate                               : 0.175 FPS
  325. Count of elements                        : 1190
  326. Stream size                              : 42.8 KiB (0%)
  327. Language                                 : French
  328. Default                                  : No
  329. Forced                                   : No

  330. Text #22
  331. ID                                       : 24
  332. Format                                   : UTF-8
  333. Codec ID                                 : S_TEXT/UTF8
  334. Codec ID/Info                            : UTF-8 Plain Text
  335. Duration                                 : 2 h 6 min
  336. Bit rate                                 : 42 b/s
  337. Frame rate                               : 0.167 FPS
  338. Count of elements                        : 1266
  339. Stream size                              : 39.2 KiB (0%)
  340. Language                                 : fil
  341. Default                                  : No
  342. Forced                                   : No

  343. Text #23
  344. ID                                       : 25
  345. Format                                   : UTF-8
  346. Codec ID                                 : S_TEXT/UTF8
  347. Codec ID/Info                            : UTF-8 Plain Text
  348. Duration                                 : 2 h 6 min
  349. Bit rate                                 : 41 b/s
  350. Frame rate                               : 0.140 FPS
  351. Count of elements                        : 1059
  352. Stream size                              : 38.3 KiB (0%)
  353. Language                                 : Turkish
  354. Default                                  : No
  355. Forced                                   : No

  356. Text #24
  357. ID                                       : 26
  358. Format                                   : UTF-8
  359. Codec ID                                 : S_TEXT/UTF8
  360. Codec ID/Info                            : UTF-8 Plain Text
  361. Duration                                 : 2 h 6 min
  362. Bit rate                                 : 62 b/s
  363. Frame rate                               : 0.172 FPS
  364. Count of elements                        : 1299
  365. Stream size                              : 57.9 KiB (0%)
  366. Language                                 : Russian
  367. Default                                  : No
  368. Forced                                   : No

  369. Text #25
  370. ID                                       : 27
  371. Format                                   : UTF-8
  372. Codec ID                                 : S_TEXT/UTF8
  373. Codec ID/Info                            : UTF-8 Plain Text
  374. Duration                                 : 2 h 6 min
  375. Bit rate                                 : 41 b/s
  376. Frame rate                               : 0.160 FPS
  377. Count of elements                        : 1209
  378. Stream size                              : 37.9 KiB (0%)
  379. Language                                 : Romanian
  380. Default                                  : No
  381. Forced                                   : No

  382. Text #26
  383. ID                                       : 28
  384. Format                                   : UTF-8
  385. Codec ID                                 : S_TEXT/UTF8
  386. Codec ID/Info                            : UTF-8 Plain Text
  387. Duration                                 : 2 h 6 min
  388. Bit rate                                 : 37 b/s
  389. Frame rate                               : 0.172 FPS
  390. Count of elements                        : 1302
  391. Stream size                              : 34.5 KiB (0%)
  392. Language                                 : Indonesian
  393. Default                                  : No
  394. Forced                                   : No

  395. Text #27
  396. ID                                       : 29
  397. Format                                   : UTF-8
  398. Codec ID                                 : S_TEXT/UTF8
  399. Codec ID/Info                            : UTF-8 Plain Text
  400. Duration                                 : 2 h 6 min
  401. Bit rate                                 : 51 b/s
  402. Frame rate                               : 0.168 FPS
  403. Count of elements                        : 1271
  404. Stream size                              : 47.5 KiB (0%)
  405. Language                                 : Vietnamese
  406. Default                                  : No
  407. Forced                                   : No

  408. Text #28
  409. ID                                       : 30
  410. Format                                   : UTF-8
  411. Codec ID                                 : S_TEXT/UTF8
  412. Codec ID/Info                            : UTF-8 Plain Text
  413. Duration                                 : 2 h 6 min
  414. Bit rate                                 : 38 b/s
  415. Frame rate                               : 0.164 FPS
  416. Count of elements                        : 1240
  417. Stream size                              : 35.3 KiB (0%)
  418. Language                                 : Catalan
  419. Default                                  : No
  420. Forced                                   : No

  421. Text #29
  422. ID                                       : 31
  423. Format                                   : UTF-8
  424. Codec ID                                 : S_TEXT/UTF8
  425. Codec ID/Info                            : UTF-8 Plain Text
  426. Duration                                 : 2 h 6 min
  427. Bit rate                                 : 64 b/s
  428. Frame rate                               : 0.174 FPS
  429. Count of elements                        : 1312
  430. Stream size                              : 59.8 KiB (0%)
  431. Language                                 : Arabic
  432. Default                                  : No
  433. Forced                                   : No

  434. Text #30
  435. ID                                       : 32
  436. Format                                   : UTF-8
  437. Codec ID                                 : S_TEXT/UTF8
  438. Codec ID/Info                            : UTF-8 Plain Text
  439. Duration                                 : 2 h 6 min
  440. Bit rate                                 : 38 b/s
  441. Frame rate                               : 0.136 FPS
  442. Count of elements                        : 1032
  443. Stream size                              : 35.3 KiB (0%)
  444. Language                                 : Dutch
  445. Default                                  : No
  446. Forced                                   : No

  447. Text #31
  448. ID                                       : 33
  449. Format                                   : UTF-8
  450. Codec ID                                 : S_TEXT/UTF8
  451. Codec ID/Info                            : UTF-8 Plain Text
  452. Duration                                 : 2 h 6 min
  453. Bit rate                                 : 34 b/s
  454. Frame rate                               : 0.178 FPS
  455. Count of elements                        : 1347
  456. Stream size                              : 32.1 KiB (0%)
  457. Title                                    : Traditional
  458. Language                                 : Chinese
  459. Default                                  : No
  460. Forced                                   : No

  461. Text #32
  462. ID                                       : 34
  463. Format                                   : UTF-8
  464. Codec ID                                 : S_TEXT/UTF8
  465. Codec ID/Info                            : UTF-8 Plain Text
  466. Duration                                 : 2 h 6 min
  467. Bit rate                                 : 35 b/s
  468. Frame rate                               : 0.143 FPS
  469. Count of elements                        : 1082
  470. Stream size                              : 32.8 KiB (0%)
  471. Language                                 : Norwegian Bokmal
  472. Default                                  : No
  473. Forced                                   : No

  474. Text #33
  475. ID                                       : 35
  476. Format                                   : UTF-8
  477. Codec ID                                 : S_TEXT/UTF8
  478. Codec ID/Info                            : UTF-8 Plain Text
  479. Duration                                 : 2 h 6 min
  480. Bit rate                                 : 34 b/s
  481. Frame rate                               : 0.170 FPS
  482. Count of elements                        : 1287
  483. Stream size                              : 31.8 KiB (0%)
  484. Language                                 : Finnish
  485. Default                                  : No
  486. Forced                                   : No

  487. Text #34
  488. ID                                       : 36
  489. Format                                   : UTF-8
  490. Codec ID                                 : S_TEXT/UTF8
  491. Codec ID/Info                            : UTF-8 Plain Text
  492. Duration                                 : 2 h 6 min
  493. Bit rate                                 : 69 b/s
  494. Frame rate                               : 0.157 FPS
  495. Count of elements                        : 1186
  496. Stream size                              : 64.2 KiB (0%)
  497. Language                                 : Greek
  498. Default                                  : No
  499. Forced                                   : No

  500. Text #35
  501. ID                                       : 37
  502. Format                                   : UTF-8
  503. Codec ID                                 : S_TEXT/UTF8
  504. Codec ID/Info                            : UTF-8 Plain Text
  505. Duration                                 : 1 h 56 min
  506. Bit rate                                 : 45 b/s
  507. Frame rate                               : 0.181 FPS
  508. Count of elements                        : 1260
  509. Stream size                              : 39.1 KiB (0%)
  510. Language                                 : Portuguese
  511. Default                                  : No
  512. Forced                                   : No

  513. Text #36
  514. ID                                       : 38
  515. Format                                   : UTF-8
  516. Codec ID                                 : S_TEXT/UTF8
  517. Codec ID/Info                            : UTF-8 Plain Text
  518. Duration                                 : 2 h 6 min
  519. Bit rate                                 : 56 b/s
  520. Frame rate                               : 0.168 FPS
  521. Count of elements                        : 1271
  522. Stream size                              : 52.3 KiB (0%)
  523. Language                                 : Hebrew
  524. Default                                  : No
  525. Forced                                   : No

  526. Text #37
  527. ID                                       : 39
  528. Format                                   : UTF-8
  529. Codec ID                                 : S_TEXT/UTF8
  530. Codec ID/Info                            : UTF-8 Plain Text
  531. Duration                                 : 2 h 6 min
  532. Bit rate                                 : 37 b/s
  533. Frame rate                               : 0.171 FPS
  534. Count of elements                        : 1297
  535. Stream size                              : 35.0 KiB (0%)
  536. Language                                 : Galician
  537. Default                                  : No
  538. Forced                                   : No
复制代码




                                       
                                       

                                       
                                       
                                       




The.Gray.Man.2022.22160p.NF.WEB-DL.x265.10bit.HDR.DDP5.1.Atmos-APEX.torrent (17.44 KB, 下载次数: 0)
回复

使用道具 举报

您需要登录后才可以回帖 登录 | 立即注册

本版积分规则

QQ|Archiver|手机版|小黑屋|蓝光电影网

GMT+8, 2023-2-2 00:14 , Processed in 0.059554 second(s), 26 queries .

Powered by Discuz! X3.4

Copyright © 2001-2020, Tencent Cloud.

快速回复 返回顶部 返回列表