找回密码
 立即注册

QQ登录

只需一步,快速开始

查看: 20|回复: 0

[其他] 鳄鱼莱莱 Lyle.Lyle.Crocodile.2022.2160p.MA.WEB-DL.x265.10bit.SDR.DDP5.1.Atmos-SMURF 19.00GB

[复制链接]

0

精华

0

好友

2

听众

新手上路

Rank: 2

蓝光币
5
发表于 5 天前 | 显示全部楼层 |阅读模式
[img][/img]

◎标  题 鳄鱼莱莱
◎译  名 纽约爱音鳄(港) / 鳄鱼歌王(台) / 鳄鱼莱尔
◎片  名 Lyle, Lyle, Crocodile
◎年  代 2022
◎产  地 美国
◎类  别 喜剧 / 动画 / 歌舞 / 家庭 / 奇幻 / 冒险
◎语  言 英语
◎上映日期 2022-10-07(美国)
◎IMDb评分 6.5/10 (1159人评价)
◎IMDb链接 https://www.imdb.com/title/tt14668630/
◎豆瓣评分 7.0/10 (188人评价)
◎豆瓣链接 https://movie.douban.com/subject/35606498/
◎片  长 106分钟
◎导  演 乔什·戈登 Josh Gordon
       威尔·斯佩克 Will Speck
◎编  剧 威廉姆·戴维斯 William Davies
       伯纳德·韦伯 Bernard Waber
◎演  员 肖恩·蒙德兹 Shawn Mendes
       哈维尔·巴登 Javier Bardem
       吴恬敏 Constance Wu
       斯科特·麦克纳里 Scoot McNairy
       温斯洛·费格雷 Winslow Fegley
       布伦特·吉尔曼 Brett Gelman
       萨尔·维斯库索 Sal Viscuso
       多恩·迪皮塔 Don DiPetta
       尤西·丘辟特 Yussie Jupiter
       科拉·林德尔 Cora Maple Lindell
       马克·威尔斯 Mac Wells
       林赛·莫泽 Lindsey Moser
       丹尼·所罗门 Danny Salomon
       本吉·帕塞克 Benj Pasek
       贾斯汀·保罗 Justin Paul
◎简  介

  影片改编自风靡全球的同名绘本系列,肖恩·蒙德兹献声演唱鳄鱼莱莱。                                    
                                故事讲述了小男孩乔什·普利姆跟随父母举家搬进大城市的新居,和一只住在阁楼上、能舞会唱的鳄鱼成为好朋友的奇遇故事。自带欢乐属性的鳄鱼莱莱治愈了难以适应新环境的乔什,乔什也努力消除父母对莱莱的偏见。两小只开启前所未有的都市历险,历经重重欢乐闹剧,莱莱与普利姆一家最终成为了彼此的家人与伙伴。
  1. Video
  2. ID                                       : 1
  3. Format                                   : HEVC
  4. Format/Info                              : High Efficiency Video Coding
  5. Format profile                           : Main [email protected]@High
  6. Codec ID                                 : V_MPEGH/ISO/HEVC
  7. Duration                                 : 1 h 46 min
  8. Bit rate                                 : 24.7 Mb/s
  9. Width                                    : 3 840 pixels
  10. Height                                   : 2 160 pixels
  11. Display aspect ratio                     : 16:9
  12. Frame rate mode                          : Constant
  13. Frame rate                               : 23.976 (24000/1001/189150) FPS
  14. Color space                              : YUV
  15. Chroma subsampling                       : 4:2:0 (Type 2)
  16. Bit depth                                : 10 bits
  17. Bits/(Pixel*Frame)                       : 0.124
  18. Stream size                              : 18.4 GiB (97%)
  19. Language                                 : English
  20. Default                                  : Yes
  21. Forced                                   : No
  22. Color range                              : Limited
  23. Color primaries                          : BT.709
  24. Transfer characteristics                 : BT.709
  25. Matrix coefficients                      : BT.709
  26. Audio
  27. ID                                       : 2
  28. Format                                   : E-AC-3 JOC
  29. Format/Info                              : Enhanced AC-3 with Joint Object Coding
  30. Commercial name                          : Dolby Digital Plus with Dolby Atmos
  31. Codec ID                                 : A_EAC3
  32. Duration                                 : 1 h 46 min
  33. Bit rate mode                            : Constant
  34. Bit rate                                 : 768 kb/s
  35. Channel(s)                               : 6 channels
  36. Channel layout                           : L R C LFE Ls Rs
  37. Sampling rate                            : 48.0 kHz
  38. Frame rate                               : 31.250 FPS (1536 SPF)
  39. Compression mode                         : Lossy
  40. Delay relative to video                  : 83 ms
  41. Stream size                              : 586 MiB (3%)
  42. Language                                 : English
  43. Service kind                             : Complete Main
  44. Default                                  : Yes
  45. Forced                                   : No
  46. Complexity index                         : 16
  47. Number of dynamic objects                : 15
  48. Bed channel count                        : 1 channel
  49. Bed channel configuration                : LFE
  50. Text #1
  51. ID                                       : 3
  52. Format                                   : UTF-8
  53. Codec ID                                 : S_TEXT/UTF8
  54. Codec ID/Info                            : UTF-8 Plain Text
  55. Duration                                 : 1 h 38 min
  56. Bit rate                                 : 37 b/s
  57. Frame rate                               : 0.161 FPS
  58. Count of elements                        : 951
  59. Stream size                              : 26.7 KiB (0%)
  60. Language                                 : English
  61. Default                                  : No
  62. Forced                                   : No
  63. Text #2
  64. ID                                       : 4
  65. Format                                   : UTF-8
  66. Codec ID                                 : S_TEXT/UTF8
  67. Codec ID/Info                            : UTF-8 Plain Text
  68. Duration                                 : 1 h 44 min
  69. Bit rate                                 : 65 b/s
  70. Frame rate                               : 0.249 FPS
  71. Count of elements                        : 1559
  72. Stream size                              : 50.2 KiB (0%)
  73. Title                                    : SDH
  74. Language                                 : English
  75. Default                                  : No
  76. Forced                                   : No
  77. Text #3
  78. ID                                       : 5
  79. Format                                   : UTF-8
  80. Codec ID                                 : S_TEXT/UTF8
  81. Codec ID/Info                            : UTF-8 Plain Text
  82. Duration                                 : 1 h 38 min
  83. Bit rate                                 : 51 b/s
  84. Frame rate                               : 0.210 FPS
  85. Count of elements                        : 1249
  86. Stream size                              : 37.5 KiB (0%)
  87. Title                                    : British
  88. Language                                 : English
  89. Default                                  : No
  90. Forced                                   : No
  91. Text #4
  92. ID                                       : 6
  93. Format                                   : UTF-8
  94. Codec ID                                 : S_TEXT/UTF8
  95. Codec ID/Info                            : UTF-8 Plain Text
  96. Duration                                 : 1 h 45 min
  97. Bit rate                                 : 43 b/s
  98. Frame rate                               : 0.192 FPS
  99. Count of elements                        : 1217
  100. Stream size                              : 34.0 KiB (0%)
  101. Language                                 : Indonesian
  102. Default                                  : No
  103. Forced                                   : No
  104. Text #5
  105. ID                                       : 7
  106. Format                                   : UTF-8
  107. Codec ID                                 : S_TEXT/UTF8
  108. Codec ID/Info                            : UTF-8 Plain Text
  109. Duration                                 : 1 h 45 min
  110. Bit rate                                 : 63 b/s
  111. Frame rate                               : 0.194 FPS
  112. Count of elements                        : 1228
  113. Stream size                              : 48.9 KiB (0%)
  114. Language                                 : Vietnamese
  115. Default                                  : No
  116. Forced                                   : No
  117. Text #6
  118. ID                                       : 8
  119. Format                                   : UTF-8
  120. Codec ID                                 : S_TEXT/UTF8
  121. Codec ID/Info                            : UTF-8 Plain Text
  122. Duration                                 : 1 h 45 min
  123. Bit rate                                 : 42 b/s
  124. Frame rate                               : 0.193 FPS
  125. Count of elements                        : 1226
  126. Stream size                              : 32.9 KiB (0%)
  127. Title                                    : Traditional
  128. Language                                 : Chinese
  129. Default                                  : No
  130. Forced                                   : No
  131. Menu
  132. 00:00:00.000                             : en:Chapter 01
  133. 00:05:29.000                             : en:Chapter 02
  134. 00:12:29.000                             : en:Chapter 03
  135. 00:19:27.000                             : en:Chapter 04
  136. 00:25:45.000                             : en:Chapter 05
  137. 00:32:12.000                             : en:Chapter 06
  138. 00:38:38.000                             : en:Chapter 07
  139. 00:46:29.000                             : en:Chapter 08
  140. 00:52:36.000                             : en:Chapter 09
  141. 00:58:59.000                             : en:Chapter 10
  142. 01:05:02.000                             : en:Chapter 11
  143. 01:11:02.000                             : en:Chapter 12
  144. 01:18:22.000                             : en:Chapter 13
  145. 01:26:00.000                             : en:Chapter 14
  146. 01:29:55.000                             : en:Chapter 15
  147. 01:38:50.000                             : en:Chapter 16
复制代码




                                       
                                       

                                       
                                       
                                       




Lyle.Lyle.Crocodile.2022.2160p.MA.WEB-DL.x265.10bit.SDR.DDP5.1.Atmos-SMURF.torrent (24.41 KB, 下载次数: 0)
回复

使用道具 举报

您需要登录后才可以回帖 登录 | 立即注册

本版积分规则

QQ|Archiver|手机版|小黑屋|蓝光电影网

GMT+8, 2022-11-30 07:42 , Processed in 0.053796 second(s), 28 queries .

Powered by Discuz! X3.4

Copyright © 2001-2020, Tencent Cloud.

快速回复 返回顶部 返回列表