找回密码
 立即注册

QQ登录

只需一步,快速开始

查看: 13|回复: 0

[其他] 紫心之恋 Purple.Hearts.2022.2160p.NF.WEB-DL.x265.10bit.SDR.DDP5.1.Atmos-APEX 11.05GB

[复制链接]

0

精华

0

好友

2

听众

新手上路

Rank: 2

蓝光币
5
发表于 5 天前 | 显示全部楼层 |阅读模式
[img][/img]

◎标  题 紫心之恋
◎片  名 Purple Hearts
◎年  代 2022
◎产  地 美国
◎类  别 剧情 / 爱情 / 音乐
◎语  言 英语
◎上映日期 2022-07-29(美国网络)
◎IMDb链接 https://www.imdb.com/title/tt4614584/
◎豆瓣链接 https://movie.douban.com/subject/35955845/
◎片  长 122分钟
◎导  演 伊丽莎白·艾伦 Elizabeth Allen
◎编  剧 丽兹·加西亚 Liz W. Garcia
◎演  员 尼古拉斯·加利齐纳 Nicholas Galitzine
       索菲亚·卡尔森 Sofia Carson
       林登·阿什比 Linden Ashby
       约翰·哈伦·金 John Harlan Kim
       乔森·雅各布 Chosen Jacobs
       卡特里娜·坎宁安 Katrina Cunningham
       斯科特·德克特 Scott Deckert
       阿桑特·琼斯 Asante Jones
       黛比·范 Debbie Fan
       斯利姆·克什里 Slim Khezri
       亚历克斯·威克索 Alex Wexo
◎简  介

  尽管存在许多分歧,受精神疾病困扰的创作歌手卡西和陷入困境的海军陆战队员卢克同意仅出于利益而结婚。但是当悲剧发生时,真实和虚假之间的界限开始变得模糊……
  1. Video
  2. ID                                       : 1
  3. Format                                   : HEVC
  4. Format/Info                              : High Efficiency Video Coding
  5. Format profile                           : Main [email protected]@Main
  6. Codec ID                                 : V_MPEGH/ISO/HEVC
  7. Duration                                 : 2 h 4 min
  8. Bit rate                                 : 11.9 Mb/s
  9. Width                                    : 3 840 pixels
  10. Height                                   : 2 160 pixels
  11. Display aspect ratio                     : 16:9
  12. Frame rate mode                          : Constant
  13. Frame rate                               : 24.000 FPS
  14. Color space                              : YUV
  15. Chroma subsampling                       : 4:2:0
  16. Bit depth                                : 10 bits
  17. Bits/(Pixel*Frame)                       : 0.060
  18. Stream size                              : 10.4 GiB (94%)
  19. Default                                  : Yes
  20. Forced                                   : No
  21. Color range                              : Limited
  22. Color primaries                          : BT.709
  23. Transfer characteristics                 : BT.709
  24. Matrix coefficients                      : BT.709
  25. Audio
  26. ID                                       : 2
  27. Format                                   : E-AC-3 JOC
  28. Format/Info                              : Enhanced AC-3 with Joint Object Coding
  29. Commercial name                          : Dolby Digital Plus with Dolby Atmos
  30. Codec ID                                 : A_EAC3
  31. Duration                                 : 2 h 4 min
  32. Bit rate mode                            : Constant
  33. Bit rate                                 : 768 kb/s
  34. Channel(s)                               : 6 channels
  35. Channel layout                           : L R C LFE Ls Rs
  36. Sampling rate                            : 48.0 kHz
  37. Frame rate                               : 31.250 FPS (1536 SPF)
  38. Compression mode                         : Lossy
  39. Stream size                              : 684 MiB (6%)
  40. Language                                 : English
  41. Service kind                             : Complete Main
  42. Default                                  : Yes
  43. Forced                                   : No
  44. Complexity index                         : 16
  45. Number of dynamic objects                : 15
  46. Bed channel count                        : 1 channel
  47. Bed channel configuration                : LFE
  48. Text #1
  49. ID                                       : 3
  50. Format                                   : UTF-8
  51. Codec ID                                 : S_TEXT/UTF8
  52. Codec ID/Info                            : UTF-8 Plain Text
  53. Duration                                 : 2 h 1 min
  54. Bit rate                                 : 69 b/s
  55. Frame rate                               : 0.259 FPS
  56. Count of elements                        : 1883
  57. Stream size                              : 61.5 KiB (0%)
  58. Language                                 : English
  59. Default                                  : No
  60. Forced                                   : No
  61. Text #2
  62. ID                                       : 4
  63. Format                                   : UTF-8
  64. Codec ID                                 : S_TEXT/UTF8
  65. Codec ID/Info                            : UTF-8 Plain Text
  66. Duration                                 : 2 h 1 min
  67. Bit rate                                 : 84 b/s
  68. Frame rate                               : 0.315 FPS
  69. Count of elements                        : 2292
  70. Stream size                              : 75.4 KiB (0%)
  71. Title                                    : SDH
  72. Language                                 : English
  73. Default                                  : No
  74. Forced                                   : No
  75. Text #3
  76. ID                                       : 5
  77. Format                                   : UTF-8
  78. Codec ID                                 : S_TEXT/UTF8
  79. Codec ID/Info                            : UTF-8 Plain Text
  80. Duration                                 : 2 h 2 min
  81. Bit rate                                 : 107 b/s
  82. Frame rate                               : 0.225 FPS
  83. Count of elements                        : 1647
  84. Stream size                              : 96.1 KiB (0%)
  85. Language                                 : Arabic
  86. Default                                  : No
  87. Forced                                   : No
  88. Text #4
  89. ID                                       : 6
  90. Format                                   : UTF-8
  91. Codec ID                                 : S_TEXT/UTF8
  92. Codec ID/Info                            : UTF-8 Plain Text
  93. Duration                                 : 2 h 2 min
  94. Bit rate                                 : 51 b/s
  95. Frame rate                               : 0.217 FPS
  96. Count of elements                        : 1593
  97. Stream size                              : 45.8 KiB (0%)
  98. Language                                 : Catalan
  99. Default                                  : No
  100. Forced                                   : No
  101. Text #5
  102. ID                                       : 7
  103. Format                                   : UTF-8
  104. Codec ID                                 : S_TEXT/UTF8
  105. Codec ID/Info                            : UTF-8 Plain Text
  106. Duration                                 : 2 h 2 min
  107. Bit rate                                 : 51 b/s
  108. Frame rate                               : 0.213 FPS
  109. Count of elements                        : 1560
  110. Stream size                              : 45.9 KiB (0%)
  111. Language                                 : Czech
  112. Default                                  : No
  113. Forced                                   : No
  114. Text #6
  115. ID                                       : 8
  116. Format                                   : UTF-8
  117. Codec ID                                 : S_TEXT/UTF8
  118. Codec ID/Info                            : UTF-8 Plain Text
  119. Duration                                 : 2 h 2 min
  120. Bit rate                                 : 49 b/s
  121. Frame rate                               : 0.204 FPS
  122. Count of elements                        : 1494
  123. Stream size                              : 44.1 KiB (0%)
  124. Language                                 : Danish
  125. Default                                  : No
  126. Forced                                   : No
  127. Text #7
  128. ID                                       : 9
  129. Format                                   : UTF-8
  130. Codec ID                                 : S_TEXT/UTF8
  131. Codec ID/Info                            : UTF-8 Plain Text
  132. Duration                                 : 1 h 56 min
  133. Bit rate                                 : 75 b/s
  134. Frame rate                               : 0.282 FPS
  135. Count of elements                        : 1980
  136. Stream size                              : 64.6 KiB (0%)
  137. Title                                    : SDH
  138. Language                                 : German
  139. Default                                  : No
  140. Forced                                   : No
  141. Text #8
  142. ID                                       : 10
  143. Format                                   : UTF-8
  144. Codec ID                                 : S_TEXT/UTF8
  145. Codec ID/Info                            : UTF-8 Plain Text
  146. Duration                                 : 2 h 2 min
  147. Bit rate                                 : 53 b/s
  148. Frame rate                               : 0.209 FPS
  149. Count of elements                        : 1531
  150. Stream size                              : 47.7 KiB (0%)
  151. Language                                 : German
  152. Default                                  : No
  153. Forced                                   : No
  154. Text #9
  155. ID                                       : 11
  156. Format                                   : UTF-8
  157. Codec ID                                 : S_TEXT/UTF8
  158. Codec ID/Info                            : UTF-8 Plain Text
  159. Duration                                 : 1 h 56 min
  160. Bit rate                                 : 67 b/s
  161. Frame rate                               : 0.243 FPS
  162. Count of elements                        : 1703
  163. Stream size                              : 57.6 KiB (0%)
  164. Language                                 : German
  165. Default                                  : No
  166. Forced                                   : No
  167. Text #10
  168. ID                                       : 12
  169. Format                                   : UTF-8
  170. Codec ID                                 : S_TEXT/UTF8
  171. Codec ID/Info                            : UTF-8 Plain Text
  172. Duration                                 : 2 h 2 min
  173. Bit rate                                 : 87 b/s
  174. Frame rate                               : 0.215 FPS
  175. Count of elements                        : 1576
  176. Stream size                              : 78.2 KiB (0%)
  177. Language                                 : Greek
  178. Default                                  : No
  179. Forced                                   : No
  180. Text #11
  181. ID                                       : 13
  182. Format                                   : UTF-8
  183. Codec ID                                 : S_TEXT/UTF8
  184. Codec ID/Info                            : UTF-8 Plain Text
  185. Duration                                 : 2 h 2 min
  186. Bit rate                                 : 67 b/s
  187. Frame rate                               : 0.269 FPS
  188. Count of elements                        : 1974
  189. Stream size                              : 60.7 KiB (0%)
  190. Title                                    : SDH
  191. Language                                 : Spanish
  192. Default                                  : No
  193. Forced                                   : No
  194. Text #12
  195. ID                                       : 14
  196. Format                                   : UTF-8
  197. Codec ID                                 : S_TEXT/UTF8
  198. Codec ID/Info                            : UTF-8 Plain Text
  199. Duration                                 : 2 h 2 min
  200. Bit rate                                 : 53 b/s
  201. Frame rate                               : 0.218 FPS
  202. Count of elements                        : 1595
  203. Stream size                              : 48.2 KiB (0%)
  204. Language                                 : Spanish
  205. Default                                  : No
  206. Forced                                   : No
  207. Text #13
  208. ID                                       : 15
  209. Format                                   : UTF-8
  210. Codec ID                                 : S_TEXT/UTF8
  211. Codec ID/Info                            : UTF-8 Plain Text
  212. Duration                                 : 2 h 2 min
  213. Bit rate                                 : 49 b/s
  214. Frame rate                               : 0.215 FPS
  215. Count of elements                        : 1575
  216. Stream size                              : 44.6 KiB (0%)
  217. Language                                 : Spanish
  218. Default                                  : No
  219. Forced                                   : No
  220. Text #14
  221. ID                                       : 16
  222. Format                                   : UTF-8
  223. Codec ID                                 : S_TEXT/UTF8
  224. Codec ID/Info                            : UTF-8 Plain Text
  225. Duration                                 : 2 h 2 min
  226. Bit rate                                 : 52 b/s
  227. Frame rate                               : 0.216 FPS
  228. Count of elements                        : 1587
  229. Stream size                              : 46.9 KiB (0%)
  230. Title                                    : European
  231. Language                                 : Spanish
  232. Default                                  : No
  233. Forced                                   : No
  234. Text #15
  235. ID                                       : 17
  236. Format                                   : UTF-8
  237. Codec ID                                 : S_TEXT/UTF8
  238. Codec ID/Info                            : UTF-8 Plain Text
  239. Duration                                 : 2 h 2 min
  240. Bit rate                                 : 49 b/s
  241. Frame rate                               : 0.220 FPS
  242. Count of elements                        : 1616
  243. Stream size                              : 44.1 KiB (0%)
  244. Language                                 : Basque
  245. Default                                  : No
  246. Forced                                   : No
  247. Text #16
  248. ID                                       : 18
  249. Format                                   : UTF-8
  250. Codec ID                                 : S_TEXT/UTF8
  251. Codec ID/Info                            : UTF-8 Plain Text
  252. Duration                                 : 2 h 2 min
  253. Bit rate                                 : 44 b/s
  254. Frame rate                               : 0.152 FPS
  255. Count of elements                        : 1118
  256. Stream size                              : 39.7 KiB (0%)
  257. Language                                 : Finnish
  258. Default                                  : No
  259. Forced                                   : No
  260. Text #17
  261. ID                                       : 19
  262. Format                                   : UTF-8
  263. Codec ID                                 : S_TEXT/UTF8
  264. Codec ID/Info                            : UTF-8 Plain Text
  265. Duration                                 : 2 h 2 min
  266. Bit rate                                 : 52 b/s
  267. Frame rate                               : 0.219 FPS
  268. Count of elements                        : 1602
  269. Stream size                              : 46.7 KiB (0%)
  270. Language                                 : fil
  271. Default                                  : No
  272. Forced                                   : No
  273. Text #18
  274. ID                                       : 20
  275. Format                                   : UTF-8
  276. Codec ID                                 : S_TEXT/UTF8
  277. Codec ID/Info                            : UTF-8 Plain Text
  278. Duration                                 : 2 h 2 min
  279. Bit rate                                 : 77 b/s
  280. Frame rate                               : 0.290 FPS
  281. Count of elements                        : 2127
  282. Stream size                              : 69.2 KiB (0%)
  283. Title                                    : SDH
  284. Language                                 : French
  285. Default                                  : No
  286. Forced                                   : No
  287. Text #19
  288. ID                                       : 21
  289. Format                                   : UTF-8
  290. Codec ID                                 : S_TEXT/UTF8
  291. Codec ID/Info                            : UTF-8 Plain Text
  292. Duration                                 : 2 h 2 min
  293. Bit rate                                 : 51 b/s
  294. Frame rate                               : 0.211 FPS
  295. Count of elements                        : 1546
  296. Stream size                              : 45.9 KiB (0%)
  297. Language                                 : French
  298. Default                                  : No
  299. Forced                                   : No
  300. Text #20
  301. ID                                       : 22
  302. Format                                   : UTF-8
  303. Codec ID                                 : S_TEXT/UTF8
  304. Codec ID/Info                            : UTF-8 Plain Text
  305. Duration                                 : 2 h 1 min
  306. Bit rate                                 : 58 b/s
  307. Frame rate                               : 0.215 FPS
  308. Count of elements                        : 1575
  309. Stream size                              : 51.9 KiB (0%)
  310. Language                                 : French
  311. Default                                  : No
  312. Forced                                   : No
  313. Text #21
  314. ID                                       : 23
  315. Format                                   : UTF-8
  316. Codec ID                                 : S_TEXT/UTF8
  317. Codec ID/Info                            : UTF-8 Plain Text
  318. Duration                                 : 2 h 2 min
  319. Bit rate                                 : 47 b/s
  320. Frame rate                               : 0.219 FPS
  321. Count of elements                        : 1608
  322. Stream size                              : 42.2 KiB (0%)
  323. Language                                 : Galician
  324. Default                                  : No
  325. Forced                                   : No
  326. Text #22
  327. ID                                       : 24
  328. Format                                   : UTF-8
  329. Codec ID                                 : S_TEXT/UTF8
  330. Codec ID/Info                            : UTF-8 Plain Text
  331. Duration                                 : 2 h 2 min
  332. Bit rate                                 : 91 b/s
  333. Frame rate                               : 0.220 FPS
  334. Count of elements                        : 1615
  335. Stream size                              : 82.0 KiB (0%)
  336. Language                                 : Hebrew
  337. Default                                  : No
  338. Forced                                   : No
  339. Text #23
  340. ID                                       : 25
  341. Format                                   : UTF-8
  342. Codec ID                                 : S_TEXT/UTF8
  343. Codec ID/Info                            : UTF-8 Plain Text
  344. Duration                                 : 2 h 2 min
  345. Bit rate                                 : 46 b/s
  346. Frame rate                               : 0.213 FPS
  347. Count of elements                        : 1559
  348. Stream size                              : 41.8 KiB (0%)
  349. Language                                 : Croatian
  350. Default                                  : No
  351. Forced                                   : No
  352. Text #24
  353. ID                                       : 26
  354. Format                                   : UTF-8
  355. Codec ID                                 : S_TEXT/UTF8
  356. Codec ID/Info                            : UTF-8 Plain Text
  357. Duration                                 : 2 h 2 min
  358. Bit rate                                 : 53 b/s
  359. Frame rate                               : 0.209 FPS
  360. Count of elements                        : 1530
  361. Stream size                              : 48.2 KiB (0%)
  362. Language                                 : Hungarian
  363. Default                                  : No
  364. Forced                                   : No
  365. Text #25
  366. ID                                       : 27
  367. Format                                   : UTF-8
  368. Codec ID                                 : S_TEXT/UTF8
  369. Codec ID/Info                            : UTF-8 Plain Text
  370. Duration                                 : 2 h 2 min
  371. Bit rate                                 : 49 b/s
  372. Frame rate                               : 0.219 FPS
  373. Count of elements                        : 1604
  374. Stream size                              : 44.3 KiB (0%)
  375. Language                                 : Indonesian
  376. Default                                  : No
  377. Forced                                   : No
  378. Text #26
  379. ID                                       : 28
  380. Format                                   : UTF-8
  381. Codec ID                                 : S_TEXT/UTF8
  382. Codec ID/Info                            : UTF-8 Plain Text
  383. Duration                                 : 2 h 2 min
  384. Bit rate                                 : 50 b/s
  385. Frame rate                               : 0.206 FPS
  386. Count of elements                        : 1514
  387. Stream size                              : 45.4 KiB (0%)
  388. Language                                 : Italian
  389. Default                                  : No
  390. Forced                                   : No
  391. Text #27
  392. ID                                       : 29
  393. Format                                   : UTF-8
  394. Codec ID                                 : S_TEXT/UTF8
  395. Codec ID/Info                            : UTF-8 Plain Text
  396. Duration                                 : 2 h 2 min
  397. Bit rate                                 : 58 b/s
  398. Frame rate                               : 0.243 FPS
  399. Count of elements                        : 1785
  400. Stream size                              : 52.3 KiB (0%)
  401. Language                                 : Japanese
  402. Default                                  : No
  403. Forced                                   : No
  404. Text #28
  405. ID                                       : 30
  406. Format                                   : UTF-8
  407. Codec ID                                 : S_TEXT/UTF8
  408. Codec ID/Info                            : UTF-8 Plain Text
  409. Duration                                 : 2 h 2 min
  410. Bit rate                                 : 69 b/s
  411. Frame rate                               : 0.219 FPS
  412. Count of elements                        : 1608
  413. Stream size                              : 62.2 KiB (0%)
  414. Language                                 : Korean
  415. Default                                  : No
  416. Forced                                   : No
  417. Text #29
  418. ID                                       : 31
  419. Format                                   : UTF-8
  420. Codec ID                                 : S_TEXT/UTF8
  421. Codec ID/Info                            : UTF-8 Plain Text
  422. Duration                                 : 2 h 2 min
  423. Bit rate                                 : 52 b/s
  424. Frame rate                               : 0.214 FPS
  425. Count of elements                        : 1572
  426. Stream size                              : 46.6 KiB (0%)
  427. Language                                 : Malay
  428. Default                                  : No
  429. Forced                                   : No
  430. Text #30
  431. ID                                       : 32
  432. Format                                   : UTF-8
  433. Codec ID                                 : S_TEXT/UTF8
  434. Codec ID/Info                            : UTF-8 Plain Text
  435. Duration                                 : 2 h 2 min
  436. Bit rate                                 : 51 b/s
  437. Frame rate                               : 0.199 FPS
  438. Count of elements                        : 1458
  439. Stream size                              : 45.8 KiB (0%)
  440. Language                                 : Norwegian Bokmal
  441. Default                                  : No
  442. Forced                                   : No
  443. Text #31
  444. ID                                       : 33
  445. Format                                   : UTF-8
  446. Codec ID                                 : S_TEXT/UTF8
  447. Codec ID/Info                            : UTF-8 Plain Text
  448. Duration                                 : 1 h 56 min
  449. Bit rate                                 : 56 b/s
  450. Frame rate                               : 0.197 FPS
  451. Count of elements                        : 1381
  452. Stream size                              : 47.9 KiB (0%)
  453. Language                                 : Dutch
  454. Default                                  : No
  455. Forced                                   : No
  456. Text #32
  457. ID                                       : 34
  458. Format                                   : UTF-8
  459. Codec ID                                 : S_TEXT/UTF8
  460. Codec ID/Info                            : UTF-8 Plain Text
  461. Duration                                 : 2 h 2 min
  462. Bit rate                                 : 50 b/s
  463. Frame rate                               : 0.215 FPS
  464. Count of elements                        : 1580
  465. Stream size                              : 45.4 KiB (0%)
  466. Language                                 : Polish
  467. Default                                  : No
  468. Forced                                   : No
  469. Text #33
  470. ID                                       : 35
  471. Format                                   : UTF-8
  472. Codec ID                                 : S_TEXT/UTF8
  473. Codec ID/Info                            : UTF-8 Plain Text
  474. Duration                                 : 2 h 2 min
  475. Bit rate                                 : 49 b/s
  476. Frame rate                               : 0.212 FPS
  477. Count of elements                        : 1556
  478. Stream size                              : 44.6 KiB (0%)
  479. Language                                 : Portuguese
  480. Default                                  : No
  481. Forced                                   : No
  482. Text #34
  483. ID                                       : 36
  484. Format                                   : UTF-8
  485. Codec ID                                 : S_TEXT/UTF8
  486. Codec ID/Info                            : UTF-8 Plain Text
  487. Duration                                 : 2 h 2 min
  488. Bit rate                                 : 69 b/s
  489. Frame rate                               : 0.263 FPS
  490. Count of elements                        : 1929
  491. Stream size                              : 61.9 KiB (0%)
  492. Title                                    : SDH
  493. Language                                 : Portuguese
  494. Default                                  : No
  495. Forced                                   : No
  496. Text #35
  497. ID                                       : 37
  498. Format                                   : UTF-8
  499. Codec ID                                 : S_TEXT/UTF8
  500. Codec ID/Info                            : UTF-8 Plain Text
  501. Duration                                 : 2 h 2 min
  502. Bit rate                                 : 55 b/s
  503. Frame rate                               : 0.219 FPS
  504. Count of elements                        : 1604
  505. Stream size                              : 49.9 KiB (0%)
  506. Title                                    : Brazilian
  507. Language                                 : Portuguese
  508. Default                                  : No
  509. Forced                                   : No
  510. Text #36
  511. ID                                       : 38
  512. Format                                   : UTF-8
  513. Codec ID                                 : S_TEXT/UTF8
  514. Codec ID/Info                            : UTF-8 Plain Text
  515. Duration                                 : 2 h 2 min
  516. Bit rate                                 : 52 b/s
  517. Frame rate                               : 0.218 FPS
  518. Count of elements                        : 1597
  519. Stream size                              : 46.8 KiB (0%)
  520. Title                                    : Brazilian
  521. Language                                 : Portuguese
  522. Default                                  : No
  523. Forced                                   : No
  524. Text #37
  525. ID                                       : 39
  526. Format                                   : UTF-8
  527. Codec ID                                 : S_TEXT/UTF8
  528. Codec ID/Info                            : UTF-8 Plain Text
  529. Duration                                 : 2 h 2 min
  530. Bit rate                                 : 57 b/s
  531. Frame rate                               : 0.203 FPS
  532. Count of elements                        : 1485
  533. Stream size                              : 51.7 KiB (0%)
  534. Language                                 : Romanian
  535. Default                                  : No
  536. Forced                                   : No
  537. Text #38
  538. ID                                       : 40
  539. Format                                   : UTF-8
  540. Codec ID                                 : S_TEXT/UTF8
  541. Codec ID/Info                            : UTF-8 Plain Text
  542. Duration                                 : 2 h 2 min
  543. Bit rate                                 : 86 b/s
  544. Frame rate                               : 0.219 FPS
  545. Count of elements                        : 1604
  546. Stream size                              : 77.4 KiB (0%)
  547. Language                                 : Russian
  548. Default                                  : No
  549. Forced                                   : No
  550. Text #39
  551. ID                                       : 41
  552. Format                                   : UTF-8
  553. Codec ID                                 : S_TEXT/UTF8
  554. Codec ID/Info                            : UTF-8 Plain Text
  555. Duration                                 : 2 h 2 min
  556. Bit rate                                 : 49 b/s
  557. Frame rate                               : 0.188 FPS
  558. Count of elements                        : 1377
  559. Stream size                              : 44.3 KiB (0%)
  560. Language                                 : Swedish
  561. Default                                  : No
  562. Forced                                   : No
  563. Text #40
  564. ID                                       : 42
  565. Format                                   : UTF-8
  566. Codec ID                                 : S_TEXT/UTF8
  567. Codec ID/Info                            : UTF-8 Plain Text
  568. Duration                                 : 2 h 2 min
  569. Bit rate                                 : 157 b/s
  570. Frame rate                               : 0.222 FPS
  571. Count of elements                        : 1629
  572. Stream size                              : 141 KiB (0%)
  573. Language                                 : Thai
  574. Default                                  : No
  575. Forced                                   : No
  576. Text #41
  577. ID                                       : 43
  578. Format                                   : UTF-8
  579. Codec ID                                 : S_TEXT/UTF8
  580. Codec ID/Info                            : UTF-8 Plain Text
  581. Duration                                 : 2 h 2 min
  582. Bit rate                                 : 51 b/s
  583. Frame rate                               : 0.217 FPS
  584. Count of elements                        : 1589
  585. Stream size                              : 45.9 KiB (0%)
  586. Language                                 : Turkish
  587. Default                                  : No
  588. Forced                                   : No
  589. Text #42
  590. ID                                       : 44
  591. Format                                   : UTF-8
  592. Codec ID                                 : S_TEXT/UTF8
  593. Codec ID/Info                            : UTF-8 Plain Text
  594. Duration                                 : 2 h 2 min
  595. Bit rate                                 : 79 b/s
  596. Frame rate                               : 0.216 FPS
  597. Count of elements                        : 1583
  598. Stream size                              : 71.5 KiB (0%)
  599. Language                                 : Ukrainian
  600. Default                                  : No
  601. Forced                                   : No
  602. Text #43
  603. ID                                       : 45
  604. Format                                   : UTF-8
  605. Codec ID                                 : S_TEXT/UTF8
  606. Codec ID/Info                            : UTF-8 Plain Text
  607. Duration                                 : 2 h 2 min
  608. Bit rate                                 : 76 b/s
  609. Frame rate                               : 0.215 FPS
  610. Count of elements                        : 1576
  611. Stream size                              : 68.2 KiB (0%)
  612. Language                                 : Vietnamese
  613. Default                                  : No
  614. Forced                                   : No
  615. Text #44
  616. ID                                       : 46
  617. Format                                   : UTF-8
  618. Codec ID                                 : S_TEXT/UTF8
  619. Codec ID/Info                            : UTF-8 Plain Text
  620. Duration                                 : 2 h 2 min
  621. Bit rate                                 : 58 b/s
  622. Frame rate                               : 0.222 FPS
  623. Count of elements                        : 1628
  624. Stream size                              : 52.2 KiB (0%)
  625. Title                                    : Simplified
  626. Language                                 : Chinese
  627. Default                                  : No
  628. Forced                                   : No
  629. Text #45
  630. ID                                       : 47
  631. Format                                   : UTF-8
  632. Codec ID                                 : S_TEXT/UTF8
  633. Codec ID/Info                            : UTF-8 Plain Text
  634. Duration                                 : 2 h 2 min
  635. Bit rate                                 : 61 b/s
  636. Frame rate                               : 0.228 FPS
  637. Count of elements                        : 1675
  638. Stream size                              : 55.3 KiB (0%)
  639. Title                                    : Traditional
  640. Language                                 : Chinese
  641. Default                                  : No
  642. Forced                                   : No
复制代码




                                       
                                       

                                       
                                       
                                       




Purple.Hearts.2022.2160p.NF.WEB-DL.x265.10bit.SDR.DDP5.1.Atmos-APEX.torrent (14.47 KB, 下载次数: 0)
回复

使用道具 举报

您需要登录后才可以回帖 登录 | 立即注册

本版积分规则

QQ|Archiver|手机版|小黑屋|蓝光电影网

GMT+8, 2022-11-30 08:43 , Processed in 0.056414 second(s), 28 queries .

Powered by Discuz! X3.4

Copyright © 2001-2020, Tencent Cloud.

快速回复 返回顶部 返回列表