找回密码
 立即注册

QQ登录

只需一步,快速开始

查看: 11|回复: 0

[UHD.HEVC] 疯狂轮滑 Rollerball.1975.2160p.US.BluRay.REMUX.HEVC.DTS-HD.MA.5.1-FGT 75.08GB

[复制链接]

0

精华

0

好友

2

听众

新手上路

Rank: 2

蓝光币
5
发表于 5 天前 | 显示全部楼层 |阅读模式
[img][/img]

◎标  题 疯狂轮滑
◎译  名 滚球大战 / 极速风暴
◎片  名 Rollerball
◎年  代 1975
◎产  地 英国
◎类  别 动作 / 科幻 / 惊悚 / 运动
◎语  言 英语
◎上映日期 1975-06-25
◎IMDb评分 6.6/10 (24162人评价)
◎IMDb链接 https://www.imdb.com/title/tt0073631/
◎豆瓣评分 6.1/10 (260人评价)
◎豆瓣链接 https://movie.douban.com/subject/1293587/
◎片  长 125 分钟
◎导  演 诺曼·杰威森 Norman Jewison
◎编  剧 威廉·哈里森 William Harrison
◎演  员 詹姆斯·肯恩 James Caan
       约翰·豪斯曼 John Houseman
       莫德·亚当斯 Maud Adams
       罗伯特·李 Robert Lee
       拉尔夫·理查德森 Ralph Richardson
◎标  签 科幻 / 反乌托邦 / 动作 / 英国 / 美国 / 1970s / 美国电影 / 电影
◎简  介

    在不久后的2005年,一种名为“轮滑球”(Rollerball)的新兴竞技运动以其超乎寻常的惊险、刺激吸引了大众的注意力,成为一大体育娱乐热点。每当赛季到来时,数以万计狂热的观众都会疯狂地为自己支持的队伍下注,然后守在电视前观看紧张的现场转播。然而,在这项运动的背后,却隐藏着黑暗残酷的内幕。                                                                      轮滑球融合了冰球和马球两种运动项目的特点,以个人技巧和团体协作为基础,比赛规则宽松,具有很强的对抗性。而且在该运动中,摩托车也是比赛器械之一,赛手可以驾驶摩托车做出任何动作,甚至允许一名赛手骑摩托从对方赛手身上碾过,这使轮滑球运动不仅仅限于“惊险”、“刺激 ”的范畴,而是越发显得暴力、野蛮了——球场上,可能随时会有球员在对抗中丧命。因此,国际体育团体严格限制这项运动的开展,使它成为只局限在土耳其、哈萨克斯坦等地的半底下运动,但这种局限并不能约束这项运动的残酷性向更可怕的及至发展。                                                                      亚利希·帕托威克(让·雷诺)是一名俄国大财阀,他不仅拥有一支自己的轮滑球队——骑士队,而且还收购了整个轮滑球运动的组织权。为了使这项运动给他带来丰厚的利润,野心勃勃的帕托威克对比赛规则和组织形式做了一系列的改革,使得轮滑球比赛酷似古罗马的角斗,变得更加残酷、血腥,从而越发具有吸引力和“观赏性”;同时,在帕托威克的经营下,轮滑球运动的规模也在不断扩大,各国的职业球队和球员越来越多地加入联盟中,整个比赛的水平也越来越高。                                                                      在联盟的众多队伍里,帕托威克的骑士队是一支技术高超、所向披靡、神话似的的队伍。在队长乔纳森·克罗斯(克里斯·克莱恩)和灵魂球员马库斯·瑞德里(LL Cool J)、奥罗拉(瑞贝卡·罗米吉-斯塔摩斯)的努力下,骑士队在联盟赛中取得了无可匹敌的积分,赢得了众多球迷的追随。但这一切却不能令球队老板欣喜若狂,因为他所在乎的只是球队能否晋级、能否给他带来滚滚财源——为了达到这个目的,他可以付出一切代价,包括球员的性命。目睹赛场上接连不断的悲剧和帕托威克的冷酷无情,克罗斯和队友们渐渐觉得良心不安。也许,他们应该做些什么来揭露这项野蛮运动背后的罪恶——尽管这将给他们带来杀身之祸……
  1. Video
  2. ID                                       : 1
  3. ID in the original source medium         : 4113 (0x1011)
  4. Format                                   : HEVC
  5. Format/Info                              : High Efficiency Video Coding
  6. Format profile                           : Main [email protected]@High
  7. HDR format                               : Dolby Vision, Version 1.0, dvhe.07.06, BL+EL+RPU, Blu-ray compatible / SMPTE ST 2086, HDR10 compatible
  8. Codec ID                                 : V_MPEGH/ISO/HEVC
  9. Duration                                 : 2 h 4 min
  10. Bit rate                                 : 79.9 Mb/s
  11. Width                                    : 3 840 pixels
  12. Height                                   : 2 160 pixels
  13. Display aspect ratio                     : 16:9
  14. Frame rate mode                          : Constant
  15. Frame rate                               : 24.000 FPS
  16. Color space                              : YUV
  17. Chroma subsampling                       : 4:2:0 (Type 2)
  18. Bit depth                                : 10 bits
  19. Bits/(Pixel*Frame)                       : 0.402
  20. Stream size                              : 69.6 GiB (93%)
  21. Language                                 : English
  22. Default                                  : No
  23. Forced                                   : No
  24. Color range                              : Limited
  25. Color primaries                          : BT.2020
  26. Transfer characteristics                 : PQ
  27. Matrix coefficients                      : BT.2020 non-constant
  28. Mastering display color primaries        : BT.2020
  29. Mastering display luminance              : min: 0.0001 cd/m2, max: 1000 cd/m2
  30. Maximum Content Light Level              : 1000 cd/m2
  31. Maximum Frame-Average Light Level        : 514 cd/m2
  32. Original source medium                   : Blu-ray
  33. Audio #1
  34. ID                                       : 2
  35. ID in the original source medium         : 4352 (0x1100)
  36. Format                                   : DTS XLL
  37. Format/Info                              : Digital Theater Systems
  38. Commercial name                          : DTS-HD Master Audio
  39. Codec ID                                 : A_DTS
  40. Duration                                 : 2 h 4 min
  41. Bit rate mode                            : Variable
  42. Bit rate                                 : 3 223 kb/s
  43. Channel(s)                               : 6 channels
  44. Channel layout                           : C L R Ls Rs LFE
  45. Sampling rate                            : 48.0 kHz
  46. Frame rate                               : 93.750 FPS (512 SPF)
  47. Bit depth                                : 24 bits
  48. Compression mode                         : Lossless
  49. Stream size                              : 2.81 GiB (4%)
  50. Title                                    : DTS-HD MA 5.1
  51. Language                                 : English
  52. Default                                  : Yes
  53. Forced                                   : No
  54. Original source medium                   : Blu-ray
  55. Audio #2
  56. ID                                       : 3
  57. Format                                   : AC-3
  58. Format/Info                              : Audio Coding 3
  59. Commercial name                          : Dolby Digital
  60. Codec ID                                 : A_AC3
  61. Duration                                 : 2 h 4 min
  62. Bit rate mode                            : Constant
  63. Bit rate                                 : 640 kb/s
  64. Channel(s)                               : 6 channels
  65. Channel layout                           : L R C LFE Ls Rs
  66. Sampling rate                            : 48.0 kHz
  67. Frame rate                               : 31.250 FPS (1536 SPF)
  68. Compression mode                         : Lossy
  69. Stream size                              : 571 MiB (1%)
  70. Title                                    : DD 5.1
  71. Language                                 : English
  72. Service kind                             : Complete Main
  73. Default                                  : No
  74. Forced                                   : No
  75. Audio #3
  76. ID                                       : 4
  77. ID in the original source medium         : 4353 (0x1101)
  78. Format                                   : DTS XLL
  79. Format/Info                              : Digital Theater Systems
  80. Commercial name                          : DTS-HD Master Audio
  81. Codec ID                                 : A_DTS
  82. Duration                                 : 2 h 4 min
  83. Bit rate mode                            : Variable
  84. Bit rate                                 : 1 982 kb/s
  85. Channel(s)                               : 2 channels
  86. Channel layout                           : L R
  87. Sampling rate                            : 48.0 kHz
  88. Frame rate                               : 93.750 FPS (512 SPF)
  89. Bit depth                                : 24 bits
  90. Compression mode                         : Lossless
  91. Stream size                              : 1.73 GiB (2%)
  92. Title                                    : DTS-HD MA 2.0
  93. Language                                 : English
  94. Default                                  : No
  95. Forced                                   : No
  96. Original source medium                   : Blu-ray
  97. Audio #4
  98. ID                                       : 5
  99. ID in the original source medium         : 4354 (0x1102)
  100. Format                                   : AC-3
  101. Format/Info                              : Audio Coding 3
  102. Commercial name                          : Dolby Digital
  103. Codec ID                                 : A_AC3
  104. Duration                                 : 2 h 4 min
  105. Bit rate mode                            : Constant
  106. Bit rate                                 : 192 kb/s
  107. Channel(s)                               : 2 channels
  108. Channel layout                           : L R
  109. Sampling rate                            : 48.0 kHz
  110. Frame rate                               : 31.250 FPS (1536 SPF)
  111. Compression mode                         : Lossy
  112. Stream size                              : 171 MiB (0%)
  113. Title                                    : DD 2.0
  114. Language                                 : English
  115. Service kind                             : Complete Main
  116. Default                                  : No
  117. Forced                                   : No
  118. Original source medium                   : Blu-ray
  119. Audio #5
  120. ID                                       : 6
  121. ID in the original source medium         : 4355 (0x1103)
  122. Format                                   : AC-3
  123. Format/Info                              : Audio Coding 3
  124. Commercial name                          : Dolby Digital
  125. Codec ID                                 : A_AC3
  126. Duration                                 : 2 h 4 min
  127. Bit rate mode                            : Constant
  128. Bit rate                                 : 192 kb/s
  129. Channel(s)                               : 2 channels
  130. Channel layout                           : L R
  131. Sampling rate                            : 48.0 kHz
  132. Frame rate                               : 31.250 FPS (1536 SPF)
  133. Compression mode                         : Lossy
  134. Stream size                              : 171 MiB (0%)
  135. Title                                    : DD 2.0
  136. Language                                 : English
  137. Service kind                             : Complete Main
  138. Default                                  : No
  139. Forced                                   : No
  140. Original source medium                   : Blu-ray
  141. Text #1
  142. ID                                       : 7
  143. Format                                   : UTF-8
  144. Codec ID                                 : S_TEXT/UTF8
  145. Codec ID/Info                            : UTF-8 Plain Text
  146. Duration                                 : 1 h 58 min
  147. Bit rate                                 : 48 b/s
  148. Frame rate                               : 0.194 FPS
  149. Count of elements                        : 1378
  150. Stream size                              : 42.3 KiB (0%)
  151. Language                                 : English
  152. Default                                  : Yes
  153. Forced                                   : No
  154. Text #2
  155. ID                                       : 8
  156. Format                                   : UTF-8
  157. Codec ID                                 : S_TEXT/UTF8
  158. Codec ID/Info                            : UTF-8 Plain Text
  159. Duration                                 : 2 h 3 min
  160. Bit rate                                 : 55 b/s
  161. Frame rate                               : 0.224 FPS
  162. Count of elements                        : 1664
  163. Stream size                              : 50.7 KiB (0%)
  164. Title                                    : SDH
  165. Language                                 : English
  166. Default                                  : No
  167. Forced                                   : No
  168. Text #3
  169. ID                                       : 9
  170. ID in the original source medium         : 4768 (0x12A0)
  171. Format                                   : PGS
  172. Muxing mode                              : zlib
  173. Codec ID                                 : S_HDMV/PGS
  174. Codec ID/Info                            : Picture based subtitle format used on BDs/HD-DVDs
  175. Duration                                 : 2 h 3 min
  176. Bit rate                                 : 31.6 kb/s
  177. Frame rate                               : 0.452 FPS
  178. Count of elements                        : 3364
  179. Stream size                              : 28.0 MiB (0%)
  180. Language                                 : English
  181. Default                                  : No
  182. Forced                                   : No
  183. Original source medium                   : Blu-ray
  184. Menu
  185. 00:00:00.000                             : en:Chapter 01
  186. 00:14:20.375                             : en:Chapter 02
  187. 00:25:18.833                             : en:Chapter 03
  188. 00:35:05.875                             : en:Chapter 04
  189. 00:46:04.791                             : en:Chapter 05
  190. 00:56:42.833                             : en:Chapter 06
  191. 01:04:46.416                             : en:Chapter 07
  192. 01:12:32.666                             : en:Chapter 08
  193. 01:21:33.125                             : en:Chapter 09
  194. 01:30:40.083                             : en:Chapter 10
  195. 01:40:00.791                             : en:Chapter 11
  196. 01:49:57.541                             : en:Chapter 12
复制代码




                                       
                                       

                                       
                                       
                                       




Rollerball.1975.2160p.US.BluRay.REMUX.HEVC.DTS-HD.MA.5.1-FGT.torrent (94.5 KB, 下载次数: 0)
回复

使用道具 举报

您需要登录后才可以回帖 登录 | 立即注册

本版积分规则

QQ|Archiver|手机版|小黑屋|蓝光电影网

GMT+8, 2022-11-30 08:33 , Processed in 0.054249 second(s), 28 queries .

Powered by Discuz! X3.4

Copyright © 2001-2020, Tencent Cloud.

快速回复 返回顶部 返回列表