找回密码
 立即注册

QQ登录

只需一步,快速开始

查看: 21|回复: 0

[其他] 鳄鱼莱莱 Lyle.Lyle.Crocodile.2022.2160p.WEB-DL.x265.10bit.HDR.DDP5.1.Atmos-SMURF 18.90GB

[复制链接]

0

精华

0

好友

2

听众

新手上路

Rank: 2

蓝光币
5
发表于 7 天前 | 显示全部楼层 |阅读模式
[img][/img]

◎标  题 鳄鱼莱莱
◎译  名 纽约爱音鳄(港) / 鳄鱼歌王(台) / 鳄鱼莱尔
◎片  名 Lyle, Lyle, Crocodile
◎年  代 2022
◎产  地 美国
◎类  别 喜剧 / 动画 / 歌舞 / 家庭 / 奇幻 / 冒险
◎语  言 英语
◎上映日期 2022-10-07(美国)
◎IMDb评分 6.5/10 (1159人评价)
◎IMDb链接 https://www.imdb.com/title/tt14668630/
◎豆瓣评分 7.0/10 (188人评价)
◎豆瓣链接 https://movie.douban.com/subject/35606498/
◎片  长 106分钟
◎导  演 乔什·戈登 Josh Gordon
       威尔·斯佩克 Will Speck
◎编  剧 威廉姆·戴维斯 William Davies
       伯纳德·韦伯 Bernard Waber
◎演  员 肖恩·蒙德兹 Shawn Mendes
       哈维尔·巴登 Javier Bardem
       吴恬敏 Constance Wu
       斯科特·麦克纳里 Scoot McNairy
       温斯洛·费格雷 Winslow Fegley
       布伦特·吉尔曼 Brett Gelman
       萨尔·维斯库索 Sal Viscuso
       多恩·迪皮塔 Don DiPetta
       尤西·丘辟特 Yussie Jupiter
       科拉·林德尔 Cora Maple Lindell
       马克·威尔斯 Mac Wells
       林赛·莫泽 Lindsey Moser
       丹尼·所罗门 Danny Salomon
       本吉·帕塞克 Benj Pasek
       贾斯汀·保罗 Justin Paul
◎简  介

  影片改编自风靡全球的同名绘本系列,肖恩·蒙德兹献声演唱鳄鱼莱莱。                                    
                                故事讲述了小男孩乔什·普利姆跟随父母举家搬进大城市的新居,和一只住在阁楼上、能舞会唱的鳄鱼成为好朋友的奇遇故事。自带欢乐属性的鳄鱼莱莱治愈了难以适应新环境的乔什,乔什也努力消除父母对莱莱的偏见。两小只开启前所未有的都市历险,历经重重欢乐闹剧,莱莱与普利姆一家最终成为了彼此的家人与伙伴。
  1. Video
  2. ID                                       : 1
  3. Format                                   : HEVC
  4. Format/Info                              : High Efficiency Video Coding
  5. Format profile                           : Main [email protected]@High
  6. HDR format                               : Dolby Vision, Version 1.0, dvhe.08.06, BL+RPU, HDR10 compatible / SMPTE ST 2086, HDR10 compatible
  7. Codec ID                                 : V_MPEGH/ISO/HEVC
  8. Duration                                 : 1 h 42 min
  9. Bit rate                                 : 25.7 Mb/s
  10. Width                                    : 3 840 pixels
  11. Height                                   : 1 606 pixels
  12. Display aspect ratio                     : 2.40:1
  13. Frame rate mode                          : Constant
  14. Frame rate                               : 25.000 FPS
  15. Color space                              : YUV
  16. Chroma subsampling                       : 4:2:0 (Type 2)
  17. Bit depth                                : 10 bits
  18. Bits/(Pixel*Frame)                       : 0.166
  19. Stream size                              : 18.3 GiB (97%)
  20. Default                                  : Yes
  21. Forced                                   : No
  22. Color range                              : Limited
  23. Color primaries                          : BT.2020
  24. Transfer characteristics                 : PQ
  25. Matrix coefficients                      : BT.2020 non-constant
  26. Mastering display color primaries        : BT.2020
  27. Mastering display luminance              : min: 0.0050 cd/m2, max: 1000 cd/m2
  28. Maximum Content Light Level              : 710 cd/m2
  29. Maximum Frame-Average Light Level        : 232 cd/m2
  30. Audio
  31. ID                                       : 2
  32. Format                                   : E-AC-3 JOC
  33. Format/Info                              : Enhanced AC-3 with Joint Object Coding
  34. Commercial name                          : Dolby Digital Plus with Dolby Atmos
  35. Codec ID                                 : A_EAC3
  36. Duration                                 : 1 h 46 min
  37. Bit rate mode                            : Constant
  38. Bit rate                                 : 768 kb/s
  39. Channel(s)                               : 6 channels
  40. Channel layout                           : L R C LFE Ls Rs
  41. Sampling rate                            : 48.0 kHz
  42. Frame rate                               : 31.250 FPS (1536 SPF)
  43. Compression mode                         : Lossy
  44. Stream size                              : 586 MiB (3%)
  45. Language                                 : English
  46. Service kind                             : Complete Main
  47. Default                                  : Yes
  48. Forced                                   : No
  49. Complexity index                         : 16
  50. Number of dynamic objects                : 15
  51. Bed channel count                        : 1 channel
  52. Bed channel configuration                : LFE
  53. Text #1
  54. ID                                       : 3
  55. Format                                   : UTF-8
  56. Codec ID                                 : S_TEXT/UTF8
  57. Codec ID/Info                            : UTF-8 Plain Text
  58. Duration                                 : 1 h 38 min
  59. Bit rate                                 : 51 b/s
  60. Frame rate                               : 0.210 FPS
  61. Count of elements                        : 1249
  62. Stream size                              : 37.5 KiB (0%)
  63. Title                                    : British
  64. Language                                 : English
  65. Default                                  : No
  66. Forced                                   : No
  67. Text #2
  68. ID                                       : 4
  69. Format                                   : UTF-8
  70. Codec ID                                 : S_TEXT/UTF8
  71. Codec ID/Info                            : UTF-8 Plain Text
  72. Duration                                 : 1 h 38 min
  73. Bit rate                                 : 51 b/s
  74. Frame rate                               : 0.210 FPS
  75. Count of elements                        : 1249
  76. Stream size                              : 37.5 KiB (0%)
  77. Language                                 : English
  78. Default                                  : No
  79. Forced                                   : No
  80. Text #3
  81. ID                                       : 5
  82. Format                                   : UTF-8
  83. Codec ID                                 : S_TEXT/UTF8
  84. Codec ID/Info                            : UTF-8 Plain Text
  85. Duration                                 : 1 h 44 min
  86. Bit rate                                 : 68 b/s
  87. Frame rate                               : 0.272 FPS
  88. Count of elements                        : 1703
  89. Stream size                              : 52.2 KiB (0%)
  90. Title                                    : SDH
  91. Language                                 : English
  92. Default                                  : No
  93. Forced                                   : No
  94. Text #4
  95. ID                                       : 6
  96. Format                                   : UTF-8
  97. Codec ID                                 : S_TEXT/UTF8
  98. Codec ID/Info                            : UTF-8 Plain Text
  99. Duration                                 : 1 h 45 min
  100. Bit rate                                 : 43 b/s
  101. Frame rate                               : 0.192 FPS
  102. Count of elements                        : 1217
  103. Stream size                              : 34.0 KiB (0%)
  104. Language                                 : Indonesian
  105. Default                                  : No
  106. Forced                                   : No
  107. Text #5
  108. ID                                       : 7
  109. Format                                   : UTF-8
  110. Codec ID                                 : S_TEXT/UTF8
  111. Codec ID/Info                            : UTF-8 Plain Text
  112. Duration                                 : 1 h 45 min
  113. Bit rate                                 : 63 b/s
  114. Frame rate                               : 0.194 FPS
  115. Count of elements                        : 1228
  116. Stream size                              : 48.9 KiB (0%)
  117. Language                                 : Vietnamese
  118. Default                                  : No
  119. Forced                                   : No
  120. Text #6
  121. ID                                       : 8
  122. Format                                   : UTF-8
  123. Codec ID                                 : S_TEXT/UTF8
  124. Codec ID/Info                            : UTF-8 Plain Text
  125. Duration                                 : 1 h 45 min
  126. Bit rate                                 : 42 b/s
  127. Frame rate                               : 0.193 FPS
  128. Count of elements                        : 1226
  129. Stream size                              : 32.9 KiB (0%)
  130. Title                                    : Traditional
  131. Language                                 : Chinese
  132. Default                                  : No
  133. Forced                                   : No
  134. Menu
  135. 00:00:00.000                             : en:Chapter 01
  136. 00:05:30.205                             : en:Chapter 02
  137. 00:12:30.166                             : en:Chapter 03
  138. 00:19:28.960                             : en:Chapter 04
  139. 00:25:47.047                             : en:Chapter 05
  140. 00:32:14.392                             : en:Chapter 06
  141. 00:38:41.112                             : en:Chapter 07
  142. 00:46:31.875                             : en:Chapter 08
  143. 00:52:39.200                             : en:Chapter 09
  144. 00:59:03.418                             : en:Chapter 10
  145. 01:05:06.031                             : en:Chapter 11
  146. 01:11:06.474                             : en:Chapter 12
  147. 01:18:27.040                             : en:Chapter 13
  148. 01:26:05.915                             : en:Chapter 14
  149. 01:30:00.900                             : en:Chapter 15
  150. 01:38:56.644                             : en:Chapter 16
复制代码




                                       
                                       

                                       
                                       
                                       




Lyle.Lyle.Crocodile.2022.1080p.WEBRip.DDP5.1.Atmos.x264-SMURF.torrent (14.31 KB, 下载次数: 5)
回复

使用道具 举报

您需要登录后才可以回帖 登录 | 立即注册

本版积分规则

QQ|Archiver|手机版|小黑屋|蓝光电影网

GMT+8, 2022-11-30 08:06 , Processed in 0.051757 second(s), 28 queries .

Powered by Discuz! X3.4

Copyright © 2001-2020, Tencent Cloud.

快速回复 返回顶部 返回列表