找回密码
 立即注册

QQ登录

只需一步,快速开始

查看: 19|回复: 0

[其他] 鳄鱼莱莱 Lyle.Lyle.Crocodile.2022.2160p.WEB-DL.x265.10bit.SDR.DDP5.1.Atmos-SMURF 9.51GB

[复制链接]

0

精华

0

好友

2

听众

新手上路

Rank: 2

蓝光币
5
发表于 7 天前 | 显示全部楼层 |阅读模式
[img][/img]

◎标  题 鳄鱼莱莱
◎译  名 纽约爱音鳄(港) / 鳄鱼歌王(台) / 鳄鱼莱尔
◎片  名 Lyle, Lyle, Crocodile
◎年  代 2022
◎产  地 美国
◎类  别 喜剧 / 动画 / 歌舞 / 家庭 / 奇幻 / 冒险
◎语  言 英语
◎上映日期 2022-10-07(美国)
◎IMDb评分 6.5/10 (1159人评价)
◎IMDb链接 https://www.imdb.com/title/tt14668630/
◎豆瓣评分 7.0/10 (188人评价)
◎豆瓣链接 https://movie.douban.com/subject/35606498/
◎片  长 106分钟
◎导  演 乔什·戈登 Josh Gordon
       威尔·斯佩克 Will Speck
◎编  剧 威廉姆·戴维斯 William Davies
       伯纳德·韦伯 Bernard Waber
◎演  员 肖恩·蒙德兹 Shawn Mendes
       哈维尔·巴登 Javier Bardem
       吴恬敏 Constance Wu
       斯科特·麦克纳里 Scoot McNairy
       温斯洛·费格雷 Winslow Fegley
       布伦特·吉尔曼 Brett Gelman
       萨尔·维斯库索 Sal Viscuso
       多恩·迪皮塔 Don DiPetta
       尤西·丘辟特 Yussie Jupiter
       科拉·林德尔 Cora Maple Lindell
       马克·威尔斯 Mac Wells
       林赛·莫泽 Lindsey Moser
       丹尼·所罗门 Danny Salomon
       本吉·帕塞克 Benj Pasek
       贾斯汀·保罗 Justin Paul
◎简  介

  影片改编自风靡全球的同名绘本系列,肖恩·蒙德兹献声演唱鳄鱼莱莱。                                    
                                故事讲述了小男孩乔什·普利姆跟随父母举家搬进大城市的新居,和一只住在阁楼上、能舞会唱的鳄鱼成为好朋友的奇遇故事。自带欢乐属性的鳄鱼莱莱治愈了难以适应新环境的乔什,乔什也努力消除父母对莱莱的偏见。两小只开启前所未有的都市历险,历经重重欢乐闹剧,莱莱与普利姆一家最终成为了彼此的家人与伙伴。
  1. Video
  2. ID                                       : 1
  3. Format                                   : HEVC
  4. Format/Info                              : High Efficiency Video Coding
  5. Format profile                           : Main [email protected]@High
  6. Codec ID                                 : V_MPEGH/ISO/HEVC
  7. Duration                                 : 1 h 46 min
  8. Bit rate                                 : 12.0 Mb/s
  9. Width                                    : 3 840 pixels
  10. Height                                   : 1 606 pixels
  11. Display aspect ratio                     : 2.40:1
  12. Frame rate mode                          : Constant
  13. Frame rate                               : 23.976 FPS
  14. Color space                              : YUV
  15. Chroma subsampling                       : 4:2:0
  16. Bit depth                                : 10 bits
  17. Bits/(Pixel*Frame)                       : 0.081
  18. Stream size                              : 8.93 GiB (94%)
  19. Language                                 : English
  20. Default                                  : Yes
  21. Forced                                   : No
  22. Color range                              : Limited
  23. Color primaries                          : BT.709
  24. Transfer characteristics                 : BT.709
  25. Matrix coefficients                      : BT.709
  26. Audio
  27. ID                                       : 2
  28. Format                                   : E-AC-3 JOC
  29. Format/Info                              : Enhanced AC-3 with Joint Object Coding
  30. Commercial name                          : Dolby Digital Plus with Dolby Atmos
  31. Codec ID                                 : A_EAC3
  32. Duration                                 : 1 h 46 min
  33. Bit rate mode                            : Constant
  34. Bit rate                                 : 768 kb/s
  35. Channel(s)                               : 6 channels
  36. Channel layout                           : L R C LFE Ls Rs
  37. Sampling rate                            : 48.0 kHz
  38. Frame rate                               : 31.250 FPS (1536 SPF)
  39. Compression mode                         : Lossy
  40. Stream size                              : 586 MiB (6%)
  41. Language                                 : English
  42. Service kind                             : Complete Main
  43. Default                                  : Yes
  44. Forced                                   : No
  45. Complexity index                         : 16
  46. Number of dynamic objects                : 15
  47. Bed channel count                        : 1 channel
  48. Bed channel configuration                : LFE
  49. Text #1
  50. ID                                       : 3
  51. Format                                   : UTF-8
  52. Codec ID                                 : S_TEXT/UTF8
  53. Codec ID/Info                            : UTF-8 Plain Text
  54. Duration                                 : 1 h 38 min
  55. Bit rate                                 : 51 b/s
  56. Frame rate                               : 0.210 FPS
  57. Count of elements                        : 1249
  58. Stream size                              : 37.5 KiB (0%)
  59. Title                                    : British
  60. Language                                 : English
  61. Default                                  : No
  62. Forced                                   : No
  63. Text #2
  64. ID                                       : 4
  65. Format                                   : UTF-8
  66. Codec ID                                 : S_TEXT/UTF8
  67. Codec ID/Info                            : UTF-8 Plain Text
  68. Duration                                 : 1 h 38 min
  69. Bit rate                                 : 51 b/s
  70. Frame rate                               : 0.210 FPS
  71. Count of elements                        : 1249
  72. Stream size                              : 37.5 KiB (0%)
  73. Language                                 : English
  74. Default                                  : No
  75. Forced                                   : No
  76. Text #3
  77. ID                                       : 5
  78. Format                                   : UTF-8
  79. Codec ID                                 : S_TEXT/UTF8
  80. Codec ID/Info                            : UTF-8 Plain Text
  81. Duration                                 : 1 h 44 min
  82. Bit rate                                 : 68 b/s
  83. Frame rate                               : 0.272 FPS
  84. Count of elements                        : 1703
  85. Stream size                              : 52.2 KiB (0%)
  86. Title                                    : SDH
  87. Language                                 : English
  88. Default                                  : No
  89. Forced                                   : No
  90. Text #4
  91. ID                                       : 6
  92. Format                                   : UTF-8
  93. Codec ID                                 : S_TEXT/UTF8
  94. Codec ID/Info                            : UTF-8 Plain Text
  95. Duration                                 : 1 h 45 min
  96. Bit rate                                 : 43 b/s
  97. Frame rate                               : 0.192 FPS
  98. Count of elements                        : 1217
  99. Stream size                              : 34.0 KiB (0%)
  100. Language                                 : Indonesian
  101. Default                                  : No
  102. Forced                                   : No
  103. Text #5
  104. ID                                       : 7
  105. Format                                   : UTF-8
  106. Codec ID                                 : S_TEXT/UTF8
  107. Codec ID/Info                            : UTF-8 Plain Text
  108. Duration                                 : 1 h 45 min
  109. Bit rate                                 : 63 b/s
  110. Frame rate                               : 0.194 FPS
  111. Count of elements                        : 1228
  112. Stream size                              : 48.9 KiB (0%)
  113. Language                                 : Vietnamese
  114. Default                                  : No
  115. Forced                                   : No
  116. Text #6
  117. ID                                       : 8
  118. Format                                   : UTF-8
  119. Codec ID                                 : S_TEXT/UTF8
  120. Codec ID/Info                            : UTF-8 Plain Text
  121. Duration                                 : 1 h 45 min
  122. Bit rate                                 : 42 b/s
  123. Frame rate                               : 0.193 FPS
  124. Count of elements                        : 1226
  125. Stream size                              : 32.9 KiB (0%)
  126. Title                                    : Traditional
  127. Language                                 : Chinese
  128. Default                                  : No
  129. Forced                                   : No
  130. Menu
  131. 00:00:00.000                             : en:Chapter 01
  132. 00:05:30.205                             : en:Chapter 02
  133. 00:12:30.166                             : en:Chapter 03
  134. 00:19:28.960                             : en:Chapter 04
  135. 00:25:47.047                             : en:Chapter 05
  136. 00:32:14.392                             : en:Chapter 06
  137. 00:38:41.112                             : en:Chapter 07
  138. 00:46:31.875                             : en:Chapter 08
  139. 00:52:39.200                             : en:Chapter 09
  140. 00:59:03.418                             : en:Chapter 10
  141. 01:05:06.031                             : en:Chapter 11
  142. 01:11:06.474                             : en:Chapter 12
  143. 01:18:27.040                             : en:Chapter 13
  144. 01:26:05.915                             : en:Chapter 14
  145. 01:30:00.900                             : en:Chapter 15
  146. 01:38:56.644                             : en:Chapter 16
复制代码




                                       
                                       

                                       
                                       
                                       




Lyle.Lyle.Crocodile.2022.2160p.WEB-DL.x265.10bit.SDR.DDP5.1.Atmos-SMURF.torrent (24.44 KB, 下载次数: 0)
回复

使用道具 举报

您需要登录后才可以回帖 登录 | 立即注册

本版积分规则

QQ|Archiver|手机版|小黑屋|蓝光电影网

GMT+8, 2022-11-30 09:20 , Processed in 0.144410 second(s), 28 queries .

Powered by Discuz! X3.4

Copyright © 2001-2020, Tencent Cloud.

快速回复 返回顶部 返回列表