找回密码
 立即注册

QQ登录

只需一步,快速开始

查看: 16|回复: 0

[其他] 鳄鱼莱莱 Lyle.Lyle.Crocodile.2022.2160p.WEB-DL.DDP5.1.Atmos.DV.MKV.x265-DVSUX 11.38GB

[复制链接]

0

精华

0

好友

2

听众

新手上路

Rank: 2

蓝光币
5
发表于 7 天前 | 显示全部楼层 |阅读模式
[img][/img]

◎标  题 鳄鱼莱莱
◎译  名 纽约爱音鳄(港) / 鳄鱼歌王(台) / 鳄鱼莱尔
◎片  名 Lyle, Lyle, Crocodile
◎年  代 2022
◎产  地 美国
◎类  别 喜剧 / 动画 / 歌舞 / 家庭 / 奇幻 / 冒险
◎语  言 英语
◎上映日期 2022-10-07(美国)
◎IMDb评分 6.5/10 (1159人评价)
◎IMDb链接 https://www.imdb.com/title/tt14668630/
◎豆瓣评分 7.0/10 (188人评价)
◎豆瓣链接 https://movie.douban.com/subject/35606498/
◎片  长 106分钟
◎导  演 乔什·戈登 Josh Gordon
       威尔·斯佩克 Will Speck
◎编  剧 威廉姆·戴维斯 William Davies
       伯纳德·韦伯 Bernard Waber
◎演  员 肖恩·蒙德兹 Shawn Mendes
       哈维尔·巴登 Javier Bardem
       吴恬敏 Constance Wu
       斯科特·麦克纳里 Scoot McNairy
       温斯洛·费格雷 Winslow Fegley
       布伦特·吉尔曼 Brett Gelman
       萨尔·维斯库索 Sal Viscuso
       多恩·迪皮塔 Don DiPetta
       尤西·丘辟特 Yussie Jupiter
       科拉·林德尔 Cora Maple Lindell
       马克·威尔斯 Mac Wells
       林赛·莫泽 Lindsey Moser
       丹尼·所罗门 Danny Salomon
       本吉·帕塞克 Benj Pasek
       贾斯汀·保罗 Justin Paul
◎简  介

  影片改编自风靡全球的同名绘本系列,肖恩·蒙德兹献声演唱鳄鱼莱莱。                                    
                                故事讲述了小男孩乔什·普利姆跟随父母举家搬进大城市的新居,和一只住在阁楼上、能舞会唱的鳄鱼成为好朋友的奇遇故事。自带欢乐属性的鳄鱼莱莱治愈了难以适应新环境的乔什,乔什也努力消除父母对莱莱的偏见。两小只开启前所未有的都市历险,历经重重欢乐闹剧,莱莱与普利姆一家最终成为了彼此的家人与伙伴。
  1. Video
  2. ID                                       : 1
  3. Format                                   : HEVC
  4. Format/Info                              : High Efficiency Video Coding
  5. Format profile                           : Main [email protected]@High
  6. HDR format                               : Dolby Vision, Version 1.0, dvhe.05.06, BL+RPU
  7. Codec ID                                 : V_MPEGH/ISO/HEVC
  8. Duration                                 : 1 h 46 min
  9. Bit rate                                 : 14.5 Mb/s
  10. Width                                    : 3 840 pixels
  11. Height                                   : 1 606 pixels
  12. Display aspect ratio                     : 2.40:1
  13. Frame rate mode                          : Constant
  14. Frame rate                               : 23.976 (24000/1001/189150) FPS
  15. Color space                              : YUV
  16. Chroma subsampling                       : 4:2:0
  17. Bit depth                                : 10 bits
  18. Bits/(Pixel*Frame)                       : 0.098
  19. Stream size                              : 10.8 GiB (95%)
  20. Default                                  : Yes
  21. Forced                                   : No
  22. Audio
  23. ID                                       : 2
  24. Format                                   : E-AC-3 JOC
  25. Format/Info                              : Enhanced AC-3 with Joint Object Coding
  26. Commercial name                          : Dolby Digital Plus with Dolby Atmos
  27. Codec ID                                 : A_EAC3
  28. Duration                                 : 1 h 46 min
  29. Bit rate mode                            : Constant
  30. Bit rate                                 : 768 kb/s
  31. Channel(s)                               : 6 channels
  32. Channel layout                           : L R C LFE Ls Rs
  33. Sampling rate                            : 48.0 kHz
  34. Frame rate                               : 31.250 FPS (1536 SPF)
  35. Compression mode                         : Lossy
  36. Stream size                              : 586 MiB (5%)
  37. Language                                 : English
  38. Service kind                             : Complete Main
  39. Default                                  : Yes
  40. Forced                                   : No
  41. Complexity index                         : 16
  42. Number of dynamic objects                : 15
  43. Bed channel count                        : 1 channel
  44. Bed channel configuration                : LFE
  45. Text #1
  46. ID                                       : 3
  47. Format                                   : UTF-8
  48. Codec ID                                 : S_TEXT/UTF8
  49. Codec ID/Info                            : UTF-8 Plain Text
  50. Duration                                 : 1 h 38 min
  51. Bit rate                                 : 51 b/s
  52. Frame rate                               : 0.210 FPS
  53. Count of elements                        : 1249
  54. Stream size                              : 37.5 KiB (0%)
  55. Title                                    : British
  56. Language                                 : English
  57. Default                                  : Yes
  58. Forced                                   : No
  59. Text #2
  60. ID                                       : 4
  61. Format                                   : UTF-8
  62. Codec ID                                 : S_TEXT/UTF8
  63. Codec ID/Info                            : UTF-8 Plain Text
  64. Duration                                 : 1 h 38 min
  65. Bit rate                                 : 51 b/s
  66. Frame rate                               : 0.210 FPS
  67. Count of elements                        : 1249
  68. Stream size                              : 37.5 KiB (0%)
  69. Language                                 : English
  70. Default                                  : No
  71. Forced                                   : No
  72. Text #3
  73. ID                                       : 5
  74. Format                                   : UTF-8
  75. Codec ID                                 : S_TEXT/UTF8
  76. Codec ID/Info                            : UTF-8 Plain Text
  77. Duration                                 : 1 h 44 min
  78. Bit rate                                 : 68 b/s
  79. Frame rate                               : 0.272 FPS
  80. Count of elements                        : 1703
  81. Stream size                              : 52.2 KiB (0%)
  82. Title                                    : SDH
  83. Language                                 : English
  84. Default                                  : No
  85. Forced                                   : No
  86. Text #4
  87. ID                                       : 6
  88. Format                                   : UTF-8
  89. Codec ID                                 : S_TEXT/UTF8
  90. Codec ID/Info                            : UTF-8 Plain Text
  91. Duration                                 : 1 h 45 min
  92. Bit rate                                 : 43 b/s
  93. Frame rate                               : 0.192 FPS
  94. Count of elements                        : 1217
  95. Stream size                              : 34.0 KiB (0%)
  96. Language                                 : Indonesian
  97. Default                                  : No
  98. Forced                                   : No
  99. Text #5
  100. ID                                       : 7
  101. Format                                   : UTF-8
  102. Codec ID                                 : S_TEXT/UTF8
  103. Codec ID/Info                            : UTF-8 Plain Text
  104. Duration                                 : 1 h 45 min
  105. Bit rate                                 : 63 b/s
  106. Frame rate                               : 0.194 FPS
  107. Count of elements                        : 1228
  108. Stream size                              : 48.9 KiB (0%)
  109. Language                                 : Vietnamese
  110. Default                                  : No
  111. Forced                                   : No
  112. Text #6
  113. ID                                       : 8
  114. Format                                   : UTF-8
  115. Codec ID                                 : S_TEXT/UTF8
  116. Codec ID/Info                            : UTF-8 Plain Text
  117. Duration                                 : 1 h 45 min
  118. Bit rate                                 : 42 b/s
  119. Frame rate                               : 0.193 FPS
  120. Count of elements                        : 1226
  121. Stream size                              : 32.9 KiB (0%)
  122. Title                                    : Traditional
  123. Language                                 : Chinese
  124. Default                                  : No
  125. Forced                                   : No
  126. Menu
  127. 00:00:00.000                             : en:Chapter 01
  128. 00:05:30.205                             : en:Chapter 02
  129. 00:12:30.166                             : en:Chapter 03
  130. 00:19:28.960                             : en:Chapter 04
  131. 00:25:47.047                             : en:Chapter 05
  132. 00:32:14.392                             : en:Chapter 06
  133. 00:38:41.112                             : en:Chapter 07
  134. 00:46:31.875                             : en:Chapter 08
  135. 00:52:39.200                             : en:Chapter 09
  136. 00:59:03.418                             : en:Chapter 10
  137. 01:05:06.031                             : en:Chapter 11
  138. 01:11:06.474                             : en:Chapter 12
  139. 01:18:27.040                             : en:Chapter 13
  140. 01:26:05.915                             : en:Chapter 14
  141. 01:30:00.900                             : en:Chapter 15
  142. 01:38:56.644                             : en:Chapter 16
复制代码




                                       
                                       

                                       
                                       
                                       




Lyle.Lyle.Crocodile.2022.2160p.WEB-DL.DDP5.1.Atmos.DV.MKV.x265-DVSUX.torrent (14.89 KB, 下载次数: 0)
回复

使用道具 举报

您需要登录后才可以回帖 登录 | 立即注册

本版积分规则

QQ|Archiver|手机版|小黑屋|蓝光电影网

GMT+8, 2022-11-30 08:08 , Processed in 0.051374 second(s), 28 queries .

Powered by Discuz! X3.4

Copyright © 2001-2020, Tencent Cloud.

快速回复 返回顶部 返回列表