找回密码
 立即注册

QQ登录

只需一步,快速开始

查看: 40|回复: 0

[其他] 黑亚当 Black.Adam.2022.2160p.WEB-DL.DDP5.1.Atmos.DV.MKV.x265-WHITEMICHAEL 13.32GB

[复制链接]

0

精华

0

好友

2

听众

新手上路

Rank: 2

蓝光币
5
发表于 7 天前 | 显示全部楼层 |阅读模式
[img][/img]

◎标  题 黑亚当
◎译  名 霹雳亚当 / 黑亞當(港 / 台)
◎片  名 Black Adam
◎年  代 2022
◎产  地 美国 / 加拿大 / 新西兰 / 匈牙利
◎类  别 动作 / 科幻 / 奇幻 / 冒险
◎语  言 英语
◎上映日期 2022-11(中国大陆) / 2022-10-19(法国) / 2022-10-21(美国)
◎IMDb评分 7.1/10 (42334人评价)
◎IMDb链接 https://www.imdb.com/title/tt6443346/
◎豆瓣链接 https://movie.douban.com/subject/26959697/
◎片  长 125分钟
◎导  演 佐米·希尔拉 Jaume Collet-Serra
◎编  剧 亚当·希泰凯尔 Adam Sztykiel
       罗里·海恩斯 Rory Haines
       苏哈·诺什瓦尼 Sohrab Noshirvani
       比尔·帕克 Bill Parker
       C·C·贝克 C.C. Beck
       奥托·班德 Otto Binder
◎演  员 道恩·强森 Dwayne Johnson
       阿尔迪斯·霍吉 Aldis Hodge
       皮尔斯·布鲁斯南 Pierce Brosnan
       诺亚·琴蒂内奥 Noah Centineo
       莎拉·夏希 Sarah Shahi
       昆泰莎·斯文戴尔 Quintessa Swindell
       马尔万·肯扎里 Marwan Kenzari
       博德希·萨邦圭 Bodhi Sabongui
       穆罕默德·阿米尔 Mohammed Amer
       詹姆斯·卡萨蒂-莫耶尔 James Cusati-Moyer
       哈隆·克里斯蒂安 Jalon Christian
       本杰明·帕特森 Benjamin Patterson
       奥德娅·哈尔维 Odelya Halevi
       乌利·拉图基孚 Uli Latukefu
       詹尼佛·霍兰德 Jennifer Holland
       亨利·温克勒 Henry Winkler
       哈伊姆·吉拉菲 Chaim Jeraffi
       杰曼·翰苏 Djimon Hounsou
       桑娜·海恩斯 Sanna Haynes
       托内亚·斯图尔特 Tonea Stewart
       帕特里克·萨邦圭 Patrick Sabongui
       约瑟夫·盖特 Joseph Gatt
       杰梅因·里弗斯 Jermaine Rivers
       里贾纳·陈婷 Regina Ting Chen
       卡梅隆·莫伊尔 Cameron Moir
       德里克·罗素 Derek Russo
       小安杰尔·罗萨里奥 Angel Rosario Jr.
       克里斯托弗·马修·库克 Christopher Matthew Cook
       娜塔莉·伯恩 Natalie Burn
       亨利·卡维尔 Henry Cavill
       维奥拉·戴维斯 Viola Davis
       施奎塔·詹姆斯 Shiquita James
       拉希姆·赖利 Rahiem Riley
       海拉姆·加西亚 Hiram Garcia
       道恩·强森 Dwayne Johnson
       劳伦斯·谢尔 Lawrence Sher
       汤姆·迈耶 Tom Meyer
       Kevin Gilbert Kevin Gilbert
◎简  介

  这个世界需要超级英雄…… 黑亚当降临。                                    
                                黑亚当(道恩·强森 饰)被赋予了古代诸神无所不能的力量,但很快就被封印。近五千年后,他终于重见天日,并将在现代世界以独一无二的方式行使正义。
  1. Video
  2. ID                                       : 1
  3. Format                                   : HEVC
  4. Format/Info                              : High Efficiency Video Coding
  5. Format profile                           : Main [email protected]@High
  6. HDR format                               : Dolby Vision, Version 1.0, dvhe.05.06, BL+RPU
  7. Codec ID                                 : V_MPEGH/ISO/HEVC
  8. Duration                                 : 2 h 4 min
  9. Bit rate                                 : 14.3 Mb/s
  10. Width                                    : 3 840 pixels
  11. Height                                   : 1 606 pixels
  12. Display aspect ratio                     : 2.40:1
  13. Frame rate mode                          : Constant
  14. Frame rate                               : 23.976 (24000/1001/189150) FPS
  15. Color space                              : YUV
  16. Chroma subsampling                       : 4:2:0
  17. Bit depth                                : 10 bits
  18. Bits/(Pixel*Frame)                       : 0.097
  19. Stream size                              : 12.5 GiB (95%)
  20. Language                                 : English
  21. Default                                  : Yes
  22. Forced                                   : No
  23. Audio
  24. ID                                       : 2
  25. Format                                   : E-AC-3 JOC
  26. Format/Info                              : Enhanced AC-3 with Joint Object Coding
  27. Commercial name                          : Dolby Digital Plus with Dolby Atmos
  28. Codec ID                                 : A_EAC3
  29. Duration                                 : 2 h 4 min
  30. Bit rate mode                            : Constant
  31. Bit rate                                 : 768 kb/s
  32. Channel(s)                               : 6 channels
  33. Channel layout                           : L R C LFE Ls Rs
  34. Sampling rate                            : 48.0 kHz
  35. Frame rate                               : 31.250 FPS (1536 SPF)
  36. Compression mode                         : Lossy
  37. Stream size                              : 686 MiB (5%)
  38. Language                                 : English
  39. Service kind                             : Complete Main
  40. Default                                  : Yes
  41. Forced                                   : No
  42. Complexity index                         : 16
  43. Number of dynamic objects                : 15
  44. Bed channel count                        : 1 channel
  45. Bed channel configuration                : LFE
  46. Text #1
  47. ID                                       : 3
  48. Format                                   : UTF-8
  49. Codec ID                                 : S_TEXT/UTF8
  50. Codec ID/Info                            : UTF-8 Plain Text
  51. Duration                                 : 2 h 0 min
  52. Bit rate                                 : 80 b/s
  53. Frame rate                               : 0.246 FPS
  54. Count of elements                        : 1771
  55. Stream size                              : 70.6 KiB (0%)
  56. Title                                    : English
  57. Language                                 : English
  58. Default                                  : No
  59. Forced                                   : No
  60. Text #2
  61. ID                                       : 4
  62. Format                                   : UTF-8
  63. Codec ID                                 : S_TEXT/UTF8
  64. Codec ID/Info                            : UTF-8 Plain Text
  65. Duration                                 : 1 h 42 min
  66. Bit rate                                 : 2 b/s
  67. Frame rate                               : 0.012 FPS
  68. Count of elements                        : 76
  69. Stream size                              : 1.61 KiB (0%)
  70. Title                                    : English [Forced]
  71. Language                                 : English
  72. Default                                  : Yes
  73. Forced                                   : Yes
  74. Text #3
  75. ID                                       : 5
  76. Format                                   : UTF-8
  77. Codec ID                                 : S_TEXT/UTF8
  78. Codec ID/Info                            : UTF-8 Plain Text
  79. Duration                                 : 2 h 3 min
  80. Bit rate                                 : 63 b/s
  81. Frame rate                               : 0.170 FPS
  82. Count of elements                        : 1260
  83. Stream size                              : 57.1 KiB (0%)
  84. Title                                    : Arabic
  85. Language                                 : Arabic
  86. Default                                  : No
  87. Forced                                   : No
  88. Text #4
  89. ID                                       : 6
  90. Format                                   : UTF-8
  91. Codec ID                                 : S_TEXT/UTF8
  92. Codec ID/Info                            : UTF-8 Plain Text
  93. Duration                                 : 2 h 3 min
  94. Bit rate                                 : 38 b/s
  95. Frame rate                               : 0.170 FPS
  96. Count of elements                        : 1264
  97. Stream size                              : 34.7 KiB (0%)
  98. Title                                    : Chinese Yue
  99. Language                                 : Chinese
  100. Default                                  : No
  101. Forced                                   : No
  102. Text #5
  103. ID                                       : 7
  104. Format                                   : UTF-8
  105. Codec ID                                 : S_TEXT/UTF8
  106. Codec ID/Info                            : UTF-8 Plain Text
  107. Duration                                 : 2 h 3 min
  108. Bit rate                                 : 37 b/s
  109. Frame rate                               : 0.174 FPS
  110. Count of elements                        : 1294
  111. Stream size                              : 34.3 KiB (0%)
  112. Title                                    : French
  113. Language                                 : French
  114. Default                                  : No
  115. Forced                                   : No
  116. Text #6
  117. ID                                       : 8
  118. Format                                   : UTF-8
  119. Codec ID                                 : S_TEXT/UTF8
  120. Codec ID/Info                            : UTF-8 Plain Text
  121. Duration                                 : 1 h 56 min
  122. Bit rate                                 : 40 b/s
  123. Frame rate                               : 0.179 FPS
  124. Count of elements                        : 1254
  125. Stream size                              : 34.5 KiB (0%)
  126. Title                                    : Korean
  127. Language                                 : Korean
  128. Default                                  : No
  129. Forced                                   : No
  130. Text #7
  131. ID                                       : 9
  132. Format                                   : UTF-8
  133. Codec ID                                 : S_TEXT/UTF8
  134. Codec ID/Info                            : UTF-8 Plain Text
  135. Duration                                 : 2 h 3 min
  136. Bit rate                                 : 43 b/s
  137. Frame rate                               : 0.170 FPS
  138. Count of elements                        : 1258
  139. Stream size                              : 39.3 KiB (0%)
  140. Title                                    : Latin America Spanish
  141. Language                                 : Spanish
  142. Default                                  : No
  143. Forced                                   : No
  144. Text #8
  145. ID                                       : 10
  146. Format                                   : UTF-8
  147. Codec ID                                 : S_TEXT/UTF8
  148. Codec ID/Info                            : UTF-8 Plain Text
  149. Duration                                 : 2 h 3 min
  150. Bit rate                                 : 43 b/s
  151. Frame rate                               : 0.167 FPS
  152. Count of elements                        : 1237
  153. Stream size                              : 39.0 KiB (0%)
  154. Title                                    : Portuguese Brazilian
  155. Language                                 : Portuguese
  156. Default                                  : No
  157. Forced                                   : No
复制代码




                                       
                                       

                                       
                                       
                                       




Black.Adam.2022.2160p.WEB-DL.DDP5.1.Atmos.DV.MKV.x265-WHITEMICHAEL.torrent (17.46 KB, 下载次数: 1)
回复

使用道具 举报

您需要登录后才可以回帖 登录 | 立即注册

本版积分规则

QQ|Archiver|手机版|小黑屋|蓝光电影网

GMT+8, 2022-11-30 09:27 , Processed in 0.053953 second(s), 28 queries .

Powered by Discuz! X3.4

Copyright © 2001-2020, Tencent Cloud.

快速回复 返回顶部 返回列表