找回密码
 立即注册

QQ登录

只需一步,快速开始

查看: 79|回复: 0

[UHD.HEVC] 鬼玩人3:魔界英豪 Army.of.Darkness.1992.THEATRICAL.2160p.BluRay.REMUX.HEVC.DTS-HD.MA.5.1-FGT 53.82GB

[复制链接]

0

精华

0

好友

2

听众

新手上路

Rank: 2

蓝光币
5
发表于 2022-10-7 07:51:41 | 显示全部楼层 |阅读模式
[img][/img]

◎标  题 鬼玩人3:魔界英豪
◎译  名 Army of Darkness / 人玩鬼3:魔界英豪 / 黑暗军团 / Bruce Campbell vs. Army of Darkness
◎片  名 Army of Darkness
◎年  代 1992
◎产  地 美国
◎类  别 喜剧 / 恐怖 / 奇幻
◎语  言 英语
◎上映日期 1993-02-11
◎IMDb评分 7.5/10 (170280人评价)
◎IMDb链接 https://www.imdb.com/title/tt0106308/
◎豆瓣评分 6.9/10 (6144人评价)
◎豆瓣链接 https://movie.douban.com/subject/1299111/
◎片  长 81 分钟 / 96 分钟(director's cut)
◎导  演 山姆·雷米 Sam Raimi
◎编  剧 山姆·雷米 Sam Raimi
       伊万·莱米 Ivan Raimi
◎演  员 布鲁斯·坎贝尔 Bruce Campbell
       艾伯丝·戴维兹 Embeth Davidtz
       马库斯·吉尔伯特 Marcus Gilbert
       伊安·艾伯克龙比 Ian Abercrombie
       泰德·雷米 Ted Raimi
       布里吉特·芳达 Bridget Fonda
       布鲁斯·托马斯 Bruce Thomas
       帕特里夏·塔尔曼 Patricia Tallman
       德克-安德森 Deke Anderson
       Shiva Gordon Shiva Gordon
       理查德·格里夫 Richard Grove
       布里奇特·霍夫曼 Bridget Hoffman
◎标  签 恐怖 / 美国 / 喜剧 / Cult / 搞笑 / 美国电影 / 1993 / 惊悚
◎简  介

    美国青年艾许(布鲁斯•坎贝尔 Bruce Campbell 饰)在和女友琳达(布丽切特•方达 Bridget Fonda 饰)度假时,偶然发现一本《死亡之书》。书中记载各种神秘的丧葬风俗以及招魂仪式,更为诡异恐怖的是,这本不应该存在于人间的书具有十分强大和邪恶的魔力。为与之斗争,艾许失去了女友和自己的右手,但最后还是体力不支,被《死亡之书》带到600年前的中世纪。他奇怪的穿着一度被骑士们当作间谍抓起来,经过一番波折,艾许决定帮国王打败《死亡之书》幻化出来的怪兽,这也是他回到现代社会的唯一办法……                                                                      本片荣获1993年布鲁塞尔奇幻电影节金鸦奖、1993年葡萄牙奇幻电影节影评人奖、1994年美国科幻恐怖电影学院土星奖最佳恐怖片。
  1. Video
  2. ID                                       : 1
  3. ID in the original source medium         : 4113 (0x1011)
  4. Format                                   : HEVC
  5. Format/Info                              : High Efficiency Video Coding
  6. Format profile                           : Main [email protected]@High
  7. HDR format                               : Dolby Vision, Version 1.0, dvhe.07.06, BL+EL+RPU, Blu-ray compatible / SMPTE ST 2086, HDR10 compatible
  8. Codec ID                                 : V_MPEGH/ISO/HEVC
  9. Duration                                 : 1 h 21 min
  10. Bit rate                                 : 88.0 Mb/s
  11. Width                                    : 3 840 pixels
  12. Height                                   : 2 160 pixels
  13. Display aspect ratio                     : 16:9
  14. Frame rate mode                          : Constant
  15. Frame rate                               : 23.976 (24000/1001/189150) FPS
  16. Color space                              : YUV
  17. Chroma subsampling                       : 4:2:0 (Type 2)
  18. Bit depth                                : 10 bits
  19. Bits/(Pixel*Frame)                       : 0.443
  20. Stream size                              : 49.9 GiB (93%)
  21. Language                                 : English
  22. Default                                  : No
  23. Forced                                   : No
  24. Color range                              : Limited
  25. Color primaries                          : BT.2020
  26. Transfer characteristics                 : PQ
  27. Matrix coefficients                      : BT.2020 non-constant
  28. Mastering display color primaries        : Display P3
  29. Mastering display luminance              : min: 0.0001 cd/m2, max: 1000 cd/m2
  30. Maximum Content Light Level              : 944 cd/m2
  31. Maximum Frame-Average Light Level        : 911 cd/m2
  32. Original source medium                   : Blu-ray
  33. Audio #1
  34. ID                                       : 2
  35. ID in the original source medium         : 4352 (0x1100)
  36. Format                                   : DTS XLL
  37. Format/Info                              : Digital Theater Systems
  38. Commercial name                          : DTS-HD Master Audio
  39. Codec ID                                 : A_DTS
  40. Duration                                 : 1 h 21 min
  41. Bit rate mode                            : Variable
  42. Bit rate                                 : 4 231 kb/s
  43. Channel(s)                               : 6 channels
  44. Channel layout                           : C L R Ls Rs LFE
  45. Sampling rate                            : 48.0 kHz
  46. Frame rate                               : 93.750 FPS (512 SPF)
  47. Bit depth                                : 24 bits
  48. Compression mode                         : Lossless
  49. Stream size                              : 2.40 GiB (4%)
  50. Title                                    : DTS-HD MA 5.1
  51. Language                                 : English
  52. Default                                  : Yes
  53. Forced                                   : No
  54. Original source medium                   : Blu-ray
  55. Audio #2
  56. ID                                       : 3
  57. Format                                   : AC-3
  58. Format/Info                              : Audio Coding 3
  59. Commercial name                          : Dolby Digital
  60. Codec ID                                 : A_AC3
  61. Duration                                 : 1 h 21 min
  62. Bit rate mode                            : Constant
  63. Bit rate                                 : 640 kb/s
  64. Channel(s)                               : 6 channels
  65. Channel layout                           : L R C LFE Ls Rs
  66. Sampling rate                            : 48.0 kHz
  67. Frame rate                               : 31.250 FPS (1536 SPF)
  68. Compression mode                         : Lossy
  69. Stream size                              : 371 MiB (1%)
  70. Title                                    : DD 5.1
  71. Language                                 : English
  72. Service kind                             : Complete Main
  73. Default                                  : No
  74. Forced                                   : No
  75. Audio #3
  76. ID                                       : 4
  77. ID in the original source medium         : 4353 (0x1101)
  78. Format                                   : DTS XLL
  79. Format/Info                              : Digital Theater Systems
  80. Commercial name                          : DTS-HD Master Audio
  81. Codec ID                                 : A_DTS
  82. Duration                                 : 1 h 21 min
  83. Bit rate mode                            : Variable
  84. Bit rate                                 : 2 044 kb/s
  85. Channel(s)                               : 2 channels
  86. Channel layout                           : L R
  87. Sampling rate                            : 48.0 kHz
  88. Frame rate                               : 93.750 FPS (512 SPF)
  89. Bit depth                                : 24 bits
  90. Compression mode                         : Lossless
  91. Stream size                              : 1.16 GiB (2%)
  92. Title                                    : DTS-HD MA 2.0
  93. Language                                 : English
  94. Default                                  : No
  95. Forced                                   : No
  96. Original source medium                   : Blu-ray
  97. Text #1
  98. ID                                       : 5
  99. Format                                   : UTF-8
  100. Codec ID                                 : S_TEXT/UTF8
  101. Codec ID/Info                            : UTF-8 Plain Text
  102. Duration                                 : 1 h 14 min
  103. Bit rate                                 : 30 b/s
  104. Frame rate                               : 0.150 FPS
  105. Count of elements                        : 670
  106. Stream size                              : 16.8 KiB (0%)
  107. Language                                 : English
  108. Default                                  : Yes
  109. Forced                                   : No
  110. Text #2
  111. ID                                       : 6
  112. Format                                   : UTF-8
  113. Codec ID                                 : S_TEXT/UTF8
  114. Codec ID/Info                            : UTF-8 Plain Text
  115. Duration                                 : 1 h 14 min
  116. Bit rate                                 : 37 b/s
  117. Frame rate                               : 0.189 FPS
  118. Count of elements                        : 845
  119. Stream size                              : 20.2 KiB (0%)
  120. Title                                    : SDH
  121. Language                                 : English
  122. Default                                  : No
  123. Forced                                   : No
  124. Text #3
  125. ID                                       : 7
  126. ID in the original source medium         : 4768 (0x12A0)
  127. Format                                   : PGS
  128. Muxing mode                              : zlib
  129. Codec ID                                 : S_HDMV/PGS
  130. Codec ID/Info                            : Picture based subtitle format used on BDs/HD-DVDs
  131. Duration                                 : 1 h 14 min
  132. Bit rate                                 : 23.8 kb/s
  133. Frame rate                               : 0.381 FPS
  134. Count of elements                        : 1704
  135. Stream size                              : 12.7 MiB (0%)
  136. Language                                 : English
  137. Default                                  : No
  138. Forced                                   : No
  139. Original source medium                   : Blu-ray
  140. Menu
  141. 00:00:00.000                             : en:Chapter 01
  142. 00:05:36.377                             : en:Chapter 02
  143. 00:12:13.607                             : en:Chapter 03
  144. 00:16:03.253                             : en:Chapter 04
  145. 00:20:08.624                             : en:Chapter 05
  146. 00:28:02.514                             : en:Chapter 06
  147. 00:34:01.998                             : en:Chapter 07
  148. 00:40:48.279                             : en:Chapter 08
  149. 00:51:17.324                             : en:Chapter 09
  150. 00:56:20.794                             : en:Chapter 10
  151. 01:03:59.585                             : en:Chapter 11
  152. 01:12:51.200                             : en:Chapter 12
  153. 01:21:07.737                             : en:Chapter 13
复制代码




                                       
                                       

                                       
                                       
                                       




Army.of.Darkness.1992.THEATRICAL.2160p.BluRay.REMUX.HEVC.DTS-HD.MA.5.1-FGT.torrent (67.95 KB, 下载次数: 0)
回复

使用道具 举报

您需要登录后才可以回帖 登录 | 立即注册

本版积分规则

QQ|Archiver|手机版|小黑屋|蓝光电影网

GMT+8, 2022-11-30 08:05 , Processed in 0.052726 second(s), 28 queries .

Powered by Discuz! X3.4

Copyright © 2001-2020, Tencent Cloud.

快速回复 返回顶部 返回列表