找回密码
 立即注册

QQ登录

只需一步,快速开始

查看: 62|回复: 0

[UHD.HEVC] 天师斗僵尸 Fright.Night.1985.2160p.BluRay.REMUX.HEVC.DTS-HD.MA.TrueHD.7.1.Atmos-FGT 55.45GB

[复制链接]

0

精华

0

好友

2

听众

新手上路

Rank: 2

蓝光币
5
发表于 2022-10-7 07:51:34 | 显示全部楼层 |阅读模式
[img][/img]

◎标  题 天师斗僵尸
◎片  名 Fright Night
◎年  代 1985
◎产  地 美国
◎类  别 喜剧 / 惊悚 / 恐怖
◎语  言 英语
◎上映日期 1985-08-02
◎IMDb评分 7.1/10 (66603人评价)
◎IMDb链接 https://www.imdb.com/title/tt0089175/
◎豆瓣评分 6.6/10 (952人评价)
◎豆瓣链接 https://movie.douban.com/subject/1295190/
◎片  长 106 分钟
◎导  演 汤姆·霍兰德 Tom Holland
◎编  剧 汤姆·霍兰德 Tom Holland
◎演  员 克里斯·萨兰登 Chris Sarandon
       威廉·罗格斯戴尔 William Ragsdale
       阿曼达·比尔斯 Amanda Bearse
       罗迪·麦克道尔 Roddy McDowall
       斯蒂芬·杰弗里斯 Stephen Geoffreys
       Jonathan Stark Jonathan Stark
◎标  签 恐怖 / 吸血鬼 / 美国 / 喜剧 / 惊悚 / 1985 / 美国电影 / 1980s
◎简  介

    吸血鬼狂热爱好者查理•布莱维斯特(William Ragsdale 饰)最大的爱好就是在深夜看恐怖电影。某晚,他隔壁的空房子里来了两个不速之客,根据多年观看恐怖片的经验,查理断定这两个人一定是吸血鬼。然而无论是警察,还是好友女友,没有一个人相信他的说辞。                                                                      万般无奈之下,查理只能请来恐怖电视节目“颤栗之夜”的主持人皮特•文森特(Roddy McDowell 饰)。虽然文森特质疑查理的说法,但看在钱的份上他还是前来调查。面对纠缠不休的查理,吸血鬼杰瑞(Chris Sarandon 饰)该如何对付呢?
  1. Video
  2. ID                                       : 1
  3. ID in the original source medium         : 4113 (0x1011)
  4. Format                                   : HEVC
  5. Format/Info                              : High Efficiency Video Coding
  6. Format profile                           : Main [email protected]@High
  7. HDR format                               : Dolby Vision, Version 1.0, dvhe.07.06, BL+EL+RPU, Blu-ray compatible / SMPTE ST 2086, HDR10 compatible
  8. Codec ID                                 : V_MPEGH/ISO/HEVC
  9. Duration                                 : 1 h 46 min
  10. Bit rate                                 : 57.7 Mb/s
  11. Width                                    : 3 840 pixels
  12. Height                                   : 2 160 pixels
  13. Display aspect ratio                     : 16:9
  14. Frame rate mode                          : Constant
  15. Frame rate                               : 23.976 (24000/1001/189150) FPS
  16. Color space                              : YUV
  17. Chroma subsampling                       : 4:2:0 (Type 2)
  18. Bit depth                                : 10 bits
  19. Bits/(Pixel*Frame)                       : 0.290
  20. Stream size                              : 42.9 GiB (77%)
  21. Language                                 : English
  22. Default                                  : No
  23. Forced                                   : No
  24. Color range                              : Limited
  25. Color primaries                          : BT.2020
  26. Transfer characteristics                 : PQ
  27. Matrix coefficients                      : BT.2020 non-constant
  28. Mastering display color primaries        : BT.2020
  29. Mastering display luminance              : min: 0.0001 cd/m2, max: 1000 cd/m2
  30. Maximum Content Light Level              : 1026 cd/m2
  31. Maximum Frame-Average Light Level        : 362 cd/m2
  32. Original source medium                   : Blu-ray
  33. Audio #1
  34. ID                                       : 2
  35. ID in the original source medium         : 4352 (0x1100)
  36. Format                                   : MLP FBA 16-ch
  37. Format/Info                              : Meridian Lossless Packing FBA with 16-channel presentation
  38. Commercial name                          : Dolby TrueHD with Dolby Atmos
  39. Codec ID                                 : A_TRUEHD
  40. Duration                                 : 1 h 46 min
  41. Bit rate mode                            : Variable
  42. Bit rate                                 : 4 236 kb/s
  43. Maximum bit rate                         : 6 840 kb/s
  44. Channel(s)                               : 8 channels
  45. Channel layout                           : L R C LFE Ls Rs Lb Rb
  46. Sampling rate                            : 48.0 kHz
  47. Frame rate                               : 1 200.000 FPS (40 SPF)
  48. Bit depth                                : 24 bits
  49. Compression mode                         : Lossless
  50. Stream size                              : 3.15 GiB (6%)
  51. Title                                    : TrueHD 7.1 Atmos
  52. Language                                 : English
  53. Default                                  : Yes
  54. Forced                                   : No
  55. Original source medium                   : Blu-ray
  56. Number of dynamic objects                : 11
  57. Bed channel count                        : 1 channel
  58. Bed channel configuration                : LFE
  59. Audio #2
  60. ID                                       : 3
  61. Format                                   : DTS XLL
  62. Format/Info                              : Digital Theater Systems
  63. Commercial name                          : DTS-HD Master Audio
  64. Codec ID                                 : A_DTS
  65. Duration                                 : 1 h 46 min
  66. Bit rate mode                            : Variable
  67. Bit rate                                 : 3 916 kb/s
  68. Channel(s)                               : 8 channels
  69. Channel layout                           : C L R LFE Lb Rb Lss Rss
  70. Sampling rate                            : 48.0 kHz
  71. Frame rate                               : 93.750 FPS (512 SPF)
  72. Bit depth                                : 24 bits
  73. Compression mode                         : Lossless
  74. Stream size                              : 2.91 GiB (5%)
  75. Title                                    : DTS-HD MA 7.1
  76. Language                                 : English
  77. Default                                  : No
  78. Forced                                   : No
  79. Audio #3
  80. ID                                       : 4
  81. ID in the original source medium         : 4352 (0x1100)
  82. Format                                   : AC-3
  83. Format/Info                              : Audio Coding 3
  84. Commercial name                          : Dolby Digital
  85. Codec ID                                 : A_AC3
  86. Duration                                 : 1 h 46 min
  87. Bit rate mode                            : Constant
  88. Bit rate                                 : 640 kb/s
  89. Channel(s)                               : 6 channels
  90. Channel layout                           : L R C LFE Ls Rs
  91. Sampling rate                            : 48.0 kHz
  92. Frame rate                               : 31.250 FPS (1536 SPF)
  93. Compression mode                         : Lossy
  94. Stream size                              : 488 MiB (1%)
  95. Title                                    : DD 5.1
  96. Language                                 : English
  97. Service kind                             : Complete Main
  98. Default                                  : No
  99. Forced                                   : No
  100. Original source medium                   : Blu-ray
  101. Audio #4
  102. ID                                       : 5
  103. ID in the original source medium         : 4354 (0x1102)
  104. Format                                   : DTS XLL
  105. Format/Info                              : Digital Theater Systems
  106. Commercial name                          : DTS-HD Master Audio
  107. Codec ID                                 : A_DTS
  108. Duration                                 : 1 h 46 min
  109. Bit rate mode                            : Variable
  110. Bit rate                                 : 1 558 kb/s
  111. Channel(s)                               : 2 channels
  112. Sampling rate                            : 48.0 kHz
  113. Frame rate                               : 93.750 FPS (512 SPF)
  114. Bit depth                                : 16 bits
  115. Compression mode                         : Lossless
  116. Stream size                              : 1.16 GiB (2%)
  117. Title                                    : DTS-HD MA 2.0
  118. Language                                 : English
  119. Default                                  : No
  120. Forced                                   : No
  121. Original source medium                   : Blu-ray
  122. Audio #5
  123. ID                                       : 6
  124. ID in the original source medium         : 4355 (0x1103)
  125. Format                                   : AC-3
  126. Format/Info                              : Audio Coding 3
  127. Commercial name                          : Dolby Digital
  128. Codec ID                                 : A_AC3
  129. Duration                                 : 1 h 46 min
  130. Bit rate mode                            : Constant
  131. Bit rate                                 : 192 kb/s
  132. Channel(s)                               : 2 channels
  133. Channel layout                           : L R
  134. Sampling rate                            : 48.0 kHz
  135. Frame rate                               : 31.250 FPS (1536 SPF)
  136. Compression mode                         : Lossy
  137. Stream size                              : 146 MiB (0%)
  138. Title                                    : DD 2.0
  139. Language                                 : Czech
  140. Service kind                             : Complete Main
  141. Default                                  : No
  142. Forced                                   : No
  143. Original source medium                   : Blu-ray
  144. Audio #6
  145. ID                                       : 7
  146. ID in the original source medium         : 4356 (0x1104)
  147. Format                                   : DTS XLL
  148. Format/Info                              : Digital Theater Systems
  149. Commercial name                          : DTS-HD Master Audio
  150. Codec ID                                 : A_DTS
  151. Duration                                 : 1 h 46 min
  152. Bit rate mode                            : Variable
  153. Bit rate                                 : 2 111 kb/s
  154. Channel(s)                               : 6 channels
  155. Channel layout                           : C L R Ls Rs LFE
  156. Sampling rate                            : 48.0 kHz
  157. Frame rate                               : 93.750 FPS (512 SPF)
  158. Bit depth                                : 16 bits
  159. Compression mode                         : Lossless
  160. Stream size                              : 1.57 GiB (3%)
  161. Title                                    : DTS-HD MA 5.1
  162. Language                                 : French
  163. Default                                  : No
  164. Forced                                   : No
  165. Original source medium                   : Blu-ray
  166. Audio #7
  167. ID                                       : 8
  168. ID in the original source medium         : 4357 (0x1105)
  169. Format                                   : DTS XLL
  170. Format/Info                              : Digital Theater Systems
  171. Commercial name                          : DTS-HD Master Audio
  172. Codec ID                                 : A_DTS
  173. Duration                                 : 1 h 46 min
  174. Bit rate mode                            : Variable
  175. Bit rate                                 : 2 171 kb/s
  176. Channel(s)                               : 6 channels
  177. Channel layout                           : C L R Ls Rs LFE
  178. Sampling rate                            : 48.0 kHz
  179. Frame rate                               : 93.750 FPS (512 SPF)
  180. Bit depth                                : 16 bits
  181. Compression mode                         : Lossless
  182. Stream size                              : 1.62 GiB (3%)
  183. Title                                    : DTS-HD MA 5.1
  184. Language                                 : German
  185. Default                                  : No
  186. Forced                                   : No
  187. Original source medium                   : Blu-ray
  188. Audio #8
  189. ID                                       : 9
  190. ID in the original source medium         : 4358 (0x1106)
  191. Format                                   : AC-3
  192. Format/Info                              : Audio Coding 3
  193. Commercial name                          : Dolby Digital
  194. Codec ID                                 : A_AC3
  195. Duration                                 : 1 h 46 min
  196. Bit rate mode                            : Constant
  197. Bit rate                                 : 640 kb/s
  198. Channel(s)                               : 6 channels
  199. Channel layout                           : L R C LFE Ls Rs
  200. Sampling rate                            : 48.0 kHz
  201. Frame rate                               : 31.250 FPS (1536 SPF)
  202. Compression mode                         : Lossy
  203. Stream size                              : 488 MiB (1%)
  204. Title                                    : DD 5.1
  205. Language                                 : Italian
  206. Service kind                             : Complete Main
  207. Default                                  : No
  208. Forced                                   : No
  209. Original source medium                   : Blu-ray
  210. Audio #9
  211. ID                                       : 10
  212. ID in the original source medium         : 4359 (0x1107)
  213. Format                                   : AC-3
  214. Format/Info                              : Audio Coding 3
  215. Commercial name                          : Dolby Digital
  216. Codec ID                                 : A_AC3
  217. Duration                                 : 1 h 46 min
  218. Bit rate mode                            : Constant
  219. Bit rate                                 : 640 kb/s
  220. Channel(s)                               : 6 channels
  221. Channel layout                           : L R C LFE Ls Rs
  222. Sampling rate                            : 48.0 kHz
  223. Frame rate                               : 31.250 FPS (1536 SPF)
  224. Compression mode                         : Lossy
  225. Stream size                              : 488 MiB (1%)
  226. Title                                    : DD 5.1
  227. Language                                 : Korean
  228. Service kind                             : Complete Main
  229. Default                                  : No
  230. Forced                                   : No
  231. Original source medium                   : Blu-ray
  232. Audio #10
  233. ID                                       : 11
  234. ID in the original source medium         : 4360 (0x1108)
  235. Format                                   : AC-3
  236. Format/Info                              : Audio Coding 3
  237. Commercial name                          : Dolby Digital
  238. Codec ID                                 : A_AC3
  239. Duration                                 : 1 h 46 min
  240. Bit rate mode                            : Constant
  241. Bit rate                                 : 192 kb/s
  242. Channel(s)                               : 2 channels
  243. Channel layout                           : L R
  244. Sampling rate                            : 48.0 kHz
  245. Frame rate                               : 31.250 FPS (1536 SPF)
  246. Compression mode                         : Lossy
  247. Stream size                              : 146 MiB (0%)
  248. Title                                    : DD 2.0
  249. Language                                 : Portuguese
  250. Service kind                             : Complete Main
  251. Default                                  : No
  252. Forced                                   : No
  253. Original source medium                   : Blu-ray
  254. Audio #11
  255. ID                                       : 12
  256. ID in the original source medium         : 4361 (0x1109)
  257. Format                                   : AC-3
  258. Format/Info                              : Audio Coding 3
  259. Commercial name                          : Dolby Digital
  260. Codec ID                                 : A_AC3
  261. Duration                                 : 1 h 46 min
  262. Bit rate mode                            : Constant
  263. Bit rate                                 : 192 kb/s
  264. Channel(s)                               : 2 channels
  265. Channel layout                           : L R
  266. Sampling rate                            : 48.0 kHz
  267. Frame rate                               : 31.250 FPS (1536 SPF)
  268. Compression mode                         : Lossy
  269. Stream size                              : 146 MiB (0%)
  270. Title                                    : DD 2.0
  271. Language                                 : Spanish
  272. Service kind                             : Complete Main
  273. Default                                  : No
  274. Forced                                   : No
  275. Original source medium                   : Blu-ray
  276. Text #1
  277. ID                                       : 13
  278. Format                                   : UTF-8
  279. Codec ID                                 : S_TEXT/UTF8
  280. Codec ID/Info                            : UTF-8 Plain Text
  281. Duration                                 : 1 h 45 min
  282. Bit rate                                 : 38 b/s
  283. Frame rate                               : 0.157 FPS
  284. Count of elements                        : 996
  285. Stream size                              : 29.8 KiB (0%)
  286. Language                                 : English
  287. Default                                  : Yes
  288. Forced                                   : No
  289. Text #2
  290. ID                                       : 14
  291. Format                                   : UTF-8
  292. Codec ID                                 : S_TEXT/UTF8
  293. Codec ID/Info                            : UTF-8 Plain Text
  294. Duration                                 : 1 h 46 min
  295. Bit rate                                 : 43 b/s
  296. Frame rate                               : 0.192 FPS
  297. Count of elements                        : 1219
  298. Stream size                              : 33.6 KiB (0%)
  299. Title                                    : SDH
  300. Language                                 : English
  301. Default                                  : No
  302. Forced                                   : No
  303. Text #3
  304. ID                                       : 15
  305. ID in the original source medium         : 4768 (0x12A0)
  306. Format                                   : PGS
  307. Muxing mode                              : zlib
  308. Codec ID                                 : S_HDMV/PGS
  309. Codec ID/Info                            : Picture based subtitle format used on BDs/HD-DVDs
  310. Duration                                 : 1 h 46 min
  311. Bit rate                                 : 25.9 kb/s
  312. Frame rate                               : 0.403 FPS
  313. Count of elements                        : 2563
  314. Stream size                              : 19.7 MiB (0%)
  315. Title                                    : SDH
  316. Language                                 : English
  317. Default                                  : No
  318. Forced                                   : No
  319. Original source medium                   : Blu-ray
  320. Text #4
  321. ID                                       : 16
  322. ID in the original source medium         : 4769 (0x12A1)
  323. Format                                   : PGS
  324. Muxing mode                              : zlib
  325. Codec ID                                 : S_HDMV/PGS
  326. Codec ID/Info                            : Picture based subtitle format used on BDs/HD-DVDs
  327. Duration                                 : 1 h 42 min
  328. Bit rate                                 : 20.3 kb/s
  329. Frame rate                               : 0.304 FPS
  330. Count of elements                        : 1869
  331. Stream size                              : 14.9 MiB (0%)
  332. Language                                 : English
  333. Default                                  : No
  334. Forced                                   : No
  335. Original source medium                   : Blu-ray
  336. Text #5
  337. ID                                       : 17
  338. ID in the original source medium         : 4770 (0x12A2)
  339. Format                                   : PGS
  340. Muxing mode                              : zlib
  341. Codec ID                                 : S_HDMV/PGS
  342. Codec ID/Info                            : Picture based subtitle format used on BDs/HD-DVDs
  343. Duration                                 : 1 h 46 min
  344. Bit rate                                 : 25.9 kb/s
  345. Frame rate                               : 0.403 FPS
  346. Count of elements                        : 2563
  347. Stream size                              : 19.7 MiB (0%)
  348. Title                                    : SDH
  349. Language                                 : English
  350. Default                                  : No
  351. Forced                                   : No
  352. Original source medium                   : Blu-ray
  353. Text #6
  354. ID                                       : 18
  355. ID in the original source medium         : 4771 (0x12A3)
  356. Format                                   : PGS
  357. Muxing mode                              : zlib
  358. Codec ID                                 : S_HDMV/PGS
  359. Codec ID/Info                            : Picture based subtitle format used on BDs/HD-DVDs
  360. Duration                                 : 1 h 42 min
  361. Bit rate                                 : 20.3 kb/s
  362. Frame rate                               : 0.304 FPS
  363. Count of elements                        : 1869
  364. Stream size                              : 14.9 MiB (0%)
  365. Language                                 : English
  366. Default                                  : No
  367. Forced                                   : No
  368. Original source medium                   : Blu-ray
  369. Text #7
  370. ID                                       : 19
  371. ID in the original source medium         : 4772 (0x12A4)
  372. Format                                   : PGS
  373. Muxing mode                              : zlib
  374. Codec ID                                 : S_HDMV/PGS
  375. Codec ID/Info                            : Picture based subtitle format used on BDs/HD-DVDs
  376. Duration                                 : 1 h 42 min
  377. Bit rate                                 : 12.3 kb/s
  378. Frame rate                               : 0.286 FPS
  379. Count of elements                        : 1754
  380. Stream size                              : 9.01 MiB (0%)
  381. Language                                 : Arabic
  382. Default                                  : No
  383. Forced                                   : No
  384. Original source medium                   : Blu-ray
  385. Text #8
  386. ID                                       : 20
  387. ID in the original source medium         : 4773 (0x12A5)
  388. Format                                   : PGS
  389. Muxing mode                              : zlib
  390. Codec ID                                 : S_HDMV/PGS
  391. Codec ID/Info                            : Picture based subtitle format used on BDs/HD-DVDs
  392. Duration                                 : 1 h 42 min
  393. Bit rate                                 : 20.5 kb/s
  394. Frame rate                               : 0.301 FPS
  395. Count of elements                        : 1854
  396. Stream size                              : 15.1 MiB (0%)
  397. Language                                 : Bulgarian
  398. Default                                  : No
  399. Forced                                   : No
  400. Original source medium                   : Blu-ray
  401. Text #9
  402. ID                                       : 21
  403. ID in the original source medium         : 4774 (0x12A6)
  404. Format                                   : PGS
  405. Muxing mode                              : zlib
  406. Codec ID                                 : S_HDMV/PGS
  407. Codec ID/Info                            : Picture based subtitle format used on BDs/HD-DVDs
  408. Duration                                 : 1 h 42 min
  409. Bit rate                                 : 17.2 kb/s
  410. Frame rate                               : 0.216 FPS
  411. Count of elements                        : 1326
  412. Stream size                              : 12.6 MiB (0%)
  413. Language                                 : Chinese
  414. Default                                  : No
  415. Forced                                   : No
  416. Original source medium                   : Blu-ray
  417. Text #10
  418. ID                                       : 22
  419. ID in the original source medium         : 4775 (0x12A7)
  420. Format                                   : PGS
  421. Muxing mode                              : zlib
  422. Codec ID                                 : S_HDMV/PGS
  423. Codec ID/Info                            : Picture based subtitle format used on BDs/HD-DVDs
  424. Duration                                 : 1 h 42 min
  425. Bit rate                                 : 20.9 kb/s
  426. Frame rate                               : 0.300 FPS
  427. Count of elements                        : 1847
  428. Stream size                              : 15.3 MiB (0%)
  429. Language                                 : Czech
  430. Default                                  : No
  431. Forced                                   : No
  432. Original source medium                   : Blu-ray
  433. Text #11
  434. ID                                       : 23
  435. ID in the original source medium         : 4775 (0x12A7)
  436. Format                                   : PGS
  437. Muxing mode                              : zlib
  438. Codec ID                                 : S_HDMV/PGS
  439. Codec ID/Info                            : Picture based subtitle format used on BDs/HD-DVDs
  440. Duration                                 : 1 h 0 min
  441. Bit rate                                 : 86 b/s
  442. Frame rate                               : 0.002 FPS
  443. Count of elements                        : 6
  444. Stream size                              : 38.7 KiB (0%)
  445. Language                                 : Czech
  446. Default                                  : No
  447. Forced                                   : No
  448. Original source medium                   : Blu-ray
  449. Text #12
  450. ID                                       : 24
  451. ID in the original source medium         : 4776 (0x12A8)
  452. Format                                   : PGS
  453. Muxing mode                              : zlib
  454. Codec ID                                 : S_HDMV/PGS
  455. Codec ID/Info                            : Picture based subtitle format used on BDs/HD-DVDs
  456. Duration                                 : 1 h 42 min
  457. Bit rate                                 : 20.3 kb/s
  458. Frame rate                               : 0.284 FPS
  459. Count of elements                        : 1746
  460. Stream size                              : 14.9 MiB (0%)
  461. Language                                 : Danish
  462. Default                                  : No
  463. Forced                                   : No
  464. Original source medium                   : Blu-ray
  465. Text #13
  466. ID                                       : 25
  467. ID in the original source medium         : 4777 (0x12A9)
  468. Format                                   : PGS
  469. Muxing mode                              : zlib
  470. Codec ID                                 : S_HDMV/PGS
  471. Codec ID/Info                            : Picture based subtitle format used on BDs/HD-DVDs
  472. Duration                                 : 1 h 42 min
  473. Bit rate                                 : 18.3 kb/s
  474. Frame rate                               : 0.280 FPS
  475. Count of elements                        : 1724
  476. Stream size                              : 13.4 MiB (0%)
  477. Language                                 : Dutch
  478. Default                                  : No
  479. Forced                                   : No
  480. Original source medium                   : Blu-ray
  481. Text #14
  482. ID                                       : 26
  483. ID in the original source medium         : 4778 (0x12AA)
  484. Format                                   : PGS
  485. Muxing mode                              : zlib
  486. Codec ID                                 : S_HDMV/PGS
  487. Codec ID/Info                            : Picture based subtitle format used on BDs/HD-DVDs
  488. Duration                                 : 1 h 42 min
  489. Bit rate                                 : 18.2 kb/s
  490. Frame rate                               : 0.282 FPS
  491. Count of elements                        : 1734
  492. Stream size                              : 13.4 MiB (0%)
  493. Language                                 : Finnish
  494. Default                                  : No
  495. Forced                                   : No
  496. Original source medium                   : Blu-ray
  497. Text #15
  498. ID                                       : 27
  499. ID in the original source medium         : 4779 (0x12AB)
  500. Format                                   : PGS
  501. Muxing mode                              : zlib
  502. Codec ID                                 : S_HDMV/PGS
  503. Codec ID/Info                            : Picture based subtitle format used on BDs/HD-DVDs
  504. Duration                                 : 1 h 45 min
  505. Bit rate                                 : 19.1 kb/s
  506. Frame rate                               : 0.265 FPS
  507. Count of elements                        : 1685
  508. Stream size                              : 14.5 MiB (0%)
  509. Language                                 : French
  510. Default                                  : No
  511. Forced                                   : No
  512. Original source medium                   : Blu-ray
  513. Text #16
  514. ID                                       : 28
  515. ID in the original source medium         : 4779 (0x12AB)
  516. Format                                   : PGS
  517. Muxing mode                              : zlib
  518. Codec ID                                 : S_HDMV/PGS
  519. Codec ID/Info                            : Picture based subtitle format used on BDs/HD-DVDs
  520. Duration                                 : 1 h 45 min
  521. Bit rate                                 : 66 b/s
  522. Frame rate                               : 0.001 FPS
  523. Count of elements                        : 6
  524. Stream size                              : 51.3 KiB (0%)
  525. Language                                 : French
  526. Default                                  : No
  527. Forced                                   : No
  528. Original source medium                   : Blu-ray
  529. Text #17
  530. ID                                       : 29
  531. ID in the original source medium         : 4780 (0x12AC)
  532. Format                                   : PGS
  533. Muxing mode                              : zlib
  534. Codec ID                                 : S_HDMV/PGS
  535. Codec ID/Info                            : Picture based subtitle format used on BDs/HD-DVDs
  536. Duration                                 : 1 h 42 min
  537. Bit rate                                 : 23.1 kb/s
  538. Frame rate                               : 0.284 FPS
  539. Count of elements                        : 1744
  540. Stream size                              : 16.9 MiB (0%)
  541. Language                                 : German
  542. Default                                  : No
  543. Forced                                   : No
  544. Original source medium                   : Blu-ray
  545. Text #18
  546. ID                                       : 30
  547. ID in the original source medium         : 4780 (0x12AC)
  548. Format                                   : PGS
  549. Muxing mode                              : zlib
  550. Codec ID                                 : S_HDMV/PGS
  551. Codec ID/Info                            : Picture based subtitle format used on BDs/HD-DVDs
  552. Duration                                 : 1 h 0 min
  553. Bit rate                                 : 106 b/s
  554. Frame rate                               : 0.002 FPS
  555. Count of elements                        : 6
  556. Stream size                              : 47.8 KiB (0%)
  557. Language                                 : German
  558. Default                                  : No
  559. Forced                                   : No
  560. Original source medium                   : Blu-ray
  561. Text #19
  562. ID                                       : 31
  563. ID in the original source medium         : 4781 (0x12AD)
  564. Format                                   : PGS
  565. Muxing mode                              : zlib
  566. Codec ID                                 : S_HDMV/PGS
  567. Codec ID/Info                            : Picture based subtitle format used on BDs/HD-DVDs
  568. Duration                                 : 1 h 42 min
  569. Bit rate                                 : 20.3 kb/s
  570. Frame rate                               : 0.301 FPS
  571. Count of elements                        : 1854
  572. Stream size                              : 14.9 MiB (0%)
  573. Language                                 : Greek
  574. Default                                  : No
  575. Forced                                   : No
  576. Original source medium                   : Blu-ray
  577. Text #20
  578. ID                                       : 32
  579. ID in the original source medium         : 4782 (0x12AE)
  580. Format                                   : PGS
  581. Muxing mode                              : zlib
  582. Codec ID                                 : S_HDMV/PGS
  583. Codec ID/Info                            : Picture based subtitle format used on BDs/HD-DVDs
  584. Duration                                 : 1 h 42 min
  585. Bit rate                                 : 15.0 kb/s
  586. Frame rate                               : 0.298 FPS
  587. Count of elements                        : 1835
  588. Stream size                              : 11.0 MiB (0%)
  589. Language                                 : Hebrew
  590. Default                                  : No
  591. Forced                                   : No
  592. Original source medium                   : Blu-ray
  593. Text #21
  594. ID                                       : 33
  595. ID in the original source medium         : 4783 (0x12AF)
  596. Format                                   : PGS
  597. Muxing mode                              : zlib
  598. Codec ID                                 : S_HDMV/PGS
  599. Codec ID/Info                            : Picture based subtitle format used on BDs/HD-DVDs
  600. Duration                                 : 1 h 42 min
  601. Bit rate                                 : 19.6 kb/s
  602. Frame rate                               : 0.284 FPS
  603. Count of elements                        : 1744
  604. Stream size                              : 14.4 MiB (0%)
  605. Language                                 : Hungarian
  606. Default                                  : No
  607. Forced                                   : No
  608. Original source medium                   : Blu-ray
  609. Text #22
  610. ID                                       : 34
  611. ID in the original source medium         : 4784 (0x12B0)
  612. Format                                   : PGS
  613. Muxing mode                              : zlib
  614. Codec ID                                 : S_HDMV/PGS
  615. Codec ID/Info                            : Picture based subtitle format used on BDs/HD-DVDs
  616. Duration                                 : 1 h 42 min
  617. Bit rate                                 : 19.8 kb/s
  618. Frame rate                               : 0.282 FPS
  619. Count of elements                        : 1734
  620. Stream size                              : 14.5 MiB (0%)
  621. Language                                 : Icelandic
  622. Default                                  : No
  623. Forced                                   : No
  624. Original source medium                   : Blu-ray
  625. Text #23
  626. ID                                       : 35
  627. ID in the original source medium         : 4785 (0x12B1)
  628. Format                                   : PGS
  629. Muxing mode                              : zlib
  630. Codec ID                                 : S_HDMV/PGS
  631. Codec ID/Info                            : Picture based subtitle format used on BDs/HD-DVDs
  632. Duration                                 : 1 h 42 min
  633. Bit rate                                 : 20.1 kb/s
  634. Frame rate                               : 0.302 FPS
  635. Count of elements                        : 1856
  636. Stream size                              : 14.7 MiB (0%)
  637. Language                                 : Italian
  638. Default                                  : No
  639. Forced                                   : No
  640. Original source medium                   : Blu-ray
  641. Text #24
  642. ID                                       : 36
  643. ID in the original source medium         : 4785 (0x12B1)
  644. Format                                   : PGS
  645. Muxing mode                              : zlib
  646. Codec ID                                 : S_HDMV/PGS
  647. Codec ID/Info                            : Picture based subtitle format used on BDs/HD-DVDs
  648. Duration                                 : 1 h 0 min
  649. Bit rate                                 : 60 b/s
  650. Frame rate                               : 0.002 FPS
  651. Count of elements                        : 6
  652. Stream size                              : 26.9 KiB (0%)
  653. Language                                 : Italian
  654. Default                                  : No
  655. Forced                                   : No
  656. Original source medium                   : Blu-ray
  657. Text #25
  658. ID                                       : 37
  659. ID in the original source medium         : 4786 (0x12B2)
  660. Format                                   : PGS
  661. Muxing mode                              : zlib
  662. Codec ID                                 : S_HDMV/PGS
  663. Codec ID/Info                            : Picture based subtitle format used on BDs/HD-DVDs
  664. Duration                                 : 1 h 42 min
  665. Bit rate                                 : 13.2 kb/s
  666. Frame rate                               : 0.305 FPS
  667. Count of elements                        : 1875
  668. Stream size                              : 9.65 MiB (0%)
  669. Language                                 : Korean
  670. Default                                  : No
  671. Forced                                   : No
  672. Original source medium                   : Blu-ray
  673. Text #26
  674. ID                                       : 38
  675. ID in the original source medium         : 4786 (0x12B2)
  676. Format                                   : PGS
  677. Muxing mode                              : zlib
  678. Codec ID                                 : S_HDMV/PGS
  679. Codec ID/Info                            : Picture based subtitle format used on BDs/HD-DVDs
  680. Duration                                 : 1 h 40 min
  681. Bit rate                                 : 31 b/s
  682. Frame rate                               : 0.001 FPS
  683. Count of elements                        : 6
  684. Stream size                              : 22.9 KiB (0%)
  685. Language                                 : Korean
  686. Default                                  : No
  687. Forced                                   : No
  688. Original source medium                   : Blu-ray
  689. Text #27
  690. ID                                       : 39
  691. ID in the original source medium         : 4787 (0x12B3)
  692. Format                                   : PGS
  693. Muxing mode                              : zlib
  694. Codec ID                                 : S_HDMV/PGS
  695. Codec ID/Info                            : Picture based subtitle format used on BDs/HD-DVDs
  696. Duration                                 : 1 h 42 min
  697. Bit rate                                 : 20.4 kb/s
  698. Frame rate                               : 0.283 FPS
  699. Count of elements                        : 1739
  700. Stream size                              : 14.9 MiB (0%)
  701. Language                                 : Norwegian
  702. Default                                  : No
  703. Forced                                   : No
  704. Original source medium                   : Blu-ray
  705. Text #28
  706. ID                                       : 40
  707. ID in the original source medium         : 4788 (0x12B4)
  708. Format                                   : PGS
  709. Muxing mode                              : zlib
  710. Codec ID                                 : S_HDMV/PGS
  711. Codec ID/Info                            : Picture based subtitle format used on BDs/HD-DVDs
  712. Duration                                 : 1 h 42 min
  713. Bit rate                                 : 19.0 kb/s
  714. Frame rate                               : 0.282 FPS
  715. Count of elements                        : 1736
  716. Stream size                              : 14.0 MiB (0%)
  717. Language                                 : Polish
  718. Default                                  : No
  719. Forced                                   : No
  720. Original source medium                   : Blu-ray
  721. Text #29
  722. ID                                       : 41
  723. ID in the original source medium         : 4789 (0x12B5)
  724. Format                                   : PGS
  725. Muxing mode                              : zlib
  726. Codec ID                                 : S_HDMV/PGS
  727. Codec ID/Info                            : Picture based subtitle format used on BDs/HD-DVDs
  728. Duration                                 : 1 h 42 min
  729. Bit rate                                 : 18.1 kb/s
  730. Frame rate                               : 0.225 FPS
  731. Count of elements                        : 1384
  732. Stream size                              : 13.3 MiB (0%)
  733. Language                                 : Portuguese
  734. Default                                  : No
  735. Forced                                   : No
  736. Original source medium                   : Blu-ray
  737. Text #30
  738. ID                                       : 42
  739. ID in the original source medium         : 4789 (0x12B5)
  740. Format                                   : PGS
  741. Muxing mode                              : zlib
  742. Codec ID                                 : S_HDMV/PGS
  743. Codec ID/Info                            : Picture based subtitle format used on BDs/HD-DVDs
  744. Duration                                 : 1 h 0 min
  745. Bit rate                                 : 37 b/s
  746. Frame rate                               : 0.001 FPS
  747. Count of elements                        : 4
  748. Stream size                              : 16.7 KiB (0%)
  749. Language                                 : Portuguese
  750. Default                                  : No
  751. Forced                                   : No
  752. Original source medium                   : Blu-ray
  753. Text #31
  754. ID                                       : 43
  755. ID in the original source medium         : 4790 (0x12B6)
  756. Format                                   : PGS
  757. Muxing mode                              : zlib
  758. Codec ID                                 : S_HDMV/PGS
  759. Codec ID/Info                            : Picture based subtitle format used on BDs/HD-DVDs
  760. Duration                                 : 1 h 42 min
  761. Bit rate                                 : 20.0 kb/s
  762. Frame rate                               : 0.283 FPS
  763. Count of elements                        : 1740
  764. Stream size                              : 14.6 MiB (0%)
  765. Language                                 : Portuguese
  766. Default                                  : No
  767. Forced                                   : No
  768. Original source medium                   : Blu-ray
  769. Text #32
  770. ID                                       : 44
  771. ID in the original source medium         : 4791 (0x12B7)
  772. Format                                   : PGS
  773. Muxing mode                              : zlib
  774. Codec ID                                 : S_HDMV/PGS
  775. Codec ID/Info                            : Picture based subtitle format used on BDs/HD-DVDs
  776. Duration                                 : 1 h 42 min
  777. Bit rate                                 : 20.3 kb/s
  778. Frame rate                               : 0.285 FPS
  779. Count of elements                        : 1754
  780. Stream size                              : 14.9 MiB (0%)
  781. Language                                 : Spanish
  782. Default                                  : No
  783. Forced                                   : No
  784. Original source medium                   : Blu-ray
  785. Text #33
  786. ID                                       : 45
  787. ID in the original source medium         : 4792 (0x12B8)
  788. Format                                   : PGS
  789. Muxing mode                              : zlib
  790. Codec ID                                 : S_HDMV/PGS
  791. Codec ID/Info                            : Picture based subtitle format used on BDs/HD-DVDs
  792. Duration                                 : 1 h 42 min
  793. Bit rate                                 : 20.0 kb/s
  794. Frame rate                               : 0.286 FPS
  795. Count of elements                        : 1762
  796. Stream size                              : 14.7 MiB (0%)
  797. Language                                 : Spanish
  798. Default                                  : No
  799. Forced                                   : No
  800. Original source medium                   : Blu-ray
  801. Text #34
  802. ID                                       : 46
  803. ID in the original source medium         : 4792 (0x12B8)
  804. Format                                   : PGS
  805. Muxing mode                              : zlib
  806. Codec ID                                 : S_HDMV/PGS
  807. Codec ID/Info                            : Picture based subtitle format used on BDs/HD-DVDs
  808. Duration                                 : 1 h 0 min
  809. Bit rate                                 : 70 b/s
  810. Frame rate                               : 0.002 FPS
  811. Count of elements                        : 6
  812. Stream size                              : 31.6 KiB (0%)
  813. Language                                 : Spanish
  814. Default                                  : No
  815. Forced                                   : No
  816. Original source medium                   : Blu-ray
  817. Text #35
  818. ID                                       : 47
  819. ID in the original source medium         : 4793 (0x12B9)
  820. Format                                   : PGS
  821. Muxing mode                              : zlib
  822. Codec ID                                 : S_HDMV/PGS
  823. Codec ID/Info                            : Picture based subtitle format used on BDs/HD-DVDs
  824. Duration                                 : 1 h 45 min
  825. Bit rate                                 : 16.4 kb/s
  826. Frame rate                               : 0.274 FPS
  827. Count of elements                        : 1740
  828. Stream size                              : 12.5 MiB (0%)
  829. Language                                 : Swedish
  830. Default                                  : No
  831. Forced                                   : No
  832. Original source medium                   : Blu-ray
  833. Text #36
  834. ID                                       : 48
  835. ID in the original source medium         : 4794 (0x12BA)
  836. Format                                   : PGS
  837. Muxing mode                              : zlib
  838. Codec ID                                 : S_HDMV/PGS
  839. Codec ID/Info                            : Picture based subtitle format used on BDs/HD-DVDs
  840. Duration                                 : 1 h 45 min
  841. Bit rate                                 : 16.7 kb/s
  842. Frame rate                               : 0.295 FPS
  843. Count of elements                        : 1871
  844. Stream size                              : 12.6 MiB (0%)
  845. Language                                 : Thai
  846. Default                                  : No
  847. Forced                                   : No
  848. Original source medium                   : Blu-ray
  849. Text #37
  850. ID                                       : 49
  851. ID in the original source medium         : 4795 (0x12BB)
  852. Format                                   : PGS
  853. Muxing mode                              : zlib
  854. Codec ID                                 : S_HDMV/PGS
  855. Codec ID/Info                            : Picture based subtitle format used on BDs/HD-DVDs
  856. Duration                                 : 1 h 42 min
  857. Bit rate                                 : 21.5 kb/s
  858. Frame rate                               : 0.305 FPS
  859. Count of elements                        : 1873
  860. Stream size                              : 15.8 MiB (0%)
  861. Language                                 : Turkish
  862. Default                                  : No
  863. Forced                                   : No
  864. Original source medium                   : Blu-ray
  865. Menu
  866. 00:00:00.000                             : en:Chapter 01
  867. 00:02:47.000                             : en:Chapter 02
  868. 00:14:37.084                             : en:Chapter 03
  869. 00:20:43.408                             : en:Chapter 04
  870. 00:27:31.441                             : en:Chapter 05
  871. 00:31:53.578                             : en:Chapter 06
  872. 00:44:58.696                             : en:Chapter 07
  873. 00:51:31.922                             : en:Chapter 08
  874. 00:58:40.099                             : en:Chapter 09
  875. 01:03:38.731                             : en:Chapter 10
  876. 01:08:37.988                             : en:Chapter 11
  877. 01:16:10.190                             : en:Chapter 12
  878. 01:20:13.391                             : en:Chapter 13
  879. 01:27:15.772                             : en:Chapter 14
  880. 01:34:50.601                             : en:Chapter 15
  881. 01:38:04.753                             : en:Chapter 16
复制代码




                                       
                                       

                                       
                                       
                                       




Fright.Night.1985.2160p.BluRay.REMUX.HEVC.DTS-HD.MA.TrueHD.7.1.Atmos-FGT.torrent (69.98 KB, 下载次数: 0)
回复

使用道具 举报

您需要登录后才可以回帖 登录 | 立即注册

本版积分规则

QQ|Archiver|手机版|小黑屋|蓝光电影网

GMT+8, 2022-11-30 08:10 , Processed in 0.061281 second(s), 28 queries .

Powered by Discuz! X3.4

Copyright © 2001-2020, Tencent Cloud.

快速回复 返回顶部 返回列表