找回密码
 立即注册

QQ登录

只需一步,快速开始

查看: 106|回复: 0

[其他] 猫王 Elvis.2022.2160p.WEB-DL.x265.10bit.HDR.DDP5.1.Atmos-CM 28.05GB

[复制链接]

0

精华

0

好友

2

听众

新手上路

Rank: 2

蓝光币
5
发表于 2022-8-8 07:55:15 | 显示全部楼层 |阅读模式


◎译  名 猫王 / 埃尔维斯 / 猫王艾维斯(台)
◎片  名 Elvis
◎年  代 2022
◎产  地 澳大利亚 / 美国
◎类  别 剧情 / 音乐 / 传记
◎语  言 英语
◎上映日期 2022-05-25(戛纳电影节) / 2022-06-24(美国)
◎IMDb链接 https://www.imdb.com/title/tt3704428/
◎豆瓣评分 7.3/10 (1196人评价)
◎豆瓣链接 https://movie.douban.com/subject/26305582/
◎片  长 159分钟
◎导  演 巴兹·鲁赫曼 Baz Luhrmann (id:1049725)
◎编  剧 巴兹·鲁赫曼 Baz Luhrmann (id:1049725)
       山姆·布罗梅尔 Sam Bromell (id:1360465)
       克雷格·皮尔斯 Craig Pearce (id:1294165)
       杰瑞米·杜内尔 Jeremy Doner (id:1330571)
◎演  员 奥斯汀·巴特勒 Austin Butler (id:1022667)
       汤姆·汉克斯 Tom Hanks (id:1054450)
       奥利维亚·德容格 Olivia DeJonge (id:1351916)
       海伦·汤姆森 Helen Thomson (id:1299203)
       理查德·劳斯伯格 Richard Roxburgh (id:1013865)
       小凯文·哈里森 Kelvin Harrison Jr. (id:1372966)
       大卫·文翰 David Wenham (id:1049573)
       柯蒂·斯密特-麦菲 Kodi Smit-McPhee (id:1248592)
       卢克·布雷西 Luke Bracey (id:1338326)
       戴克·蒙哥马利 Dacre Montgomery (id:1354781)
       里昂·福德 Leon Ford (id:1302535)
       加里·克拉克 Gary Clark Jr. (id:1310409)
       Yola Yola (id:1473913)
       娜塔莎·巴塞特 Natasha Bassett (id:1392181)
       泽维尔·塞缪尔 Xavier Samuel (id:1035613)
       亚当·杜恩 Adam Dunn (id:1360100)
       查尔斯·格朗斯 Charles Grounds (id:1392956)
       凯特·马尔瓦尼 Kate Mulvany (id:1235924)
       加雷斯·戴维斯 Gareth Davies (id:1389568)
       尼古拉斯·贝尔 Nicholas Bell (id:1064305)
       安东尼·费伦 Anthony Phelan (id:1135797)
       桑德罗·科拉尔利 Sandro Colarelli (id:1373799)
       娜塔莉·巴辛思韦特 Natalie Bassingthwaighte (id:1215301)
       马克·伦纳德·温特 Mark Leonard Winter (id:1353397)
       休·帕克 Hugh Parker (id:1373795)
       克里斯多夫·萨默斯 Christopher Sommers (id:1340911)
       伊丽莎白·库伦 Elizabeth Cullen (id:1470140)
       安琪·米利肯 Angie Milliken (id:1292119)
       伊恩·加德纳 Iain Gardiner (id:1455244)
       梅利纳·维德勒 Melina Vidler (id:1450197)
       林恩·罗斯 Lynne Rose (id:1441811)
       巴兹·鲁赫曼 Baz Luhrmann (id:1049725)
       凯瑟琳·马丁 Catherine Martin (id:1005365)
◎简  介

  《红磨坊》《了不起的盖茨比》殿堂级导演巴兹·鲁赫曼掌舵,《好莱坞往事》新一代男神奥斯汀·巴特勒,联同奥斯卡影帝汤姆·汉克斯,将已故摇滚传奇天王“猫王”埃尔维斯·普雷斯利(Elvis Presley)的一生,震撼而感动地重现大银幕。                                    
                                籍籍无名乡村男孩,摇身一变成为叱咤风云的摇滚之王,猫王精彩一生,由他站上舞台那刻展开。猫王被经理人Tom Parker上校(汤姆·汉克斯 饰)发崛,助他走上国际巨星之路,但前所未有的名与利,加上社会与文化变迁,令猫王一度迷失自我,二人在20多年之间发展出一段充满矛盾的复杂关系。这段华丽星途里,猫王也遇上了影响他最深的女人Priscilla Presley(奥利维亚·德容格 饰)。多首经典金曲伴着慑人舞姿,歌迷影迷无不着迷。
  1. Video
  2. ID                                       : 1
  3. Format                                   : HEVC
  4. Format/Info                              : High Efficiency Video Coding
  5. Format profile                           : Main [email protected]@High
  6. HDR format                               : SMPTE ST 2086, HDR10 compatible
  7. Codec ID                                 : V_MPEGH/ISO/HEVC
  8. Duration                                 : 2 h 39 min
  9. Bit rate                                 : 24.4 Mb/s
  10. Width                                    : 3 840 pixels
  11. Height                                   : 1 604 pixels
  12. Display aspect ratio                     : 2.40:1
  13. Frame rate mode                          : Constant
  14. Frame rate                               : 23.976 FPS
  15. Color space                              : YUV
  16. Chroma subsampling                       : 4:2:0 (Type 2)
  17. Bit depth                                : 10 bits
  18. Bits/(Pixel*Frame)                       : 0.166
  19. Stream size                              : 27.2 GiB (97%)
  20. Language                                 : English
  21. Default                                  : Yes
  22. Forced                                   : No
  23. Color range                              : Limited
  24. Color primaries                          : BT.2020
  25. Transfer characteristics                 : PQ
  26. Matrix coefficients                      : BT.2020 non-constant
  27. Mastering display color primaries        : BT.2020
  28. Mastering display luminance              : min: 0.0050 cd/m2, max: 1000 cd/m2
  29. Maximum Content Light Level              : 1115 cd/m2
  30. Maximum Frame-Average Light Level        : 333 cd/m2
  31. Audio
  32. ID                                       : 2
  33. Format                                   : E-AC-3 JOC
  34. Format/Info                              : Enhanced AC-3 with Joint Object Coding
  35. Commercial name                          : Dolby Digital Plus with Dolby Atmos
  36. Codec ID                                 : A_EAC3
  37. Duration                                 : 2 h 39 min
  38. Bit rate mode                            : Constant
  39. Bit rate                                 : 768 kb/s
  40. Channel(s)                               : 6 channels
  41. Channel layout                           : L R C LFE Ls Rs
  42. Sampling rate                            : 48.0 kHz
  43. Frame rate                               : 31.250 FPS (1536 SPF)
  44. Compression mode                         : Lossy
  45. Stream size                              : 875 MiB (3%)
  46. Language                                 : English
  47. Service kind                             : Complete Main
  48. Default                                  : Yes
  49. Forced                                   : No
  50. Complexity index                         : 16
  51. Number of dynamic objects                : 15
  52. Bed channel count                        : 1 channel
  53. Bed channel configuration                : LFE
  54. Text #1
  55. ID                                       : 3
  56. Format                                   : UTF-8
  57. Codec ID                                 : S_TEXT/UTF8
  58. Codec ID/Info                            : UTF-8 Plain Text
  59. Duration                                 : 2 h 39 min
  60. Bit rate                                 : 88 b/s
  61. Frame rate                               : 0.296 FPS
  62. Count of elements                        : 2827
  63. Stream size                              : 103 KiB (0%)
  64. Title                                    : SDH
  65. Language                                 : English
  66. Default                                  : No
  67. Forced                                   : No
  68. Text #2
  69. ID                                       : 4
  70. Format                                   : UTF-8
  71. Codec ID                                 : S_TEXT/UTF8
  72. Codec ID/Info                            : UTF-8 Plain Text
  73. Duration                                 : 2 h 39 min
  74. Bit rate                                 : 78 b/s
  75. Frame rate                               : 0.266 FPS
  76. Count of elements                        : 2537
  77. Stream size                              : 91.5 KiB (0%)
  78. Language                                 : English
  79. Default                                  : No
  80. Forced                                   : No
  81. Text #3
  82. ID                                       : 5
  83. Format                                   : UTF-8
  84. Codec ID                                 : S_TEXT/UTF8
  85. Codec ID/Info                            : UTF-8 Plain Text
  86. Duration                                 : 2 h 38 min
  87. Bit rate                                 : 94 b/s
  88. Frame rate                               : 0.187 FPS
  89. Count of elements                        : 1783
  90. Stream size                              : 109 KiB (0%)
  91. Language                                 : Arabic
  92. Default                                  : No
  93. Forced                                   : No
  94. Text #4
  95. ID                                       : 6
  96. Format                                   : UTF-8
  97. Codec ID                                 : S_TEXT/UTF8
  98. Codec ID/Info                            : UTF-8 Plain Text
  99. Duration                                 : 2 h 38 min
  100. Bit rate                                 : 98 b/s
  101. Frame rate                               : 0.223 FPS
  102. Count of elements                        : 2124
  103. Stream size                              : 115 KiB (0%)
  104. Language                                 : Bulgarian
  105. Default                                  : No
  106. Forced                                   : No
  107. Text #5
  108. ID                                       : 7
  109. Format                                   : UTF-8
  110. Codec ID                                 : S_TEXT/UTF8
  111. Codec ID/Info                            : UTF-8 Plain Text
  112. Duration                                 : 2 h 38 min
  113. Bit rate                                 : 64 b/s
  114. Frame rate                               : 0.221 FPS
  115. Count of elements                        : 2105
  116. Stream size                              : 74.7 KiB (0%)
  117. Language                                 : Czech
  118. Default                                  : No
  119. Forced                                   : No
  120. Text #6
  121. ID                                       : 8
  122. Format                                   : UTF-8
  123. Codec ID                                 : S_TEXT/UTF8
  124. Codec ID/Info                            : UTF-8 Plain Text
  125. Duration                                 : 2 h 38 min
  126. Bit rate                                 : 45 b/s
  127. Frame rate                               : 0.129 FPS
  128. Count of elements                        : 1229
  129. Stream size                              : 52.7 KiB (0%)
  130. Language                                 : Danish
  131. Default                                  : No
  132. Forced                                   : No
  133. Text #7
  134. ID                                       : 9
  135. Format                                   : UTF-8
  136. Codec ID                                 : S_TEXT/UTF8
  137. Codec ID/Info                            : UTF-8 Plain Text
  138. Duration                                 : 2 h 39 min
  139. Bit rate                                 : 64 b/s
  140. Frame rate                               : 0.200 FPS
  141. Count of elements                        : 1909
  142. Stream size                              : 75.2 KiB (0%)
  143. Title                                    : SDH
  144. Language                                 : German
  145. Default                                  : No
  146. Forced                                   : No
  147. Text #8
  148. ID                                       : 10
  149. Format                                   : UTF-8
  150. Codec ID                                 : S_TEXT/UTF8
  151. Codec ID/Info                            : UTF-8 Plain Text
  152. Duration                                 : 2 h 38 min
  153. Bit rate                                 : 58 b/s
  154. Frame rate                               : 0.178 FPS
  155. Count of elements                        : 1697
  156. Stream size                              : 67.7 KiB (0%)
  157. Language                                 : German
  158. Default                                  : No
  159. Forced                                   : No
  160. Text #9
  161. ID                                       : 11
  162. Format                                   : UTF-8
  163. Codec ID                                 : S_TEXT/UTF8
  164. Codec ID/Info                            : UTF-8 Plain Text
  165. Duration                                 : 2 h 38 min
  166. Bit rate                                 : 88 b/s
  167. Frame rate                               : 0.186 FPS
  168. Count of elements                        : 1774
  169. Stream size                              : 102 KiB (0%)
  170. Language                                 : Greek
  171. Default                                  : No
  172. Forced                                   : No
  173. Text #10
  174. ID                                       : 12
  175. Format                                   : UTF-8
  176. Codec ID                                 : S_TEXT/UTF8
  177. Codec ID/Info                            : UTF-8 Plain Text
  178. Duration                                 : 2 h 38 min
  179. Bit rate                                 : 54 b/s
  180. Frame rate                               : 0.188 FPS
  181. Count of elements                        : 1787
  182. Stream size                              : 63.6 KiB (0%)
  183. Language                                 : Spanish
  184. Default                                  : No
  185. Forced                                   : No
  186. Text #11
  187. ID                                       : 13
  188. Format                                   : UTF-8
  189. Codec ID                                 : S_TEXT/UTF8
  190. Codec ID/Info                            : UTF-8 Plain Text
  191. Duration                                 : 2 h 38 min
  192. Bit rate                                 : 64 b/s
  193. Frame rate                               : 0.221 FPS
  194. Count of elements                        : 2101
  195. Stream size                              : 74.4 KiB (0%)
  196. Title                                    : Latin American
  197. Language                                 : Spanish
  198. Default                                  : No
  199. Forced                                   : No
  200. Text #12
  201. ID                                       : 14
  202. Format                                   : UTF-8
  203. Codec ID                                 : S_TEXT/UTF8
  204. Codec ID/Info                            : UTF-8 Plain Text
  205. Duration                                 : 2 h 38 min
  206. Bit rate                                 : 46 b/s
  207. Frame rate                               : 0.186 FPS
  208. Count of elements                        : 1766
  209. Stream size                              : 54.2 KiB (0%)
  210. Language                                 : Estonian
  211. Default                                  : No
  212. Forced                                   : No
  213. Text #13
  214. ID                                       : 15
  215. Format                                   : UTF-8
  216. Codec ID                                 : S_TEXT/UTF8
  217. Codec ID/Info                            : UTF-8 Plain Text
  218. Duration                                 : 2 h 38 min
  219. Bit rate                                 : 53 b/s
  220. Frame rate                               : 0.193 FPS
  221. Count of elements                        : 1837
  222. Stream size                              : 62.4 KiB (0%)
  223. Language                                 : Finnish
  224. Default                                  : No
  225. Forced                                   : No
  226. Text #14
  227. ID                                       : 16
  228. Format                                   : UTF-8
  229. Codec ID                                 : S_TEXT/UTF8
  230. Codec ID/Info                            : UTF-8 Plain Text
  231. Duration                                 : 2 h 38 min
  232. Bit rate                                 : 46 b/s
  233. Frame rate                               : 0.197 FPS
  234. Count of elements                        : 1868
  235. Stream size                              : 54.1 KiB (0%)
  236. Language                                 : French
  237. Default                                  : No
  238. Forced                                   : No
  239. Text #15
  240. ID                                       : 17
  241. Format                                   : UTF-8
  242. Codec ID                                 : S_TEXT/UTF8
  243. Codec ID/Info                            : UTF-8 Plain Text
  244. Duration                                 : 2 h 38 min
  245. Bit rate                                 : 50 b/s
  246. Frame rate                               : 0.153 FPS
  247. Count of elements                        : 1459
  248. Stream size                              : 59.0 KiB (0%)
  249. Language                                 : Hungarian
  250. Default                                  : No
  251. Forced                                   : No
  252. Text #16
  253. ID                                       : 18
  254. Format                                   : UTF-8
  255. Codec ID                                 : S_TEXT/UTF8
  256. Codec ID/Info                            : UTF-8 Plain Text
  257. Duration                                 : 2 h 39 min
  258. Bit rate                                 : 68 b/s
  259. Frame rate                               : 0.224 FPS
  260. Count of elements                        : 2140
  261. Stream size                              : 79.3 KiB (0%)
  262. Language                                 : Italian
  263. Default                                  : No
  264. Forced                                   : No
  265. Text #17
  266. ID                                       : 19
  267. Format                                   : UTF-8
  268. Codec ID                                 : S_TEXT/UTF8
  269. Codec ID/Info                            : UTF-8 Plain Text
  270. Duration                                 : 2 h 38 min
  271. Bit rate                                 : 52 b/s
  272. Frame rate                               : 0.205 FPS
  273. Count of elements                        : 1953
  274. Stream size                              : 61.2 KiB (0%)
  275. Language                                 : Japanese
  276. Default                                  : No
  277. Forced                                   : No
  278. Text #18
  279. ID                                       : 20
  280. Format                                   : UTF-8
  281. Codec ID                                 : S_TEXT/UTF8
  282. Codec ID/Info                            : UTF-8 Plain Text
  283. Duration                                 : 2 h 38 min
  284. Bit rate                                 : 52 b/s
  285. Frame rate                               : 0.201 FPS
  286. Count of elements                        : 1917
  287. Stream size                              : 60.7 KiB (0%)
  288. Language                                 : Korean
  289. Default                                  : No
  290. Forced                                   : No
  291. Text #19
  292. ID                                       : 21
  293. Format                                   : UTF-8
  294. Codec ID                                 : S_TEXT/UTF8
  295. Codec ID/Info                            : UTF-8 Plain Text
  296. Duration                                 : 2 h 38 min
  297. Bit rate                                 : 55 b/s
  298. Frame rate                               : 0.186 FPS
  299. Count of elements                        : 1769
  300. Stream size                              : 64.8 KiB (0%)
  301. Language                                 : Lithuanian
  302. Default                                  : No
  303. Forced                                   : No
  304. Text #20
  305. ID                                       : 22
  306. Format                                   : UTF-8
  307. Codec ID                                 : S_TEXT/UTF8
  308. Codec ID/Info                            : UTF-8 Plain Text
  309. Duration                                 : 2 h 38 min
  310. Bit rate                                 : 52 b/s
  311. Frame rate                               : 0.184 FPS
  312. Count of elements                        : 1755
  313. Stream size                              : 61.1 KiB (0%)
  314. Language                                 : Latvian
  315. Default                                  : No
  316. Forced                                   : No
  317. Text #21
  318. ID                                       : 23
  319. Format                                   : UTF-8
  320. Codec ID                                 : S_TEXT/UTF8
  321. Codec ID/Info                            : UTF-8 Plain Text
  322. Duration                                 : 2 h 38 min
  323. Bit rate                                 : 48 b/s
  324. Frame rate                               : 0.145 FPS
  325. Count of elements                        : 1380
  326. Stream size                              : 56.2 KiB (0%)
  327. Language                                 : Dutch
  328. Default                                  : No
  329. Forced                                   : No
  330. Text #22
  331. ID                                       : 24
  332. Format                                   : UTF-8
  333. Codec ID                                 : S_TEXT/UTF8
  334. Codec ID/Info                            : UTF-8 Plain Text
  335. Duration                                 : 2 h 38 min
  336. Bit rate                                 : 49 b/s
  337. Frame rate                               : 0.149 FPS
  338. Count of elements                        : 1422
  339. Stream size                              : 57.9 KiB (0%)
  340. Language                                 : Norwegian
  341. Default                                  : No
  342. Forced                                   : No
  343. Text #23
  344. ID                                       : 25
  345. Format                                   : UTF-8
  346. Codec ID                                 : S_TEXT/UTF8
  347. Codec ID/Info                            : UTF-8 Plain Text
  348. Duration                                 : 2 h 38 min
  349. Bit rate                                 : 54 b/s
  350. Frame rate                               : 0.185 FPS
  351. Count of elements                        : 1764
  352. Stream size                              : 63.4 KiB (0%)
  353. Language                                 : Polish
  354. Default                                  : No
  355. Forced                                   : No
  356. Text #24
  357. ID                                       : 26
  358. Format                                   : UTF-8
  359. Codec ID                                 : S_TEXT/UTF8
  360. Codec ID/Info                            : UTF-8 Plain Text
  361. Duration                                 : 2 h 38 min
  362. Bit rate                                 : 66 b/s
  363. Frame rate                               : 0.218 FPS
  364. Count of elements                        : 2076
  365. Stream size                              : 77.8 KiB (0%)
  366. Language                                 : Portuguese
  367. Default                                  : No
  368. Forced                                   : No
  369. Text #25
  370. ID                                       : 27
  371. Format                                   : UTF-8
  372. Codec ID                                 : S_TEXT/UTF8
  373. Codec ID/Info                            : UTF-8 Plain Text
  374. Duration                                 : 2 h 38 min
  375. Bit rate                                 : 67 b/s
  376. Frame rate                               : 0.221 FPS
  377. Count of elements                        : 2104
  378. Stream size                              : 77.9 KiB (0%)
  379. Title                                    : Brazilian
  380. Language                                 : Portuguese
  381. Default                                  : No
  382. Forced                                   : No
  383. Text #26
  384. ID                                       : 28
  385. Format                                   : UTF-8
  386. Codec ID                                 : S_TEXT/UTF8
  387. Codec ID/Info                            : UTF-8 Plain Text
  388. Duration                                 : 2 h 38 min
  389. Bit rate                                 : 80 b/s
  390. Frame rate                               : 0.185 FPS
  391. Count of elements                        : 1765
  392. Stream size                              : 93.7 KiB (0%)
  393. Language                                 : Russian
  394. Default                                  : No
  395. Forced                                   : No
  396. Text #27
  397. ID                                       : 29
  398. Format                                   : UTF-8
  399. Codec ID                                 : S_TEXT/UTF8
  400. Codec ID/Info                            : UTF-8 Plain Text
  401. Duration                                 : 2 h 38 min
  402. Bit rate                                 : 48 b/s
  403. Frame rate                               : 0.182 FPS
  404. Count of elements                        : 1735
  405. Stream size                              : 56.3 KiB (0%)
  406. Language                                 : Slovak
  407. Default                                  : No
  408. Forced                                   : No
  409. Text #28
  410. ID                                       : 30
  411. Format                                   : UTF-8
  412. Codec ID                                 : S_TEXT/UTF8
  413. Codec ID/Info                            : UTF-8 Plain Text
  414. Duration                                 : 2 h 38 min
  415. Bit rate                                 : 49 b/s
  416. Frame rate                               : 0.174 FPS
  417. Count of elements                        : 1654
  418. Stream size                              : 57.3 KiB (0%)
  419. Language                                 : Slovenian
  420. Default                                  : No
  421. Forced                                   : No
  422. Text #29
  423. ID                                       : 31
  424. Format                                   : UTF-8
  425. Codec ID                                 : S_TEXT/UTF8
  426. Codec ID/Info                            : UTF-8 Plain Text
  427. Duration                                 : 2 h 38 min
  428. Bit rate                                 : 48 b/s
  429. Frame rate                               : 0.150 FPS
  430. Count of elements                        : 1429
  431. Stream size                              : 56.8 KiB (0%)
  432. Language                                 : Swedish
  433. Default                                  : No
  434. Forced                                   : No
  435. Text #30
  436. ID                                       : 32
  437. Format                                   : UTF-8
  438. Codec ID                                 : S_TEXT/UTF8
  439. Codec ID/Info                            : UTF-8 Plain Text
  440. Duration                                 : 2 h 38 min
  441. Bit rate                                 : 147 b/s
  442. Frame rate                               : 0.224 FPS
  443. Count of elements                        : 2129
  444. Stream size                              : 172 KiB (0%)
  445. Language                                 : Thai
  446. Default                                  : No
  447. Forced                                   : No
  448. Text #31
  449. ID                                       : 33
  450. Format                                   : UTF-8
  451. Codec ID                                 : S_TEXT/UTF8
  452. Codec ID/Info                            : UTF-8 Plain Text
  453. Duration                                 : 2 h 38 min
  454. Bit rate                                 : 62 b/s
  455. Frame rate                               : 0.224 FPS
  456. Count of elements                        : 2130
  457. Stream size                              : 72.1 KiB (0%)
  458. Title                                    : zh-Hans
  459. Language                                 : Chinese
  460. Default                                  : No
  461. Forced                                   : No
  462. Text #32
  463. ID                                       : 34
  464. Format                                   : UTF-8
  465. Codec ID                                 : S_TEXT/UTF8
  466. Codec ID/Info                            : UTF-8 Plain Text
  467. Duration                                 : 2 h 38 min
  468. Bit rate                                 : 57 b/s
  469. Frame rate                               : 0.217 FPS
  470. Count of elements                        : 2067
  471. Stream size                              : 67.0 KiB (0%)
  472. Title                                    : zh-Hant
  473. Language                                 : Chinese
  474. Default                                  : No
  475. Forced                                   : No
  476. Menu
  477. 00:00:00.000                             : Chapter 01
  478. 00:09:06.379                             : Chapter 02
  479. 00:14:30.995                             : Chapter 03
  480. 00:22:05.700                             : Chapter 04
  481. 00:29:46.703                             : Chapter 05
  482. 00:38:05.910                             : Chapter 06
  483. 00:46:20.447                             : Chapter 07
  484. 00:53:33.380                             : Chapter 08
  485. 01:03:28.641                             : Chapter 09
  486. 01:12:04.407                             : Chapter 10
  487. 01:21:09.953                             : Chapter 11
  488. 01:30:16.583                             : Chapter 12
  489. 01:39:18.708                             : Chapter 13
  490. 01:48:44.315                             : Chapter 14
  491. 01:57:10.238                             : Chapter 15
  492. 02:04:45.485                             : Chapter 16
  493. 02:13:03.274                             : Chapter 17
  494. 02:22:34.971                             : Chapter 18
  495. 02:29:55.203                             : Chapter 19
复制代码




                                       
                                       

                                       
                                       
                                       




Elvis.2022.2160p.WEB-DL.x265.10bit.HDR.DDP5.1.Atmos-CM.torrent (35.71 KB, 下载次数: 4)
回复

使用道具 举报

您需要登录后才可以回帖 登录 | 立即注册

本版积分规则

QQ|Archiver|手机版|小黑屋|蓝光电影网

GMT+8, 2022-10-8 03:57 , Processed in 0.059213 second(s), 28 queries .

Powered by Discuz! X3.4

Copyright © 2001-2020, Tencent Cloud.

快速回复 返回顶部 返回列表