找回密码
 立即注册

QQ登录

只需一步,快速开始

查看: 95|回复: 0

[其他] 猫王 Elvis.2022.2160p.WEB-DL.DDP5.1.Atmos.DV.MP4.x265-DVSUX 16.88GB

[复制链接]

0

精华

0

好友

2

听众

新手上路

Rank: 2

蓝光币
5
发表于 2022-8-8 07:55:09 | 显示全部楼层 |阅读模式


◎译  名 猫王 / 埃尔维斯 / 猫王艾维斯(台)
◎片  名 Elvis
◎年  代 2022
◎产  地 澳大利亚 / 美国
◎类  别 剧情 / 音乐 / 传记
◎语  言 英语
◎上映日期 2022-05-25(戛纳电影节) / 2022-06-24(美国)
◎IMDb链接 https://www.imdb.com/title/tt3704428/
◎豆瓣评分 7.3/10 (1196人评价)
◎豆瓣链接 https://movie.douban.com/subject/26305582/
◎片  长 159分钟
◎导  演 巴兹·鲁赫曼 Baz Luhrmann (id:1049725)
◎编  剧 巴兹·鲁赫曼 Baz Luhrmann (id:1049725)
       山姆·布罗梅尔 Sam Bromell (id:1360465)
       克雷格·皮尔斯 Craig Pearce (id:1294165)
       杰瑞米·杜内尔 Jeremy Doner (id:1330571)
◎演  员 奥斯汀·巴特勒 Austin Butler (id:1022667)
       汤姆·汉克斯 Tom Hanks (id:1054450)
       奥利维亚·德容格 Olivia DeJonge (id:1351916)
       海伦·汤姆森 Helen Thomson (id:1299203)
       理查德·劳斯伯格 Richard Roxburgh (id:1013865)
       小凯文·哈里森 Kelvin Harrison Jr. (id:1372966)
       大卫·文翰 David Wenham (id:1049573)
       柯蒂·斯密特-麦菲 Kodi Smit-McPhee (id:1248592)
       卢克·布雷西 Luke Bracey (id:1338326)
       戴克·蒙哥马利 Dacre Montgomery (id:1354781)
       里昂·福德 Leon Ford (id:1302535)
       加里·克拉克 Gary Clark Jr. (id:1310409)
       Yola Yola (id:1473913)
       娜塔莎·巴塞特 Natasha Bassett (id:1392181)
       泽维尔·塞缪尔 Xavier Samuel (id:1035613)
       亚当·杜恩 Adam Dunn (id:1360100)
       查尔斯·格朗斯 Charles Grounds (id:1392956)
       凯特·马尔瓦尼 Kate Mulvany (id:1235924)
       加雷斯·戴维斯 Gareth Davies (id:1389568)
       尼古拉斯·贝尔 Nicholas Bell (id:1064305)
       安东尼·费伦 Anthony Phelan (id:1135797)
       桑德罗·科拉尔利 Sandro Colarelli (id:1373799)
       娜塔莉·巴辛思韦特 Natalie Bassingthwaighte (id:1215301)
       马克·伦纳德·温特 Mark Leonard Winter (id:1353397)
       休·帕克 Hugh Parker (id:1373795)
       克里斯多夫·萨默斯 Christopher Sommers (id:1340911)
       伊丽莎白·库伦 Elizabeth Cullen (id:1470140)
       安琪·米利肯 Angie Milliken (id:1292119)
       伊恩·加德纳 Iain Gardiner (id:1455244)
       梅利纳·维德勒 Melina Vidler (id:1450197)
       林恩·罗斯 Lynne Rose (id:1441811)
       巴兹·鲁赫曼 Baz Luhrmann (id:1049725)
       凯瑟琳·马丁 Catherine Martin (id:1005365)
◎简  介

  《红磨坊》《了不起的盖茨比》殿堂级导演巴兹·鲁赫曼掌舵,《好莱坞往事》新一代男神奥斯汀·巴特勒,联同奥斯卡影帝汤姆·汉克斯,将已故摇滚传奇天王“猫王”埃尔维斯·普雷斯利(Elvis Presley)的一生,震撼而感动地重现大银幕。                                    
                                籍籍无名乡村男孩,摇身一变成为叱咤风云的摇滚之王,猫王精彩一生,由他站上舞台那刻展开。猫王被经理人Tom Parker上校(汤姆·汉克斯 饰)发崛,助他走上国际巨星之路,但前所未有的名与利,加上社会与文化变迁,令猫王一度迷失自我,二人在20多年之间发展出一段充满矛盾的复杂关系。这段华丽星途里,猫王也遇上了影响他最深的女人Priscilla Presley(奥利维亚·德容格 饰)。多首经典金曲伴着慑人舞姿,歌迷影迷无不着迷。
  1. Video
  2. ID                                       : 1
  3. Format                                   : HEVC
  4. Format/Info                              : High Efficiency Video Coding
  5. Format profile                           : Main [email protected]@High
  6. HDR format                               : Dolby Vision, Version 1.0, dvhe.05.06, BL+RPU
  7. Codec ID                                 : dvhe
  8. Codec ID/Info                            : High Efficiency Video Coding with Dolby Vision
  9. Duration                                 : 2 h 39 min
  10. Bit rate                                 : 14.4 Mb/s
  11. Width                                    : 3 840 pixels
  12. Height                                   : 1 608 pixels
  13. Original height                          : 1 604 pixels
  14. Display aspect ratio                     : 2.40:1
  15. Original display aspect ratio            : 2.40:1
  16. Frame rate mode                          : Constant
  17. Frame rate                               : 23.976 (24000/1001/189150) FPS
  18. Color space                              : YUV
  19. Chroma subsampling                       : 4:2:0
  20. Bit depth                                : 10 bits
  21. Bits/(Pixel*Frame)                       : 0.097
  22. Stream size                              : 16.0 GiB (95%)
  23. Default                                  : Yes
  24. Alternate group                          : 1
  25. Encoded date                             : UTC 2022-08-07 08:06:11
  26. Tagged date                              : UTC 2022-08-07 08:13:57
  27. Codec configuration box                  : hvcC+dvcC
  28. Audio
  29. ID                                       : 2
  30. Format                                   : E-AC-3 JOC
  31. Format/Info                              : Enhanced AC-3 with Joint Object Coding
  32. Commercial name                          : Dolby Digital Plus with Dolby Atmos
  33. Codec ID                                 : ec-3
  34. Duration                                 : 2 h 39 min
  35. Bit rate mode                            : Constant
  36. Bit rate                                 : 768 kb/s
  37. Maximum bit rate                         : 811 kb/s
  38. Channel(s)                               : 6 channels
  39. Channel layout                           : L R C LFE Ls Rs
  40. Sampling rate                            : 48.0 kHz
  41. Frame rate                               : 31.250 FPS (1536 SPF)
  42. Compression mode                         : Lossy
  43. Stream size                              : 875 MiB (5%)
  44. Title                                    : English
  45. Language                                 : English
  46. Service kind                             : Complete Main
  47. Default                                  : Yes
  48. Alternate group                          : 1
  49. Tagged date                              : UTC 2022-08-07 08:13:57
  50. Complexity index                         : Not present / 16
  51. Number of dynamic objects                : 15
  52. Bed channel count                        : 1 channel
  53. Bed channel configuration                : LFE
  54. Text #1
  55. ID                                       : 3
  56. Format                                   : Timed Text
  57. Codec ID                                 : tx3g
  58. Duration                                 : 2 h 39 min
  59. Bit rate mode                            : Variable
  60. Bit rate                                 : 112 b/s
  61. Frame rate                               : 0.592 FPS
  62. Stream size                              : 131 KiB (0%)
  63. Title                                    : English
  64. Language                                 : English
  65. Forced                                   : No
  66. Encoded date                             : UTC 2022-08-07 08:13:53
  67. Tagged date                              : UTC 2022-08-07 08:13:57
  68. Text #2
  69. ID                                       : 4
  70. Format                                   : Timed Text
  71. Codec ID                                 : tx3g
  72. Duration                                 : 2 h 39 min
  73. Bit rate mode                            : Variable
  74. Bit rate                                 : 102 b/s
  75. Frame rate                               : 0.532 FPS
  76. Stream size                              : 119 KiB (0%)
  77. Title                                    : English
  78. Language                                 : English
  79. Forced                                   : No
  80. Encoded date                             : UTC 2022-08-07 08:13:53
  81. Tagged date                              : UTC 2022-08-07 08:13:57
  82. Text #3
  83. ID                                       : 5
  84. Format                                   : Timed Text
  85. Codec ID                                 : tx3g
  86. Duration                                 : 2 h 39 min
  87. Bit rate mode                            : Variable
  88. Bit rate                                 : 100 b/s
  89. Frame rate                               : 0.373 FPS
  90. Stream size                              : 116 KiB (0%)
  91. Title                                    : Arabic
  92. Language                                 : Arabic
  93. Forced                                   : No
  94. Encoded date                             : UTC 2022-08-07 08:13:53
  95. Tagged date                              : UTC 2022-08-07 08:13:57
  96. Text #4
  97. ID                                       : 6
  98. Format                                   : Timed Text
  99. Codec ID                                 : tx3g
  100. Duration                                 : 2 h 39 min
  101. Bit rate mode                            : Variable
  102. Bit rate                                 : 105 b/s
  103. Frame rate                               : 0.445 FPS
  104. Stream size                              : 123 KiB (0%)
  105. Title                                    : Bulgarian
  106. Language                                 : Bulgarian
  107. Forced                                   : No
  108. Encoded date                             : UTC 2022-08-07 08:13:53
  109. Tagged date                              : UTC 2022-08-07 08:13:57
  110. Text #5
  111. ID                                       : 7
  112. Format                                   : Timed Text
  113. Codec ID                                 : tx3g
  114. Duration                                 : 2 h 39 min
  115. Bit rate mode                            : Variable
  116. Bit rate                                 : 69 b/s
  117. Frame rate                               : 0.446 FPS
  118. Stream size                              : 80.1 KiB (0%)
  119. Title                                    : Chinese-Simplified
  120. Language                                 : Chinese
  121. Forced                                   : No
  122. Encoded date                             : UTC 2022-08-07 08:13:53
  123. Tagged date                              : UTC 2022-08-07 08:13:57
  124. Text #6
  125. ID                                       : 8
  126. Format                                   : Timed Text
  127. Codec ID                                 : tx3g
  128. Duration                                 : 2 h 39 min
  129. Bit rate mode                            : Variable
  130. Bit rate                                 : 64 b/s
  131. Frame rate                               : 0.433 FPS
  132. Stream size                              : 74.7 KiB (0%)
  133. Title                                    : Chinese-Traditional
  134. Language                                 : Chinese
  135. Forced                                   : No
  136. Encoded date                             : UTC 2022-08-07 08:13:53
  137. Tagged date                              : UTC 2022-08-07 08:13:57
  138. Text #7
  139. ID                                       : 9
  140. Format                                   : Timed Text
  141. Codec ID                                 : tx3g
  142. Duration                                 : 2 h 39 min
  143. Bit rate mode                            : Variable
  144. Bit rate                                 : 71 b/s
  145. Frame rate                               : 0.441 FPS
  146. Stream size                              : 82.2 KiB (0%)
  147. Title                                    : Czech
  148. Language                                 : Czech
  149. Forced                                   : No
  150. Encoded date                             : UTC 2022-08-07 08:13:54
  151. Tagged date                              : UTC 2022-08-07 08:13:57
  152. Text #8
  153. ID                                       : 10
  154. Format                                   : Timed Text
  155. Codec ID                                 : tx3g
  156. Duration                                 : 2 h 39 min
  157. Bit rate mode                            : Variable
  158. Bit rate                                 : 49 b/s
  159. Frame rate                               : 0.257 FPS
  160. Stream size                              : 56.8 KiB (0%)
  161. Title                                    : Danish
  162. Language                                 : Danish
  163. Forced                                   : No
  164. Encoded date                             : UTC 2022-08-07 08:13:54
  165. Tagged date                              : UTC 2022-08-07 08:13:57
  166. Text #9
  167. ID                                       : 11
  168. Format                                   : Timed Text
  169. Codec ID                                 : tx3g
  170. Duration                                 : 2 h 39 min
  171. Bit rate mode                            : Variable
  172. Bit rate                                 : 52 b/s
  173. Frame rate                               : 0.289 FPS
  174. Stream size                              : 61.0 KiB (0%)
  175. Title                                    : Dutch
  176. Language                                 : Dutch
  177. Forced                                   : No
  178. Encoded date                             : UTC 2022-08-07 08:13:54
  179. Tagged date                              : UTC 2022-08-07 08:13:57
  180. Text #10
  181. ID                                       : 12
  182. Format                                   : Timed Text
  183. Codec ID                                 : tx3g
  184. Duration                                 : 2 h 39 min
  185. Bit rate mode                            : Variable
  186. Bit rate                                 : 52 b/s
  187. Frame rate                               : 0.370 FPS
  188. Stream size                              : 60.7 KiB (0%)
  189. Title                                    : Estonian
  190. Language                                 : Estonian
  191. Forced                                   : No
  192. Encoded date                             : UTC 2022-08-07 08:13:54
  193. Tagged date                              : UTC 2022-08-07 08:13:57
  194. Text #11
  195. ID                                       : 13
  196. Format                                   : Timed Text
  197. Codec ID                                 : tx3g
  198. Duration                                 : 2 h 39 min
  199. Bit rate mode                            : Variable
  200. Bit rate                                 : 59 b/s
  201. Frame rate                               : 0.385 FPS
  202. Stream size                              : 69.0 KiB (0%)
  203. Title                                    : Finnish
  204. Language                                 : Finnish
  205. Forced                                   : No
  206. Encoded date                             : UTC 2022-08-07 08:13:54
  207. Tagged date                              : UTC 2022-08-07 08:13:57
  208. Text #12
  209. ID                                       : 14
  210. Format                                   : Timed Text
  211. Codec ID                                 : tx3g
  212. Duration                                 : 2 h 39 min
  213. Bit rate mode                            : Variable
  214. Bit rate                                 : 52 b/s
  215. Frame rate                               : 0.391 FPS
  216. Stream size                              : 61.0 KiB (0%)
  217. Title                                    : French
  218. Language                                 : French
  219. Forced                                   : No
  220. Encoded date                             : UTC 2022-08-07 08:13:54
  221. Tagged date                              : UTC 2022-08-07 08:13:57
  222. Text #13
  223. ID                                       : 15
  224. Format                                   : Timed Text
  225. Codec ID                                 : tx3g
  226. Duration                                 : 2 h 39 min
  227. Bit rate mode                            : Variable
  228. Bit rate                                 : 70 b/s
  229. Frame rate                               : 0.400 FPS
  230. Stream size                              : 81.7 KiB (0%)
  231. Title                                    : German
  232. Language                                 : German
  233. Forced                                   : No
  234. Encoded date                             : UTC 2022-08-07 08:13:54
  235. Tagged date                              : UTC 2022-08-07 08:13:57
  236. Text #14
  237. ID                                       : 16
  238. Format                                   : Timed Text
  239. Codec ID                                 : tx3g
  240. Duration                                 : 2 h 39 min
  241. Bit rate mode                            : Variable
  242. Bit rate                                 : 63 b/s
  243. Frame rate                               : 0.355 FPS
  244. Stream size                              : 73.5 KiB (0%)
  245. Title                                    : German
  246. Language                                 : German
  247. Forced                                   : No
  248. Encoded date                             : UTC 2022-08-07 08:13:54
  249. Tagged date                              : UTC 2022-08-07 08:13:57
  250. Text #15
  251. ID                                       : 17
  252. Format                                   : Timed Text
  253. Codec ID                                 : tx3g
  254. Duration                                 : 2 h 39 min
  255. Bit rate mode                            : Variable
  256. Bit rate                                 : 93 b/s
  257. Frame rate                               : 0.371 FPS
  258. Stream size                              : 109 KiB (0%)
  259. Title                                    : Greek
  260. Language                                 : Greek
  261. Forced                                   : No
  262. Encoded date                             : UTC 2022-08-07 08:13:55
  263. Tagged date                              : UTC 2022-08-07 08:13:57
  264. Text #16
  265. ID                                       : 18
  266. Format                                   : Timed Text
  267. Codec ID                                 : tx3g
  268. Duration                                 : 2 h 39 min
  269. Bit rate mode                            : Variable
  270. Bit rate                                 : 55 b/s
  271. Frame rate                               : 0.305 FPS
  272. Stream size                              : 64.0 KiB (0%)
  273. Title                                    : Hungarian
  274. Language                                 : Hungarian
  275. Forced                                   : No
  276. Encoded date                             : UTC 2022-08-07 08:13:55
  277. Tagged date                              : UTC 2022-08-07 08:13:57
  278. Text #17
  279. ID                                       : 19
  280. Format                                   : Timed Text
  281. Codec ID                                 : tx3g
  282. Duration                                 : 2 h 39 min
  283. Bit rate mode                            : Variable
  284. Bit rate                                 : 74 b/s
  285. Frame rate                               : 0.448 FPS
  286. Stream size                              : 86.7 KiB (0%)
  287. Title                                    : Italian
  288. Language                                 : Italian
  289. Forced                                   : No
  290. Encoded date                             : UTC 2022-08-07 08:13:55
  291. Tagged date                              : UTC 2022-08-07 08:13:57
  292. Text #18
  293. ID                                       : 20
  294. Format                                   : Timed Text
  295. Codec ID                                 : tx3g
  296. Duration                                 : 2 h 39 min
  297. Bit rate mode                            : Variable
  298. Bit rate                                 : 58 b/s
  299. Frame rate                               : 0.402 FPS
  300. Stream size                              : 67.7 KiB (0%)
  301. Title                                    : Japanese
  302. Language                                 : Japanese
  303. Forced                                   : No
  304. Encoded date                             : UTC 2022-08-07 08:13:55
  305. Tagged date                              : UTC 2022-08-07 08:13:57
  306. Text #19
  307. ID                                       : 21
  308. Format                                   : Timed Text
  309. Codec ID                                 : tx3g
  310. Duration                                 : 2 h 39 min
  311. Bit rate mode                            : Variable
  312. Bit rate                                 : 58 b/s
  313. Frame rate                               : 0.402 FPS
  314. Stream size                              : 67.3 KiB (0%)
  315. Title                                    : Korean
  316. Language                                 : Korean
  317. Forced                                   : No
  318. Encoded date                             : UTC 2022-08-07 08:13:55
  319. Tagged date                              : UTC 2022-08-07 08:13:57
  320. Text #20
  321. ID                                       : 22
  322. Format                                   : Timed Text
  323. Codec ID                                 : tx3g
  324. Duration                                 : 2 h 39 min
  325. Bit rate mode                            : Variable
  326. Bit rate                                 : 58 b/s
  327. Frame rate                               : 0.368 FPS
  328. Stream size                              : 67.5 KiB (0%)
  329. Title                                    : Latvian
  330. Language                                 : Latvian
  331. Forced                                   : No
  332. Encoded date                             : UTC 2022-08-07 08:13:55
  333. Tagged date                              : UTC 2022-08-07 08:13:57
  334. Text #21
  335. ID                                       : 23
  336. Format                                   : Timed Text
  337. Codec ID                                 : tx3g
  338. Duration                                 : 2 h 39 min
  339. Bit rate mode                            : Variable
  340. Bit rate                                 : 61 b/s
  341. Frame rate                               : 0.370 FPS
  342. Stream size                              : 71.1 KiB (0%)
  343. Title                                    : Lithuanian
  344. Language                                 : Lithuanian
  345. Forced                                   : No
  346. Encoded date                             : UTC 2022-08-07 08:13:55
  347. Tagged date                              : UTC 2022-08-07 08:13:57
  348. Text #22
  349. ID                                       : 24
  350. Format                                   : Timed Text
  351. Codec ID                                 : tx3g
  352. Duration                                 : 2 h 39 min
  353. Bit rate mode                            : Variable
  354. Bit rate                                 : 54 b/s
  355. Frame rate                               : 0.298 FPS
  356. Stream size                              : 62.8 KiB (0%)
  357. Title                                    : Norwegian
  358. Language                                 : Norwegian
  359. Forced                                   : No
  360. Encoded date                             : UTC 2022-08-07 08:13:55
  361. Tagged date                              : UTC 2022-08-07 08:13:57
  362. Text #23
  363. ID                                       : 25
  364. Format                                   : Timed Text
  365. Codec ID                                 : tx3g
  366. Duration                                 : 2 h 39 min
  367. Bit rate mode                            : Variable
  368. Bit rate                                 : 60 b/s
  369. Frame rate                               : 0.369 FPS
  370. Stream size                              : 69.7 KiB (0%)
  371. Title                                    : Polish
  372. Language                                 : Polish
  373. Forced                                   : No
  374. Encoded date                             : UTC 2022-08-07 08:13:55
  375. Tagged date                              : UTC 2022-08-07 08:13:57
  376. Text #24
  377. ID                                       : 26
  378. Format                                   : Timed Text
  379. Codec ID                                 : tx3g
  380. Duration                                 : 2 h 39 min
  381. Bit rate mode                            : Variable
  382. Bit rate                                 : 73 b/s
  383. Frame rate                               : 0.441 FPS
  384. Stream size                              : 85.2 KiB (0%)
  385. Title                                    : Portuguese
  386. Language                                 : Portuguese
  387. Forced                                   : No
  388. Encoded date                             : UTC 2022-08-07 08:13:56
  389. Tagged date                              : UTC 2022-08-07 08:13:57
  390. Text #25
  391. ID                                       : 27
  392. Format                                   : Timed Text
  393. Codec ID                                 : tx3g
  394. Duration                                 : 2 h 39 min
  395. Bit rate mode                            : Variable
  396. Bit rate                                 : 73 b/s
  397. Frame rate                               : 0.435 FPS
  398. Stream size                              : 85.0 KiB (0%)
  399. Title                                    : Portuguese
  400. Language                                 : Portuguese
  401. Forced                                   : No
  402. Encoded date                             : UTC 2022-08-07 08:13:56
  403. Tagged date                              : UTC 2022-08-07 08:13:57
  404. Text #26
  405. ID                                       : 28
  406. Format                                   : Timed Text
  407. Codec ID                                 : tx3g
  408. Duration                                 : 2 h 39 min
  409. Bit rate mode                            : Variable
  410. Bit rate                                 : 86 b/s
  411. Frame rate                               : 0.370 FPS
  412. Stream size                              : 100 KiB (0%)
  413. Title                                    : Russian
  414. Language                                 : Russian
  415. Forced                                   : No
  416. Encoded date                             : UTC 2022-08-07 08:13:56
  417. Tagged date                              : UTC 2022-08-07 08:13:57
  418. Text #27
  419. ID                                       : 29
  420. Format                                   : Timed Text
  421. Codec ID                                 : tx3g
  422. Duration                                 : 2 h 39 min
  423. Bit rate mode                            : Variable
  424. Bit rate                                 : 54 b/s
  425. Frame rate                               : 0.363 FPS
  426. Stream size                              : 62.7 KiB (0%)
  427. Title                                    : Slovak
  428. Language                                 : Slovak
  429. Forced                                   : No
  430. Encoded date                             : UTC 2022-08-07 08:13:56
  431. Tagged date                              : UTC 2022-08-07 08:13:57
  432. Text #28
  433. ID                                       : 30
  434. Format                                   : Timed Text
  435. Codec ID                                 : tx3g
  436. Duration                                 : 2 h 39 min
  437. Bit rate mode                            : Variable
  438. Bit rate                                 : 54 b/s
  439. Frame rate                               : 0.346 FPS
  440. Stream size                              : 62.9 KiB (0%)
  441. Title                                    : Slovenian
  442. Language                                 : Slovenian
  443. Forced                                   : No
  444. Encoded date                             : UTC 2022-08-07 08:13:56
  445. Tagged date                              : UTC 2022-08-07 08:13:57
  446. Text #29
  447. ID                                       : 31
  448. Format                                   : Timed Text
  449. Codec ID                                 : tx3g
  450. Duration                                 : 2 h 39 min
  451. Bit rate mode                            : Variable
  452. Bit rate                                 : 70 b/s
  453. Frame rate                               : 0.440 FPS
  454. Stream size                              : 81.8 KiB (0%)
  455. Title                                    : Spanish
  456. Language                                 : Spanish
  457. Forced                                   : No
  458. Encoded date                             : UTC 2022-08-07 08:13:56
  459. Tagged date                              : UTC 2022-08-07 08:13:57
  460. Text #30
  461. ID                                       : 32
  462. Format                                   : Timed Text
  463. Codec ID                                 : tx3g
  464. Duration                                 : 2 h 39 min
  465. Bit rate mode                            : Variable
  466. Bit rate                                 : 60 b/s
  467. Frame rate                               : 0.374 FPS
  468. Stream size                              : 69.9 KiB (0%)
  469. Title                                    : Spanish-EU
  470. Language                                 : Spanish
  471. Forced                                   : No
  472. Encoded date                             : UTC 2022-08-07 08:13:56
  473. Tagged date                              : UTC 2022-08-07 08:13:57
  474. Text #31
  475. ID                                       : 33
  476. Format                                   : Timed Text
  477. Codec ID                                 : tx3g
  478. Duration                                 : 2 h 39 min
  479. Bit rate mode                            : Variable
  480. Bit rate                                 : 53 b/s
  481. Frame rate                               : 0.299 FPS
  482. Stream size                              : 61.8 KiB (0%)
  483. Title                                    : Swedish
  484. Language                                 : Swedish
  485. Forced                                   : No
  486. Encoded date                             : UTC 2022-08-07 08:13:56
  487. Tagged date                              : UTC 2022-08-07 08:13:57
  488. Text #32
  489. ID                                       : 34
  490. Format                                   : Timed Text
  491. Codec ID                                 : tx3g
  492. Duration                                 : 2 h 39 min
  493. Bit rate mode                            : Variable
  494. Bit rate                                 : 154 b/s
  495. Frame rate                               : 0.446 FPS
  496. Stream size                              : 180 KiB (0%)
  497. Title                                    : Thai
  498. Language                                 : Thai
  499. Forced                                   : No
  500. Encoded date                             : UTC 2022-08-07 08:13:57
  501. Tagged date                              : UTC 2022-08-07 08:13:57
复制代码




                                       
                                       

                                       
                                       
                                       




Elvis.2022.2160p.WEB-DL.DDP5.1.Atmos.DV.MP4.x265-DVSUX.torrent (21.74 KB, 下载次数: 0)
回复

使用道具 举报

您需要登录后才可以回帖 登录 | 立即注册

本版积分规则

QQ|Archiver|手机版|小黑屋|蓝光电影网

GMT+8, 2022-10-8 04:00 , Processed in 0.057130 second(s), 28 queries .

Powered by Discuz! X3.4

Copyright © 2001-2020, Tencent Cloud.

快速回复 返回顶部 返回列表